#TITLE:Special Stage;
#SUBTITLE:(JP Version);
#ARTIST:Sonic CD;
#TITLETRANSLIT:;
#SUBTITLETRANSLIT:;
#ARTISTTRANSLIT:;
#GENRE:;
#CREDIT:;
#BANNER:Special Stage (JP Version).png;
#BACKGROUND:Special Stage (JP Version)-bg.png;
#LYRICSPATH:;
#CDTITLE:;
#MUSIC:Special Stage (JP Version).mp3;
#OFFSET:-0.131;
#SAMPLESTART:12.458;
#SAMPLELENGTH:12.000;
#SELECTABLE:YES;
#BPMS:0.000=156.080;
#STOPS:;
#TIMESIGNATURES:0.000=4=4
;
#BGCHANGES:;
#KEYSOUNDS:;
#ATTACKS:;

//---------------dance-single - Blank----------------
#NOTES:
     dance-single:
     Blank:
     Hard:
     8:
     0.527,0.545,0.311,0.262,0.250,380.000,38.000,32.000,0.000,0.000,0.000,-1.000,-1.000,0.527,0.545,0.311,0.262,0.250,380.000,38.000,32.000,0.000,0.000,0.000,-1.000,-1.000: // measure 1
0000
0000
0000
0000
,  // measure 2
0000
0000
0000
0000
,  // measure 3
0000
0000
0000
0000
,  // measure 4
0000
0000
0000
0000
,  // measure 5
0010
0000
0000
0000
0110
0000
0000
0000
0001
0000
0000
1000
0000
0000
1000
0000
,  // measure 6
0000
0000
0100
0000
0100
0000
0000
0000
1000
0000
0000
0001
0000
0000
1000
0000
,  // measure 7
0010
0000
0000
0000
0110
0000
0000
0000
0001
0000
0000
1000
0000
0000
1000
0000
,  // measure 8
0000
0010
0010
0000
2002
0000
3003
0000
,  // measure 9
0010
1000
0100
1000
0001
0100
1000
0100
,  // measure 10
0000
0100
0010
1000
0001
0010
0100
0000
,  // measure 11
0010
0001
0100
0001
0010
0100
1000
0010
,  // measure 12
0000
0000
0010
0000
1000
0000
0100
0000
0001
0000
0001
0100
0000
0100
1000
0000
,  // measure 13
0001
0010
0100
0001
0100
0010
0001
1000
,  // measure 14
0000
1000
0010
0100
0001
0010
0100
0000
,  // measure 15
1000
0010
0100
1000
0100
0010
1000
0001
,  // measure 16
0000
0000
1000
0000
0001
0000
1000
0000
0100
0000
0100
0010
0000
0010
0001
0000
,  // measure 17
2000
0000
0000
0000
3200
0000
0000
0000
0310
0000
0000
0010
0000
0000
0001
0000
,  // measure 18
0000
0000
0100
0000
0010
0000
0000
0000
0010
0000
0000
0100
0000
0000
0001
0000
,  // measure 19
2000
0000
0000
0000
3020
0000
0000
0000
0130
0000
0000
0100
0000
0000
0001
0000
,  // measure 20
0000
0000
1000
0000
0100
0000
0000
0000
1000
0000
0000
0010
0000
0000
0100
0000
,  // measure 21
0002
0000
0000
0000
0203
0000
0000
0000
0310
0000
0000
1000
0000
0000
0001
0000
,  // measure 22
0000
0000
1000
0000
1000
0000
0000
0000
0100
0000
0000
0100
0000
0000
1000
0000
,  // measure 23
0020
0000
0000
0000
0230
0000
0000
0000
0301
0000
0000
0010
0000
0000
0100
0000
,  // measure 24
0000
0000
1000
0000
0001
0000
0000
0000
1000
0000
0000
0001
0000
0000
0100
0000
,  // measure 25
0010
0010
0000
0202
0000
0000
0303
0000
,  // measure 26
1000
1000
0000
0110
0000
0101
0000
0001
,  // measure 27
0010
0010
0000
2200
0000
0000
3300
0000
,  // measure 28
0001
0001
0000
1100
0000
0101
0000
1000
,  // measure 29
0100
0100
0000
2002
0000
0000
3003
0000
,  // measure 30
0010
0010
0000
0011
0000
0101
0000
1000
,  // measure 31
0100
0100
0000
2002
0000
0000
3003
0000
,  // measure 32
0010
1000
0001
1001
0000
0110
0000
0001
,  // measure 33
2000
0000
0000
0000
0100
0000
0000
0000
0010
0000
0000
0010
0000
0000
3001
0000
,  // measure 34
0000
0000
0010
0000
0010
0000
0000
0000
1000
0000
0000
0010
0000
0000
0100
0000
,  // measure 35
0002
0000
0000
0000
0100
0000
0000
0000
0010
0000
0000
0010
0000
0000
1003
0000
,  // measure 36
0000
0000
0100
0000
0010
0000
0000
0000
0001
0000
0000
1000
0000
0000
0001
0000
,  // measure 37
0200
0000
0000
0000
1000
0000
0000
0000
0010
0000
0000
0010
0000
0000
0301
0000
,  // measure 38
0000
0000
1000
0000
0010
0000
0000
0000
0100
0000
0000
0001
0000
0000
1000
0000
,  // measure 39
0200
0000
0000
0000
0001
0000
0000
0000
0010
0000
0000
0010
0000
0000
1300
0000
,  // measure 40
0000
0000
1000
0000
0100
0000
0000
0000
0010
0000
0000
0001
0000
0000
0100
0000
,  // measure 41
0010
0010
0000
2002
0000
0000
0003
0000
,  // measure 42
0100
0100
0000
0010
0000
0001
3000
0001
,  // measure 43
0010
0010
0000
2002
0000
0000
3000
0000
,  // measure 44
0100
0100
0000
0010
0000
1000
0003
1000
,  // measure 45
0100
0100
0000
0220
0000
0000
0300
0000
,  // measure 46
0001
0001
0000
1000
0000
0001
0030
0001
,  // measure 47
0100
0100
0000
0220
0000
0000
0330
0000
,  // measure 48
1000
0000
0000
0000
1000
0000
0000
0000
1000
0100
1000
0100
0010
0001
0010
0001
,  // measure 49
1000
0000
0000
0000
1001
0000
0000
0000
0001
0000
0000
0100
0000
0000
0100
0000
,  // measure 50
0000
0000
0010
0000
0010
0000
0000
0000
1000
0000
0000
0001
0000
0000
0100
0000
,  // measure 51
0010
0000
0000
0000
0110
0000
0000
0000
1000
0000
0000
0001
0000
0000
0001
0000
,  // measure 52
0000
0000
0010
0000
0010
0000
0000
0000
1100
0000
0000
0101
0000
0000
1000
0000
,  // measure 53
0100
0000
0000
0000
0110
0000
0000
0000
0001
0000
0001
1000
0000
0000
1000
0000
,  // measure 54
0000
0000
0010
0000
0010
0000
0000
0000
0100
0000
0000
0001
0000
0000
1000
0000
,  // measure 55
0001
0000
0000
0000
1001
0000
0000
0000
0010
0000
0010
0100
0000
0000
0100
0000
,  // measure 56
0000
0000
1001
0000
1001
0000
0000
0000
0011
0000
0000
0110
0000
0000
1100
0000
,  // measure 57
1000
0000
0000
0000
0101
0000
0000
0000
1000
0000
1000
0100
0000
0100
0010
0000
,  // measure 58
0000
0000
0001
0000
0001
0000
0000
0000
0010
0000
0000
0100
0000
0000
1000
0000
,  // measure 59
0001
0000
0000
0000
1100
0000
0000
0000
0001
0000
0001
0100
0000
0100
0010
0000
,  // measure 60
0000
0000
1000
0000
1000
0000
0000
0000
0101
0000
0000
1001
0000
0000
1100
0000
,  // measure 61
0100
0000
0000
0000
0110
0000
0000
0000
1000
0000
1000
0001
0000
0001
1000
0000
,  // measure 62
0000
0000
0010
0000
0100
0000
0000
0000
0001
0000
0001
1000
0000
1000
0001
0000
,  // measure 63
0010
0000
0000
0000
0110
0000
0000
0000
1000
0000
1000
0001
0000
0001
0100
0000
,  // measure 64
0000
0000
0010
0000
0010
0000
1000
0000
0001
0000
0001
0010
0000
0010
0100
0000
,  // measure 65
1000
0000
0000
0000
0100
0000
0000
0000
0001
0000
0000
0001
0000
0000
0001
0000
,  // measure 66
1000
0000
0000
0000
0010
0000
0000
0000
0001
0000
0000
0001
0000
0000
0001
0000
,  // measure 67
1000
0000
0000
0000
0010
0000
0000
0000
0001
0000
0000
0001
0000
0000
0001
0000
,  // measure 68
1000
0000
0000
0000
0100
0000
0000
0000
0001
0000
0000
0001
0000
0000
0001
0000
,  // measure 69
0100
0000
0010
0000
1000
0000
0100
0000
0010
0000
0001
0010
0000
0001
0010
0000
,  // measure 70
0001
0000
0100
0000
0010
0000
1000
0000
0001
0000
0100
0001
0000
0100
0001
0000
,  // measure 71
1000
0000
0100
0000
0001
0000
0100
0000
0010
0000
0100
0010
0000
0100
0010
0000
,  // measure 72
0001
0000
0100
0000
1000
0000
0100
0000
0010
0000
0100
0010
0000
0100
0010
0000
,  // measure 73
2002
0000
0000
0000
,  // measure 74
0000
0000
0000
0000
,  // measure 75
3003
0000
0000
0000
;

//---------------dance-single - Blank----------------
#NOTES:
     dance-single:
     Blank:
     Medium:
     6:
     0.427,0.424,0.229,0.229,0.070,309.000,28.000,28.000,0.000,0.000,0.000,-1.000,-1.000,0.427,0.424,0.229,0.229,0.070,309.000,28.000,28.000,0.000,0.000,0.000,-1.000,-1.000: // measure 1
0000
0000
0000
0000
,  // measure 2
0000
0000
0000
0000
,  // measure 3
0000
0000
0000
0000
,  // measure 4
0000
0000
0000
0000
,  // measure 5
0010
0000
0000
0000
0010
0000
0000
0000
1000
0000
0000
0001
0000
0000
0001
0000
,  // measure 6
0000
0000
0010
0000
0010
0000
0000
0000
1000
0000
0000
0001
0000
0000
0001
0000
,  // measure 7
0010
0000
0000
0000
0010
0000
0000
0000
0001
0000
0000
1000
0000
0000
1000
0000
,  // measure 8
0000
0010
0010
0000
2002
0000
3003
0000
,  // measure 9
0001
0000
0100
0000
0010
1000
0001
0000
,  // measure 10
0001
0100
0010
0000
0010
0100
0001
0000
,  // measure 11
1000
0000
0100
0000
0010
0001
0100
0000
,  // measure 12
0001
0100
1000
0000
1000
0100
0001
0000
,  // measure 13
1000
0000
0100
0000
0010
0001
1000
0000
,  // measure 14
1000
0100
0010
0000
0010
0100
1000
0000
,  // measure 15
0001
0000
0100
0000
0010
1000
0100
0000
,  // measure 16
1000
0010
0001
0000
0001
0010
1000
0000
,  // measure 17
0100
0000
1001
0000
0001
0000
0001
0100
,  // measure 18
0000
0100
0010
0000
1000
0000
0001
0000
,  // measure 19
0100
0000
1001
0000
1000
0000
1000
0100
,  // measure 20
0000
0100
0010
0000
0001
0000
1000
0000
,  // measure 21
0100
0000
1001
0000
1000
0000
1000
0100
,  // measure 22
0000
0100
0010
0000
0001
0000
1000
0000
,  // measure 23
0100
0000
1001
0000
0001
0000
0001
0100
,  // measure 24
0000
0100
0010
0000
1000
0000
0001
0000
,  // measure 25
0010
0010
0000
0202
0000
0000
0303
0000
,  // measure 26
1000
0100
0001
0100
,  // measure 27
0010
0010
0000
2200
0000
0000
3300
0000
,  // measure 28
0001
0100
1000
0100
,  // measure 29
0100
0100
0000
2002
0000
0000
3003
0000
,  // measure 30
0001
0100
0010
1000
,  // measure 31
0100
0100
0000
2002
0000
0000
3003
0000
,  // measure 32
1000
0100
0010
0001
,  // measure 33
2000
0000
0000
0000
0001
0000
0000
0000
0001
0000
0000
0001
0000
0000
3001
0000
,  // measure 34
0000
0001
0100
0000
0010
0000
1001
0000
,  // measure 35
0002
0000
0000
0000
1000
0000
0000
0000
1000
0000
0000
1000
0000
0000
1003
0000
,  // measure 36
0000
1000
0100
0000
0010
0000
1001
0000
,  // measure 37
0200
0000
0000
0000
0010
0000
0000
0000
0010
0000
0000
0010
0000
0000
0310
0000
,  // measure 38
0000
0100
0001
0000
1000
0000
1100
0000
,  // measure 39
0200
0000
0000
0000
0010
0000
0000
0000
0010
0000
0000
0010
0000
0000
0310
0000
,  // measure 40
0000
0100
1000
0000
0001
0000
0101
0000
,  // measure 41
0010
0010
0000
2002
0000
0000
0003
0000
,  // measure 42
0100
0100
0001
3001
,  // measure 43
0010
0010
0000
2002
0000
0000
3000
0000
,  // measure 44
0100
0100
1000
1003
,  // measure 45
0100
0100
0000
0220
0000
0000
0330
0000
,  // measure 46
0001
1000
1100
0101
,  // measure 47
0100
0100
0000
0220
0000
0000
0330
0000
,  // measure 48
1001
0000
1001
0000
0001
1000
0001
1000
,  // measure 49
0010
0000
0010
0000
1000
0000
1000
0001
,  // measure 50
0000
0010
0010
0000
1000
0000
1000
0001
,  // measure 51
0010
0000
0010
0000
0001
0000
0001
1000
,  // measure 52
0000
0000
0010
0000
0010
0000
0000
0000
0001
0000
0000
0010
0000
0000
0100
0000
,  // measure 53
1000
0000
1000
0000
0010
0000
0010
0100
,  // measure 54
0000
1000
1000
0000
0010
0000
0010
0100
,  // measure 55
0001
0000
0001
0000
0010
0000
0010
0100
,  // measure 56
0000
0000
0001
0000
0001
0000
0000
0000
0010
0000
0000
0100
0000
0000
1000
0000
,  // measure 57
0001
0000
0000
0000
1000
0000
0000
0000
0100
0000
0000
0100
0000
0000
0100
0000
,  // measure 58
0000
0000
0001
0000
1000
0000
0000
0000
0100
0000
0000
0100
0000
0000
0100
0000
,  // measure 59
1000
0000
0000
0000
0001
0000
0000
0000
0100
0000
0000
0100
0000
0000
0100
0000
,  // measure 60
0000
0000
1000
0000
0001
0000
0000
0000
0001
0000
0000
0010
0000
0000
0100
0000
,  // measure 61
1000
0000
0000
0000
1001
0000
0000
0000
0001
0000
0000
0010
0000
0000
0010
0000
,  // measure 62
0000
0000
1000
0000
0001
0000
0000
0000
0001
0000
0000
0010
0000
0000
0010
0000
,  // measure 63
0001
0000
0000
0000
1001
0000
0000
0000
1000
0000
0000
0010
0000
0000
0010
0000
,  // measure 64
0000
0000
1000
0000
0001
0000
0000
0000
0001
0000
0000
0010
0000
0000
0001
0000
,  // measure 65
2000
0100
0100
3100
,  // measure 66
0200
0001
0001
0301
,  // measure 67
0002
0010
0010
0013
,  // measure 68
0020
1000
1000
1030
,  // measure 69
0001
0000
1001
0000
1000
0010
0100
0000
,  // measure 70
0010
0000
0110
0000
0100
1000
0001
0000
,  // measure 71
1000
0000
1001
0000
0001
0100
0010
0000
,  // measure 72
0100
0000
0110
0000
0010
0001
1000
0000
,  // measure 73
2002
0000
0000
0000
,  // measure 74
0000
0000
0000
0000
,  // measure 75
3003
0000
0000
0000
;

//---------------dance-single - Blank----------------
#NOTES:
     dance-single:
     Blank:
     Easy:
     4:
     0.356,0.364,0.254,0.262,0.000,241.000,31.000,32.000,0.000,0.000,0.000,-1.000,-1.000,0.356,0.364,0.254,0.262,0.000,241.000,31.000,32.000,0.000,0.000,0.000,-1.000,-1.000: // measure 1
0000
0000
0000
0000
,  // measure 2
0000
0000
0000
0000
,  // measure 3
0000
0000
0000
0000
,  // measure 4
0000
0000
0000
0000
,  // measure 5
0010
0010
1000
0001
,  // measure 6
0010
0010
1000
0001
,  // measure 7
0010
0010
0001
1000
,  // measure 8
0010
0010
2002
3003
,  // measure 9
0001
0001
0100
0010
,  // measure 10
0001
0001
0100
0010
,  // measure 11
1000
1000
0100
0010
,  // measure 12
1000
1000
0100
0010
,  // measure 13
0001
0001
1000
0100
,  // measure 14
0001
0001
1000
0100
,  // measure 15
1000
1000
0001
0100
,  // measure 16
1000
1000
0001
0100
,  // measure 17
0002
0003
1000
1000
,  // measure 18
0100
0010
0001
0101
,  // measure 19
2000
3000
0001
0001
,  // measure 20
0100
0010
1000
1100
,  // measure 21
0002
0003
1000
0001
,  // measure 22
0100
1000
0100
0101
,  // measure 23
2000
3000
0001
1000
,  // measure 24
0100
0001
0100
1100
,  // measure 25
0010
0000
0000
0202
0000
0000
0303
0000
,  // measure 26
1000
1000
0001
0001
,  // measure 27
0010
0000
0000
2200
0000
0000
3300
0000
,  // measure 28
0001
0001
1000
1000
,  // measure 29
0100
0000
0000
2002
0000
0000
3003
0000
,  // measure 30
0001
0100
0010
1000
,  // measure 31
0100
0000
0000
2002
0000
0000
3003
0000
,  // measure 32
1000
0100
0010
0001
,  // measure 33
2000
0001
0001
3001
,  // measure 34
0000
1000
0010
0100
,  // measure 35
0002
1000
1000
1003
,  // measure 36
0000
1000
0001
0010
,  // measure 37
0200
0010
0010
0310
,  // measure 38
0000
0001
1000
0010
,  // measure 39
0200
0010
0010
0310
,  // measure 40
0000
1000
0001
0010
,  // measure 41
0010
0000
0000
2001
0000
0000
0000
0000
,  // measure 42
0100
0100
3100
0100
,  // measure 43
0010
0000
0000
1002
0000
0000
0000
0000
,  // measure 44
0100
0100
0103
0100
,  // measure 45
0010
0000
0000
0220
0000
0330
0000
0000
,  // measure 46
1000
1000
0001
0001
,  // measure 47
0010
0000
0000
0220
0000
0330
0000
0000
,  // measure 48
2002
0000
0000
3003
,  // measure 49
0010
0010
1000
0001
,  // measure 50
0010
0010
1000
0001
,  // measure 51
0010
0010
0001
1000
,  // measure 52
0010
0010
0001
1000
,  // measure 53
0100
0100
1000
0001
,  // measure 54
0100
0100
1000
0001
,  // measure 55
0100
0100
0001
1000
,  // measure 56
0100
0100
0001
1000
,  // measure 57
0001
0101
1000
0100
,  // measure 58
0001
0101
1000
0100
,  // measure 59
1000
1100
0001
0100
,  // measure 60
1000
1100
0001
0100
,  // measure 61
0010
0110
0001
1000
,  // measure 62
0010
0110
0001
1000
,  // measure 63
0010
0110
1000
0001
,  // measure 64
0010
0110
1000
0001
,  // measure 65
2000
0100
0000
0100
,  // measure 66
3002
0100
0000
0100
,  // measure 67
2003
0010
0000
0010
,  // measure 68
3002
0010
0000
0010
,  // measure 69
1003
1100
0100
0110
,  // measure 70
0010
0011
0001
1001
,  // measure 71
0001
0101
0100
0110
,  // measure 72
0010
1010
1000
1001
,  // measure 73
2002
0000
0000
0000
,  // measure 74
0000
0000
0000
0000
,  // measure 75
3003
0000
0000
0000
;

//---------------dance-single - Blank----------------
#NOTES:
     dance-single:
     Blank:
     Beginner:
     1:
     0.161,0.177,0.082,0.066,0.000,120.000,10.000,8.000,0.000,0.000,0.000,-1.000,-1.000,0.161,0.177,0.082,0.066,0.000,120.000,10.000,8.000,0.000,0.000,0.000,-1.000,-1.000: // measure 1
0000
0000
0000
0000
,  // measure 2
0000
0000
0000
0000
,  // measure 3
0000
0000
0000
0000
,  // measure 4
0000
0000
0000
0000
,  // measure 5
0001
0001
0000
0000
,  // measure 6
1000
1000
0000
0000
,  // measure 7
0001
0001
0000
0000
,  // measure 8
1000
1000
1000
0000
,  // measure 9
0010
0010
0000
0000
,  // measure 10
0010
0010
0000
0000
,  // measure 11
1000
1000
0000
0000
,  // measure 12
1000
1000
0000
0000
,  // measure 13
0100
0100
0000
0000
,  // measure 14
0100
0100
0000
0000
,  // measure 15
0001
0001
0000
0000
,  // measure 16
0001
0001
0000
0000
,  // measure 17
2000
0000
0000
3000
,  // measure 18
0000
0000
0000
0000
,  // measure 19
0200
0000
0000
0300
,  // measure 20
0000
0000
0000
0000
,  // measure 21
0020
0000
0000
0030
,  // measure 22
0000
0000
0000
0000
,  // measure 23
0002
0000
0000
0003
,  // measure 24
0000
0000
0000
0000
,  // measure 25
0001
0000
0001
0000
,  // measure 26
1000
1000
1000
0000
,  // measure 27
0010
0000
0010
0000
,  // measure 28
1000
1000
1000
0000
,  // measure 29
0100
0000
0100
0000
,  // measure 30
0001
0001
0001
0000
,  // measure 31
1000
0000
1000
0000
,  // measure 32
0001
0001
0001
0000
,  // measure 33
0002
0000
0000
0003
,  // measure 34
0000
0000
0000
0000
,  // measure 35
0020
0000
0000
0030
,  // measure 36
0000
0000
0000
0000
,  // measure 37
2000
0000
0000
3000
,  // measure 38
0000
0000
0000
0000
,  // measure 39
0200
0000
0000
0300
,  // measure 40
0000
0000
0000
0000
,  // measure 41
0010
0000
0010
0000
,  // measure 42
1000
1000
1000
0000
,  // measure 43
0100
0000
0100
0000
,  // measure 44
0001
0001
0001
0000
,  // measure 45
0010
0000
0010
0000
,  // measure 46
0001
0001
0001
0000
,  // measure 47
0100
0000
0100
0000
,  // measure 48
1001
0000
0000
0000
,  // measure 49
0001
0001
0000
0000
,  // measure 50
0100
0100
0000
0000
,  // measure 51
0010
0010
0000
0000
,  // measure 52
1000
1000
0000
0000
,  // measure 53
0100
0100
0000
0000
,  // measure 54
0010
0010
0000
0000
,  // measure 55
0001
0001
0000
0000
,  // measure 56
1000
1000
0000
0000
,  // measure 57
1001
1001
0000
0000
,  // measure 58
0001
0001
0000
0000
,  // measure 59
1001
1001
0000
0000
,  // measure 60
1000
1000
0000
0000
,  // measure 61
0110
0110
0000
0000
,  // measure 62
0010
0010
0000
0000
,  // measure 63
0110
0110
0000
0000
,  // measure 64
0100
0100
0000
0000
,  // measure 65
1000
0000
1000
0000
,  // measure 66
0100
0000
0100
0000
,  // measure 67
0001
0000
0001
0000
,  // measure 68
0100
0000
0100
0000
,  // measure 69
0010
0000
0010
0000
,  // measure 70
1000
0000
1000
0000
,  // measure 71
0010
0000
0010
0000
,  // measure 72
0001
0000
0001
0000
,  // measure 73
1001
0000
0000
0000
;
