#TITLE:Rotterdam Nation '94;
#SUBTITLE:;
#ARTIST:sampling masters MEGA;
#TITLETRANSLIT:;
#SUBTITLETRANSLIT:;
#ARTISTTRANSLIT:;
#CREDIT:;
#BANNER:;
#BACKGROUND:;
#LYRICSPATH:;
#CDTITLE:;
#MUSIC:Rotterdam Nation '94.mp3;
#OFFSET:-5.250;
#SAMPLESTART:11.730;
#SAMPLELENGTH:10.390;
#SELECTABLE:YES;
#BPMS:0.000=184.644,161.000=201.500,192.000=221.500,256.000=184.644;
#STOPS:160.000=2.275
,189.000=1.489
;
#BGCHANGES:;

//---------------dance-single - ----------------
#NOTES:
     dance-single:
     :
     Hard:
     9:
     0.659,0.633,0.517,0.368,0.018: // measure 1
1000
0000
0001
0000
0000
0220
0000
0000
,  // measure 2
0000
0000
0000
0000
,  // measure 3
0000
0330
2002
3003
,  // measure 4
0220
0000
0000
0000
,  // measure 5
0000
0000
0000
0330
,  // measure 6
0001
0100
0001
0000
1000
0010
1000
0000
,  // measure 7
0001
0010
0001
0010
0100
0100
0010
0010
,  // measure 8
0001
1000
0010
0000
0100
0001
0010
0000
,  // measure 9
0001
1000
0010
0100
0101
0000
1001
0000
,  // measure 10
1000
0100
0001
0000
0001
0100
1000
0000
,  // measure 11
0001
1000
0010
0100
0001
0001
1000
1000
,  // measure 12
0100
0001
0100
0000
0100
1000
0100
0000
,  // measure 13
2002
0000
0000
3003
,  // measure 14
1000
0010
0100
0010
0100
0001
0010
0000
,  // measure 15
0001
0010
0100
0000
0010
0001
0100
0000
,  // measure 16
0010
1000
0001
1000
0100
0010
0100
0000
,  // measure 17
0010
0001
0100
0000
0110
0000
1001
0000
,  // measure 18
1000
0010
1000
0001
0100
0001
0010
0000
,  // measure 19
0010
0001
0100
0000
0010
1000
0100
0000
,  // measure 20
0010
0100
1000
0001
1000
0010
0100
0000
,  // measure 21
1001
0000
0000
0000
0110
0000
0000
0000
0010
0100
0010
0100
0010
0000
0000
0000
,  // measure 22
1000
1000
1000
0000
0001
0001
0001
0000
,  // measure 23
0100
0000
0010
0100
0010
0000
0100
0000
0001
0000
1000
0000
1001
0000
0000
0000
,  // measure 24
0001
0000
0010
0001
0010
0000
0001
0000
1000
0000
0100
0000
1100
0000
0000
0000
,  // measure 25
0010
0001
0011
0000
2002
0000
3003
0000
,  // measure 26
1000
0010
0100
0001
1000
0010
0100
0001
,  // measure 27
1000
0010
0100
0001
1000
1000
0001
0001
,  // measure 28
1000
0100
0010
0100
1000
0100
0010
0100
,  // measure 29
1000
0100
0010
0100
1100
0000
1001
0000
,  // measure 30
0001
0100
0010
1000
0001
0100
0010
1000
,  // measure 31
0001
0100
0010
1000
0001
0001
1000
1000
,  // measure 32
0001
0010
0100
0010
0001
0010
0100
0010
,  // measure 33
0220
0000
0030
0300
,  // measure 34
0010
0001
0010
0001
1000
0001
1000
0000
,  // measure 35
0001
0100
0000
0100
0001
1000
0001
0000
,  // measure 36
1000
0001
1000
0001
0100
0010
0100
0000
,  // measure 37
0010
1000
0000
1000
0100
0010
0011
0000
,  // measure 38
0010
0001
0100
0010
1000
0001
0100
0000
,  // measure 39
0001
1000
0000
1000
0100
0010
0100
1000
,  // measure 40
0001
0100
1000
0100
0001
1000
0100
0010
,  // measure 41
0022
0033
0000
0000
0000
0000
0000
0000
0001
0000
0000
0000
1000
0000
0000
0000
0010
0000
0000
0000
1000
0000
0000
0000
0100
0000
0000
0000
1000
0000
0000
0000
,  // measure 42
0010
1000
0100
0010
0001
0010
0001
0100
,  // measure 43
0010
0000
0100
0010
0001
0010
1000
0010
,  // measure 44
0100
0010
1000
0100
0010
0100
0010
0001
,  // measure 45
1001
0000
0001
0100
0010
0100
0001
0010
,  // measure 46
0100
0010
0001
1000
0010
0100
0001
0001
,  // measure 47
1000
1000
0010
0100
0001
0010
0100
0010
,  // measure 48
0001
0000
0000
0000
1000
0000
0000
0000
2002
3003
0000
0000
0000
0000
0000
0000
0001
0000
0000
0000
1000
0000
0000
0000
0001
0000
0000
0000
1000
0000
0000
0000
,  // measure 49
0001
0100
0000
0101
0000
0011
0000
0010
,  // measure 50
0001
0000
1000
0000
0010
0100
0001
0010
,  // measure 51
0100
0010
0000
0011
0000
1001
0000
1000
,  // measure 52
0010
0000
0100
0000
0001
1000
1001
0000
,  // measure 53
0001
0020
0000
0230
0000
2300
0000
3001
,  // measure 54
0100
0000
0010
0000
0100
0001
0100
0010
,  // measure 55
1000
0020
0000
0230
0000
0302
0000
1003
,  // measure 56
0100
0000
0010
0000
0001
1000
0001
1000
,  // measure 57
0001
0100
0001
0100
0001
1000
0100
0000
,  // measure 58
0010
0000
0100
0000
0010
0001
0100
0000
,  // measure 59
0010
1000
0010
1000
0010
0100
0001
0000
,  // measure 60
0010
0000
0001
0000
1000
0100
1000
0000
,  // measure 61
0022
0033
0001
1000
,  // measure 62
2002
3003
0001
0100
,  // measure 63
0220
0330
1001
1010
,  // measure 64
0202
0000
0303
0000
1000
0100
0010
0001
,  // measure 65
0101
0101
1010
1010
,  // measure 66
0001
0100
1000
0100
0001
1000
1100
0000
,  // measure 67
0011
0011
1100
1100
,  // measure 68
1000
0010
0100
0001
0010
0100
0110
0000
,  // measure 69
1001
1001
0110
0110
,  // measure 70
0010
1000
0100
0010
0001
0100
0101
0000
,  // measure 71
1010
1010
0101
0101
,  // measure 72
0001
1000
0100
0010
0100
0010
0011
0000
,  // measure 73
2200
0000
0000
3300
,  // measure 74
0220
0330
0022
0033
,  // measure 75
2002
0000
0000
3003
,  // measure 76
2020
3030
0202
0303
,  // measure 77
1001
0000
0000
0000
;

//---------------dance-single - ----------------
#NOTES:
     dance-single:
     :
     Medium:
     7:
     0.515,0.566,0.386,0.394,0.000: // measure 1
1000
0000
0001
0000
0000
2000
0000
0000
,  // measure 2
0000
0000
0000
0000
,  // measure 3
0000
3000
0220
0330
,  // measure 4
2002
0000
0000
0000
,  // measure 5
0000
0000
0000
3003
,  // measure 6
1000
0010
0100
0010
,  // measure 7
1000
0000
0001
0000
0010
0001
0010
0001
,  // measure 8
0010
0001
1000
0010
,  // measure 9
0100
0001
0101
1001
,  // measure 10
1000
0100
0001
0100
,  // measure 11
1000
0000
0001
0000
1000
0010
1000
0010
,  // measure 12
0100
0001
0010
0100
,  // measure 13
0220
0000
0000
0330
,  // measure 14
0010
0000
0001
0000
1000
0001
1000
0000
,  // measure 15
0001
0000
0100
0000
0010
0100
0010
0100
,  // measure 16
0010
0000
0100
0000
0001
1000
0001
0000
,  // measure 17
1000
0100
0011
1100
,  // measure 18
1000
0000
0001
0000
1000
0010
1000
0000
,  // measure 19
0001
0000
0100
0000
0001
0010
0001
0010
,  // measure 20
0001
0000
1000
0000
0001
0100
0010
0000
,  // measure 21
0110
0000
1001
0000
0010
0010
0010
0000
,  // measure 22
1000
0010
1000
0000
0001
0010
0001
0000
,  // measure 23
1000
0100
1000
0100
0010
0001
0010
0000
,  // measure 24
0001
0100
0001
0100
0010
1000
0010
0000
,  // measure 25
1000
0001
1000
0000
2002
0000
3003
0000
,  // measure 26
1000
0200
0000
0320
0000
0032
0000
2003
,  // measure 27
0000
3002
0000
0103
0001
0100
0001
0000
,  // measure 28
1000
0002
0000
0023
0000
0230
0000
2300
,  // measure 29
0000
3002
0000
1003
0001
0000
1001
0000
,  // measure 30
1000
0200
0000
0302
0000
0203
0000
2300
,  // measure 31
0000
3200
0000
0310
0001
0010
0001
0000
,  // measure 32
1000
0002
0000
0203
0000
0320
0000
0230
,  // measure 33
0020
0000
0300
0030
,  // measure 34
0010
1000
0010
0000
0100
0001
0100
0000
,  // measure 35
0001
0000
1000
0000
0100
1000
0100
0000
,  // measure 36
0010
0001
0100
0000
0010
1000
0100
0000
,  // measure 37
0010
0001
1001
0110
,  // measure 38
0010
0100
0001
0000
0010
0001
0100
0000
,  // measure 39
0010
0000
1000
0000
0001
1000
0001
0000
,  // measure 40
1000
0100
0010
0100
1000
0000
0001
0000
,  // measure 41
1001
0000
1000
0100
0000
0010
0000
0001
,  // measure 42
0000
0100
0000
0010
0000
1000
0010
1000
,  // measure 43
0010
0000
0100
0001
0000
0010
0000
0100
,  // measure 44
0000
0010
0000
0001
0000
1000
0001
0000
,  // measure 45
0110
0000
0010
1000
0000
0001
0000
1000
,  // measure 46
0000
0100
0000
0010
0000
0001
0010
0001
,  // measure 47
1000
0000
0001
0100
0000
0010
0000
1000
,  // measure 48
0000
0001
1000
0000
0001
1000
0001
0000
,  // measure 49
1000
0100
0000
0010
0000
0100
0000
1000
,  // measure 50
0100
0000
0010
0000
0001
0010
0001
0000
,  // measure 51
0001
0100
0000
0010
0000
1000
0000
0010
,  // measure 52
0100
0001
1000
0100
,  // measure 53
0110
0000
0010
0001
,  // measure 54
0100
0000
0010
1000
,  // measure 55
0100
0000
0010
0001
,  // measure 56
1000
0001
0100
0010
,  // measure 57
1000
0010
0000
0100
0000
0001
0000
1000
,  // measure 58
0100
0000
0010
0000
0001
0010
0001
0000
,  // measure 59
1000
0010
0000
0100
0000
0001
0000
0100
,  // measure 60
0010
1000
0001
0100
,  // measure 61
0101
0000
0001
1000
,  // measure 62
2200
0000
3300
0000
,  // measure 63
0011
0000
2002
0000
,  // measure 64
3003
0000
0000
0000
1000
0001
1000
0000
,  // measure 65
1001
1001
1001
1001
,  // measure 66
1000
0100
1000
0000
0001
0010
0001
0000
,  // measure 67
0110
0110
0110
0110
,  // measure 68
0010
0001
0100
0000
0010
1000
0100
0000
,  // measure 69
1100
1100
1100
1100
,  // measure 70
0010
0001
0100
0000
0010
1000
0001
0000
,  // measure 71
0011
0011
0011
0011
,  // measure 72
0010
0001
0100
0010
0100
0000
0110
0000
,  // measure 73
2002
0000
0000
3003
,  // measure 74
2020
3030
0220
0330
,  // measure 75
0202
0000
0000
0303
,  // measure 76
0022
0033
2200
3300
,  // measure 77
1001
0000
0000
0000
;

//---------------dance-single - ----------------
#NOTES:
     dance-single:
     :
     Easy:
     5:
     0.383,0.466,0.280,0.254,0.000: // measure 1
1000
0000
1000
0000
0000
0002
0000
0000
,  // measure 2
0000
0000
0000
0000
,  // measure 3
0000
0000
0003
0000
,  // measure 4
0220
0000
0000
0000
,  // measure 5
0000
0000
0000
0330
,  // measure 6
1000
0001
1000
0000
,  // measure 7
0001
0010
0100
0010
,  // measure 8
0001
0100
0001
0000
,  // measure 9
1000
0010
0100
0001
,  // measure 10
0010
0100
0010
0000
,  // measure 11
0100
0010
0001
1000
,  // measure 12
0001
1000
0010
0100
,  // measure 13
0220
0000
0000
0330
,  // measure 14
0010
1000
0001
0100
,  // measure 15
0001
0010
0001
1000
,  // measure 16
0001
1000
0100
0010
,  // measure 17
0100
1000
0001
0001
,  // measure 18
1000
0001
0100
0010
,  // measure 19
1000
0100
0010
0100
,  // measure 20
0010
0001
1000
0001
,  // measure 21
1001
1001
0110
0220
,  // measure 22
0330
1001
0000
1001
,  // measure 23
0000
0100
0110
0110
,  // measure 24
0000
1000
1001
1001
,  // measure 25
0001
1001
1001
0000
,  // measure 26
1000
0100
1000
0100
,  // measure 27
0010
0100
0010
0010
,  // measure 28
0010
0001
0100
0001
,  // measure 29
1000
0010
0110
0110
,  // measure 30
0100
0001
1000
0100
,  // measure 31
0010
0100
1000
1000
,  // measure 32
1000
0001
0100
0010
,  // measure 33
0220
0000
0000
0330
,  // measure 34
1000
0001
1000
0010
,  // measure 35
0100
0010
1000
1000
,  // measure 36
1000
0001
0010
0100
,  // measure 37
0010
0001
0100
0100
,  // measure 38
0100
0010
1000
0100
,  // measure 39
0010
0100
0010
0010
,  // measure 40
0010
0001
1000
0001
,  // measure 41
1001
1000
0100
1000
,  // measure 42
0100
0010
0100
0010
,  // measure 43
0010
0001
1000
0010
,  // measure 44
0100
0001
0010
0001
,  // measure 45
0001
1000
0010
0100
,  // measure 46
0001
1000
0010
1000
,  // measure 47
1000
0100
0010
0100
,  // measure 48
1000
1001
0000
0000
,  // measure 49
1001
0000
1000
0100
,  // measure 50
0010
0100
1000
0000
,  // measure 51
0001
0000
0100
0010
,  // measure 52
0001
0010
1000
0000
,  // measure 53
2001
0000
0010
0010
,  // measure 54
0010
0000
0001
0001
,  // measure 55
3002
0000
0100
0100
,  // measure 56
0100
0000
1000
1000
,  // measure 57
1003
0001
0100
0010
,  // measure 58
0100
0010
1000
0001
,  // measure 59
1000
0100
0010
0001
,  // measure 60
0010
0100
1000
0001
,  // measure 61
2002
0000
0000
3003
,  // measure 62
0220
0000
0000
0330
,  // measure 63
1001
0000
2002
0000
,  // measure 64
3003
0000
0010
0100
,  // measure 65
0010
0010
1000
1000
,  // measure 66
0001
1000
0001
1000
,  // measure 67
0100
0100
0010
0010
,  // measure 68
0001
0010
0001
1000
,  // measure 69
0010
0010
1000
1000
,  // measure 70
0001
1000
0100
0010
,  // measure 71
0001
0001
1000
1000
,  // measure 72
0001
1000
0010
0100
,  // measure 73
0220
0000
0000
0330
,  // measure 74
2002
3003
0220
0330
,  // measure 75
2002
0000
0000
3003
,  // measure 76
0220
0330
2002
3003
,  // measure 77
0110
0000
0000
0000
;

//---------------dance-single - ----------------
#NOTES:
     dance-single:
     :
     Beginner:
     3:
     0.183,0.266,0.105,0.000,0.000: // measure 1
1001
0000
0000
0000
,  // measure 2
0000
0000
0000
0000
,  // measure 3
0000
0000
0000
0000
,  // measure 4
1001
0000
0000
0000
,  // measure 5
0000
0000
0000
0000
,  // measure 6
1000
0000
0100
0000
,  // measure 7
0010
0000
0010
0000
,  // measure 8
0001
0000
1000
0000
,  // measure 9
0001
0000
0001
0000
,  // measure 10
0100
0000
0010
0000
,  // measure 11
1000
0000
1000
0000
,  // measure 12
0001
0000
1000
0000
,  // measure 13
1001
0000
0000
0000
,  // measure 14
0001
0000
0010
0000
,  // measure 15
0100
0000
1000
0000
,  // measure 16
0100
0000
0010
0000
,  // measure 17
0001
0000
0001
0000
,  // measure 18
0001
0000
0100
0000
,  // measure 19
0010
0000
1000
0000
,  // measure 20
0010
0000
0100
0000
,  // measure 21
0100
0100
0100
0000
,  // measure 22
0010
0000
0001
0000
,  // measure 23
1000
1000
1000
0000
,  // measure 24
0001
0001
0001
0000
,  // measure 25
1001
0000
0000
0000
,  // measure 26
1000
0000
0100
0000
,  // measure 27
1000
0000
0000
0000
,  // measure 28
0001
0000
0100
0000
,  // measure 29
0001
0000
0000
0000
,  // measure 30
1000
0000
0001
0000
,  // measure 31
0100
0000
0000
0000
,  // measure 32
0010
0000
0100
0000
,  // measure 33
0001
0000
0000
0000
,  // measure 34
1000
0000
0100
0000
,  // measure 35
0010
0000
0100
0100
,  // measure 36
0100
0000
0010
0000
,  // measure 37
0001
0000
1000
1000
,  // measure 38
1000
0000
0001
0000
,  // measure 39
0100
0000
0010
0010
,  // measure 40
0010
0000
0100
0000
,  // measure 41
0001
1000
0000
0100
,  // measure 42
0000
1000
0000
0001
,  // measure 43
0000
0100
0000
0010
,  // measure 44
0000
0100
0000
0100
,  // measure 45
0000
0100
0000
0010
,  // measure 46
0000
1000
0000
0100
,  // measure 47
0000
0010
0000
0100
,  // measure 48
0000
0110
0000
0000
,  // measure 49
0010
0000
0001
0000
,  // measure 50
1000
0000
0000
0000
,  // measure 51
0001
0000
1000
0000
,  // measure 52
0010
0000
0000
0000
,  // measure 53
0100
0000
0000
0000
,  // measure 54
0001
0000
0000
0000
,  // measure 55
1000
0000
0100
0000
,  // measure 56
1000
0000
0000
0000
,  // measure 57
0001
0000
0010
0000
,  // measure 58
0100
0000
1000
0000
,  // measure 59
0010
0000
0100
0000
,  // measure 60
0001
0000
0000
0000
,  // measure 61
1001
0000
0000
0000
,  // measure 62
1001
0000
0000
0000
,  // measure 63
0110
0000
0110
0000
,  // measure 64
0000
0000
1001
0000
,  // measure 65
1000
0000
0001
0000
,  // measure 66
0100
0000
0010
0000
,  // measure 67
0100
0000
0001
0000
,  // measure 68
1000
0000
1000
0000
,  // measure 69
1000
0000
0100
0000
,  // measure 70
0010
0000
0100
0000
,  // measure 71
1000
0000
0001
0000
,  // measure 72
0100
0000
0100
0000
,  // measure 73
0100
0000
0000
0000
,  // measure 74
0010
0000
1000
0000
,  // measure 75
1001
0000
0000
0000
,  // measure 76
0010
0000
0100
0000
,  // measure 77
0110
0000
0000
0000
;
