#TITLE:Rainbow Road;
#SUBTITLE:;
#ARTIST:Mario Kart 64;
#TITLETRANSLIT:;
#SUBTITLETRANSLIT:;
#ARTISTTRANSLIT:;
#CREDIT:;
#BANNER:rainbow road-ban.png;
#BACKGROUND:rainbow road-bg.png;
#LYRICSPATH:;
#CDTITLE:;
#MUSIC:Mario Kart Rainbow Road.mp3;
#OFFSET:-0.010;
#SAMPLESTART:35.900;
#SAMPLELENGTH:14.550;
#SELECTABLE:YES;
#BPMS:0.000=136.970;
#STOPS:;
#BGCHANGES:;

//---------------dance-single - ----------------
#NOTES:
     dance-single:
     :
     Challenge:
     9:
     0.586,0.769,0.176,0.219,0.338:
0000
0000
0000
0000
,
0000
0000
0000
0000
,
0001
0000
0000
0001
0100
0000
0000
0100
0001
0000
0000
0001
0100
0000
0000
0100
,
0010
0000
0000
0010
1000
0000
0000
1000
0010
0000
0000
0010
1000
0000
0000
0000
,
1001
0000
0000
0001
0010
0000
0010
0100
,
1000
0000
0001
0010
0001
0000
0000
1000
0010
0000
1000
0001
1000
0001
0100
0000
,
0002
0000
0000
0000
0000
0000
0013
0100
1000
0000
0010
0100
0001
0000
0100
0000
,
1000
0100
0010
1000
1000
0000
1000
0001
,
1001
0000
0000
0000
0000
0000
0001
0000
1000
0000
0000
0000
1000
0010
1000
0010
,
1000
0000
0100
0010
0100
0000
0000
0010
0001
0000
1000
0001
0010
0100
1000
0000
,
1000
0100
0001
0100
0010
0001
0010
0100
,
0010
0001
0100
0010
0001
0010
0100
0001
,
1001
0000
0000
0000
0000
0000
0001
0000
0100
0000
0000
0000
0001
0000
0010
0001
,
0010
0000
0001
0010
0001
0000
0000
0001
1000
0000
0100
1000
0100
1000
0100
0000
,
0010
0000
0000
1000
0100
0000
0010
0001
,
0020
0000
0000
0031
1000
0100
0001
0100
,
1002
0000
0000
0100
0203
0000
0301
1000
,
0100
0010
0001
0100
1000
0100
0010
1000
,
0010
0000
0100
0000
0001
0000
0100
0000
1000
0000
0100
0000
0010
0000
1000
0100
,
1000
0000
0100
0010
0100
0000
0010
0001
0010
0000
0001
1000
0001
0000
0010
0000
,
0010
0001
0010
0001
0001
1000
0001
0001
,
0020
0000
0000
0032
0000
0000
0013
0100
,
0010
0000
0100
0000
1000
0000
0100
0000
1000
0000
0000
0100
0000
0000
1000
0000
,
0200
0000
0000
1000
1300
0010
1000
0001
,
2001
0000
0000
0001
0001
0000
0000
0000
,
0000
0000
0000
0000
0000
0000
0000
0000
0010
0000
0000
0010
0000
0000
0010
0000
,
0010
0000
3001
0100
0010
1000
0001
0010
,
0100
1000
0100
0010
0001
0010
0001
1000
,
1001
0001
0010
0100
1000
0100
1000
0001
,
1001
0000
0000
0100
2000
0000
3100
0010
,
0011
0000
0001
0000
0100
0000
0001
0000
0100
0000
0000
0100
0000
0000
0100
0000
,
0020
0000
0000
0130
0001
0010
0100
0010
,
1002
1000
1000
0000
,
0000
0000
0000
0000
0000
0000
0000
0000
1000
0000
1000
0000
0000
1000
0000
0000
,
2003
0000
0000
0000
,
0020
0000
0000
3030
,
1010
0000
1000
0100
1000
0000
0100
1000
0100
0000
0010
0001
0010
0001
0010
0001
,
1000
0000
0100
0010
0001
0000
0000
0010
0001
0000
1000
0100
1000
0100
1000
0100
,
1000
0000
0010
0100
0010
0000
1000
0100
1000
0000
0100
0010
0001
0010
0000
0001
,
1000
0000
0100
0010
0100
0000
1000
0001
1000
0000
1000
0100
0010
0000
0001
0000
,
0101
0000
0000
0010
1000
0000
0001
0100
,
0001
0000
0010
0100
0010
0000
0001
0010
0100
0000
0010
0000
0100
1000
0100
0000
,
0010
0001
1000
0010
0001
0010
0100
0001
,
0101
0000
0000
0001
0200
0000
0301
0000
,
1001
0000
0000
0001
0020
0000
0130
0010
,
0110
0000
0000
0000
1000
0000
0000
0100
1000
0000
0100
0000
0010
0100
0010
0100
,
0010
0001
0010
0001
0010
0100
0010
0100
,
0010
0000
0001
0000
0100
0000
0000
0001
1000
0000
0010
0000
0100
0000
0010
0000
,
0110
0000
0000
1000
0200
0000
1300
0001
,
1001
0000
1000
0100
1000
0000
0000
0100
0010
0000
0001
0000
0100
0001
0100
0000
,
0010
1000
0010
0100
0001
0000
0010
0100
,
0110
0000
0000
0100
0002
0000
0103
0000
,
1001
0000
0000
0000
0000
0000
1000
0000
0100
0000
0010
0001
0010
0001
0010
0001
,
0010
0000
0100
1000
0100
0000
0000
0100
0010
0000
0000
0010
0001
0000
0000
0001
,
0100
0000
0000
0100
0010
0000
0000
0010
1000
0000
0000
1000
0100
0000
0000
0100
,
0010
0000
0000
0010
0001
0000
0000
0001
0100
0000
0000
0100
1000
0000
0000
1000
,
0100
0001
1000
0010
0100
0001
1000
0001
,
2000
3001
1000
0010
1000
0001
1000
0010
,
0200
0000
0310
0000
0100
0000
0001
0000
0010
0000
0000
0100
0000
0000
0010
0000
,
0002
0000
0000
0013
0020
0000
0030
0000
,
2100
0000
0000
0001
0001
0000
0000
0000
,
0000
0000
0000
0000
0000
0000
0000
0000
0010
0000
0000
0010
0000
0000
0010
0000
,
0010
0000
0000
0000
,
3002
0000
0000
0003
,
2002
0000
0000
0000
0000
0000
0000
0000
0000
0000
0000
3003
;

//---------------dance-single - Copied from Copied f----------------
#NOTES:
     dance-single:
     Copied from Copied f:
     Hard:
     6:
     0.416,0.513,0.219,0.316,0.044:
0000
0000
0000
0000
,
0000
0000
0000
0000
,
0001
0100
0001
0100
,
0010
1000
0010
1000
,
1001
0000
0000
1000
0010
0000
0010
0200
,
0000
0000
0000
0000
0000
0000
0000
0000
0000
0000
0000
0000
0301
1000
0001
0000
,
0020
0000
0000
0130
1000
0000
1000
0200
,
0000
0000
0000
0310
0001
0000
1000
0000
,
1001
0000
0000
0001
0100
0000
0100
0020
,
0000
1000
0100
1030
,
2001
0001
0100
3001
,
0002
0100
1000
0103
,
1001
0000
0000
0001
0100
0000
0100
0020
,
0000
0000
0000
0000
0000
0000
0000
0000
0000
0000
0000
0000
1030
0001
1000
0000
,
0001
0000
0000
1000
0100
0000
0010
0001
,
0020
0000
0000
0031
1000
0000
0001
0000
,
1001
0000
0000
0100
1000
0000
0100
1000
,
0200
0010
1000
0310
,
0020
0001
0001
0031
,
1000
0100
1000
0010
1000
0001
1000
0010
,
0110
0000
0000
0001
1000
0000
1000
0100
,
0020
0000
0000
0032
0000
0000
0013
0100
,
0010
0000
0000
0000
0100
0000
0000
0000
1000
0000
0000
0100
0000
0000
1000
0000
,
0200
0000
0000
1000
1300
0000
0000
0000
,
2001
0000
0000
0001
0001
0000
0000
0000
,
0000
0000
0000
0000
0000
0000
0000
0000
0010
0000
0000
0010
0000
0000
0010
0000
,
0010
3001
0100
0001
,
1000
0100
1000
0001
0010
0001
1000
0000
,
1001
0000
0000
0001
0010
0000
0100
1000
,
1001
0000
0000
0100
2000
0000
3100
0010
,
0110
0000
0000
0000
0000
0000
0000
0000
0001
0000
0000
0100
0000
0000
0010
0000
,
2000
0000
0000
3001
0100
0000
0001
1000
,
1002
0000
0000
0000
,
0000
0000
0000
0000
0000
0000
0000
0000
1000
0000
1000
0000
0000
1000
0000
0000
,
2003
0000
0000
0000
,
0020
0000
0000
3030
,
1010
0000
1000
0000
0100
0000
0010
0001
,
0100
0000
0100
0000
0100
0000
0010
1000
,
0010
0000
0010
0000
0010
0000
0100
0001
,
0100
0000
0100
0000
0100
0000
0001
0100
,
0101
0000
0000
0010
1000
0000
0001
0100
,
0102
0000
0000
0000
0000
0000
0000
0000
0000
0000
0000
0000
1003
0100
1000
0000
,
0200
0000
0000
1300
0010
0000
0010
0100
,
0110
0000
0000
0001
0200
0000
0301
0000
,
1001
0000
0000
0001
0020
0000
0130
0010
,
0110
0000
1000
0100
1000
0100
0010
0100
,
0010
0001
0010
0001
0010
0100
0010
0100
,
0010
0001
0100
0001
1000
0010
0100
0010
,
0110
0000
0000
1000
0200
0000
1300
0001
,
2001
0000
0000
0000
0000
0000
0000
0000
0000
0000
0000
0000
3001
0100
0001
0000
,
0100
0000
0000
0010
2000
0000
3010
1000
,
1010
0000
0000
0100
0002
0000
0103
0000
,
1001
0000
0000
1000
0100
0000
0100
0010
,
0210
1000
0010
1000
,
0320
0100
0001
0100
,
0032
0010
0010
0013
,
1001
0000
0000
0001
0100
0001
1000
0001
,
0100
0001
1000
0010
1000
0001
1000
0010
,
1000
0000
0010
0000
1000
0000
0001
0000
1000
0000
0000
0010
0000
0000
0100
0000
,
0002
0000
0000
0013
0020
0000
0030
0000
,
2100
0000
0000
0001
0001
0000
0000
0000
,
0000
0000
0000
0000
0000
0000
0000
0000
0010
0000
0000
0010
0000
0000
0010
0000
,
0010
0000
0000
0000
,
3002
0000
0000
0003
,
2002
0000
0000
0000
0000
0000
0000
0000
0000
0000
0000
3003
;

//---------------dance-single - ----------------
#NOTES:
     dance-single:
     :
     Medium:
     5:
     0.315,0.370,0.140,0.334,0.026:
0000
0000
0000
0000
,
0000
0000
0000
0000
,
0001
0100
0001
1000
,
0001
0100
0001
1000
,
1001
0000
0000
1000
0010
0000
0010
0200
,
0000
0000
0000
0000
0300
0000
0001
0100
,
0000
0000
0000
0010
1000
0000
1000
0200
,
0000
0000
0000
0310
0001
0000
1000
0000
,
1001
0000
0000
0001
0100
0000
0100
0020
,
0000
0000
0000
0030
,
2001
0000
0000
3000
,
0002
0000
0000
0003
,
1001
0000
0000
0001
0100
0000
0100
0020
,
0000
0000
0000
0000
0000
0000
1030
0020
,
0000
0000
0000
1030
0100
0000
0010
0001
,
0000
0000
0000
0001
1000
0000
0001
0000
,
1001
0000
0000
0100
1000
0000
0100
2000
,
0000
0000
0000
0000
,
3200
0000
0000
0000
,
1300
1000
1000
1000
,
0110
0000
0000
0100
1000
0000
1000
0200
,
0000
0000
0000
0320
0000
0000
0031
0200
,
0000
0000
0000
0000
0000
0000
0000
0000
0310
0000
0000
1000
0000
0000
0010
0000
,
0200
0000
0000
0001
0301
0000
0000
0000
,
2001
0000
0000
0001
3002
0000
0000
0000
,
0000
0000
0000
0000
0000
0000
0000
0000
0013
0000
0000
0100
0000
0000
1000
0000
,
0100
0001
0100
0001
,
1000
0001
0100
0001
,
1001
0000
0000
0001
0010
0000
0100
1000
,
0100
0000
0000
0100
2000
0000
3100
0010
,
0001
0000
0000
0000
0000
0000
0000
0000
0001
0000
0000
0100
0000
0000
0010
0000
,
2000
0000
0000
3001
0100
0000
0001
0000
,
1002
0000
0000
0000
,
0000
0000
0000
0000
0003
0000
0000
0000
1000
0000
0100
0000
0000
0100
0000
0000
,
2000
0000
0000
0000
,
0020
0000
0000
3030
,
1010
1000
0100
0010
,
0001
0100
0010
1000
,
0010
0100
0001
0100
,
0010
0000
0100
0000
1000
0000
0001
0100
,
0001
0000
0000
0010
1000
0000
0001
0100
,
0002
0000
0000
0000
0000
0000
1003
0100
,
2000
0000
0000
3100
0010
0000
0001
0100
,
0001
0000
0000
0001
0200
0000
0301
0000
,
1001
0000
0000
0001
0020
0000
0130
1000
,
0200
0000
0000
0000
,
0320
0000
0000
0000
,
0000
0000
0000
0030
,
0110
0000
0000
1000
0200
0000
1300
0001
,
2000
0000
0000
0000
0000
0000
3001
0001
,
0100
0000
0000
0010
1000
0000
0010
1000
,
0010
0000
0000
0100
0002
0000
0103
0000
,
1001
0000
0000
1000
0100
0000
0100
0010
,
0002
0000
0000
0000
,
0203
0000
0000
0000
,
0302
0000
0000
0003
,
1001
1000
0000
0100
0000
0010
0000
0100
,
0000
0010
0000
0001
0000
0100
0000
0010
,
0000
0000
1000
0000
0000
0000
0010
0000
0100
0000
0000
0010
0000
0000
0100
0000
,
0002
0000
0000
0013
0020
0000
0030
0000
,
2100
0000
0000
0001
0001
0000
0000
0000
,
0000
0000
0000
0000
0000
0000
0000
0000
0010
0000
0000
0010
0000
0000
0010
0000
,
0010
0000
0000
0000
,
3002
0000
0000
0003
,
2002
0000
0000
0000
0000
0000
0000
0000
0000
0000
0000
3003
;

//---------------dance-single - ----------------
#NOTES:
     dance-single:
     :
     Easy:
     2:
     0.198,0.258,0.105,0.562,0.000:
0000
0000
0000
0000
,
0000
0000
0000
0000
,
2000
0000
0000
0000
,
0000
0000
0000
3000
,
1100
0000
0200
0000
,
0000
0000
0000
0320
,
0000
0000
0032
0000
,
0000
0000
0000
0003
1000
0000
0001
0000
,
1001
0000
0200
0000
,
0000
0000
0000
0000
,
0320
0000
0000
0000
,
0000
0000
0000
0030
,
1001
0000
0200
0000
,
0000
0000
0000
0320
,
0000
0000
0000
0000
,
0032
0000
1003
0001
,
1001
0000
2000
0000
,
0000
0000
0000
0000
,
3200
0000
0000
0000
,
0000
0000
0000
0300
,
1001
0000
0002
0000
,
2003
0000
3200
0000
,
0320
0000
0032
0000
,
0203
0000
0320
0000
,
2030
0000
0000
0000
,
0000
0000
3002
0000
,
0203
0000
0000
0000
,
0320
0000
0000
0030
,
1001
0000
0200
0000
,
0320
0000
0032
0000
,
0203
0000
0320
0000
,
2030
0000
3002
0000
,
0203
0000
0000
0000
,
0000
0000
0320
0000
,
2030
0000
0000
0000
,
3200
0000
0000
0300
,
2002
0000
0000
0000
,
0000
0000
0000
0000
,
0000
0000
0000
0000
,
0000
0000
0000
3003
,
1001
0000
0002
0000
,
2003
0000
0000
0000
,
3200
0000
0000
0000
,
0320
0000
0031
1000
,
1001
0000
0200
0000
,
0320
0000
0000
0000
,
0032
0000
0000
0000
,
0203
0000
0000
0300
,
1002
0000
0203
0000
,
0320
0000
0000
0000
,
2030
0000
0000
0000
,
3002
0000
0100
0103
,
1001
0000
0002
0000
,
2003
0000
0000
0000
,
3200
0000
0000
0000
,
0320
0000
0000
0030
,
1001
0000
0002
0000
,
2003
0000
3200
0000
,
0320
0000
0032
0000
,
0203
0000
0320
0000
,
2030
0000
0000
0000
,
0000
0000
3002
0000
,
0203
0000
0000
0000
,
0320
0000
0000
0000
,
0130
0000
2000
0000
,
0000
3000
0000
0000
;

//---------------dance-single - ----------------
#NOTES:
     dance-single:
     :
     Beginner:
     1:
     0.099,0.169,0.123,0.000,0.000: // measure 1
0000
0000
0000
0000
,  // measure 2
0001
0000
0000
0000
,  // measure 3
1000
0000
0000
0000
,  // measure 4
0100
0000
0000
0000
,  // measure 5
1001
0000
0000
0000
,  // measure 6
0001
0000
0000
0000
,  // measure 7
1000
0000
0000
0000
,  // measure 8
0100
0000
0000
0000
,  // measure 9
1001
0000
0000
0000
,  // measure 10
0100
0000
0000
0000
,  // measure 11
0010
0000
0000
0000
,  // measure 12
0100
0000
0000
0000
,  // measure 13
1001
0000
0000
0000
,  // measure 14
0001
0000
0000
0000
,  // measure 15
1000
0000
0000
0000
,  // measure 16
0100
0000
0000
0000
,  // measure 17
0110
0000
0000
0000
,  // measure 18
0001
0000
0000
0000
,  // measure 19
1000
0000
0000
0000
,  // measure 20
0100
0000
0000
0000
,  // measure 21
1001
0000
0000
0000
,  // measure 22
0001
0000
0000
0000
,  // measure 23
1000
0000
0000
0000
,  // measure 24
0100
0000
0000
0000
,  // measure 25
1001
0000
0000
0000
,  // measure 26
0000
0000
0001
0000
,  // measure 27
1000
0000
0000
0000
,  // measure 28
0000
0000
0000
0000
,  // measure 29
1001
0000
0000
0000
,  // measure 30
0100
0000
0000
0000
,  // measure 31
0010
0000
0000
0000
,  // measure 32
1000
0000
0000
0000
,  // measure 33
1001
0000
0000
0000
,  // measure 34
0000
0000
0001
0000
,  // measure 35
1000
0000
0000
0000
,  // measure 36
0100
0000
0000
0000
,  // measure 37
0010
0000
0000
0000
,  // measure 38
0000
0000
0000
0000
,  // measure 39
0000
0000
0000
0000
,  // measure 40
0000
0000
0000
0000
,  // measure 41
1001
0000
0000
0000
,  // measure 42
0100
0000
0000
0000
,  // measure 43
0010
0000
0000
0000
,  // measure 44
1000
0000
0001
0000
,  // measure 45
1001
0000
0000
0000
,  // measure 46
0100
0000
0000
0000
,  // measure 47
0010
0000
0000
0000
,  // measure 48
1000
0000
0000
0000
,  // measure 49
1001
0000
0000
0000
,  // measure 50
0100
0000
0000
0000
,  // measure 51
0010
0000
0000
0000
,  // measure 52
0001
0000
1000
1000
,  // measure 53
1000
0000
0000
0000
,  // measure 54
0001
0000
0000
0000
,  // measure 55
0100
0000
0000
0000
,  // measure 56
0010
0000
0000
0000
,  // measure 57
1001
0000
0000
0000
,  // measure 58
0001
0000
0000
0000
,  // measure 59
0001
0000
0001
0000
,  // measure 60
0001
0000
0100
0000
,  // measure 61
0110
0000
0000
0000
,  // measure 62
0001
0000
0000
0000
,  // measure 63
1000
0000
0000
0000
,  // measure 64
0100
0000
0000
0000
,  // measure 65
1001
0000
0000
0000
;
