#TITLE:Quaternary Game;
#SUBTITLE:;
#ARTIST:Shinji Hosoe;
#TITLETRANSLIT:;
#SUBTITLETRANSLIT:;
#ARTISTTRANSLIT:;
#GENRE:;
#CREDIT:Telperion;
#BANNER:qg-bn.png;
#BACKGROUND:qg-bg.png;
#LYRICSPATH:;
#CDTITLE:;
#MUSIC:qg.ogg;
#OFFSET:-0.298980;
#SAMPLESTART:14.013000;
#SAMPLELENGTH:13.702999;
#SELECTABLE:YES;
#DISPLAYBPM:139.949997;
#BPMS:0.000000=139.949997,0.500000=143.427063,1.000000=146.990509,1.500000=150.642487,2.000000=154.385193,2.500000=158.220901,3.000000=162.151901,3.500000=166.180573,4.000000=170.309326,4.500000=174.540665,5.000000=178.877121,5.500000=183.321320,6.000000=187.875946,6.500000=192.543732,7.000000=197.327469,7.500000=202.230072,8.000000=207.254486,8.500000=212.403732,9.000000=217.680893,9.500000=223.089188,10.000000=139.949997,10.500000=147.429794,11.000000=155.309341,11.500000=163.610031,12.000000=172.354370,12.500000=181.566055,13.000000=191.270050,13.500000=201.492706,14.000000=212.261719,14.500000=223.606293,15.000000=69.974998,17.000000=139.949997,17.500000=143.427063,18.000000=146.990509,18.500000=150.642487,19.000000=154.385193,19.500000=158.220901,20.000000=162.151901,20.500000=166.180573,21.000000=170.309326,21.500000=174.540665,22.000000=178.877121,22.500000=183.321320,23.000000=187.875946,23.500000=192.543732,24.000000=197.327469,24.500000=202.230072,25.000000=207.254486,25.500000=212.403732,26.000000=217.680893,26.500000=223.089188,27.000000=139.949997,27.500000=147.429794,28.000000=155.309341,28.500000=163.610031,29.000000=172.354370,29.500000=181.566055,30.000000=191.270050,30.500000=201.492706,31.000000=212.261719,31.500000=223.606293,32.000000=69.974998,34.000000=139.949997,130.250000=279.899994,131.750000=139.949997,132.250000=279.899994,133.750000=139.949997,134.250000=279.899994,135.750000=139.949997,136.000000=104.962502,136.500000=209.925003,137.000000=139.949997,138.250000=279.899994,139.750000=139.949997,140.250000=279.899994,141.750000=139.949997,142.250000=279.899994,143.750000=139.949997,144.000000=104.962502,144.500000=209.925003,145.000000=139.949997,146.250000=279.899994,147.750000=139.949997,148.250000=279.899994,149.750000=139.949997,150.250000=279.899994,151.750000=139.949997,152.000000=104.962502,152.500000=209.925003,153.000000=139.949997,154.250000=279.899994,155.750000=139.949997,156.250000=279.899994,157.750000=139.949997,158.250000=279.899994,159.750000=139.949997,160.000000=104.962502,160.500000=209.925003,161.000000=139.949997,224.000000=69.974998;
#STOPS:130.500000=0.107143
,131.000000=0.107142
,131.500000=0.107143
,132.500000=0.107142
,133.000000=0.107143
,133.500000=0.107142
,134.500000=0.107143
,135.000000=0.107142
,135.500000=0.107143
,138.500000=0.107142
,139.000000=0.107143
,139.500000=0.107142
,140.500000=0.107143
,141.000000=0.107142
,141.500000=0.107143
,142.500000=0.107142
,143.000000=0.107143
,143.500000=0.107142
,146.500000=0.107143
,147.000000=0.107142
,147.500000=0.107143
,148.500000=0.107142
,149.000000=0.107143
,149.500000=0.107142
,150.500000=0.107143
,151.000000=0.107142
,151.500000=0.107143
,154.500000=0.107142
,155.000000=0.107143
,155.500000=0.107142
,156.500000=0.107143
,157.000000=0.107142
,157.500000=0.107143
,158.500000=0.107142
,159.000000=0.107143
,159.500000=0.107142
;
#DELAYS:;
#TIMESIGNATURES:0.000000=4=4
;
#BGCHANGES:;
#KEYSOUNDS:;
#ATTACKS:;

//---------------dance-double - Telperion----------------
#NOTES:
     dance-double:
     Telperion:
     Hard:
     8:
     0.388,0.466,0.042,0.343,0.271,224.000,4.000,33.000,66.000,0.000,0.000,0.000,0.388,0.466,0.042,0.343,0.271,224.000,4.000,33.000,66.000,0.000,0.000,0.000:
00000000
M0000000
0000000M
0M000000
,
000000M0
M000000M
0M0000M0
00M00M00
,
MM0000MM
0MM00MM0
MMM00MMM
M0M00M0M
,
0M0000M0
00M00M00
0M0000M0
M000000M
,
00000000
0000000M
000000M0
0000000M
,
00000M00
000000M0
00000M0M
0000M0M0
,
00000MMM
0000M0MM
0000MMM0
0000MMMM
,
00000M0M
000000MM
00000M00
0000000M
,
0MM00000
00000000
00000000
00000000
00000000
00000000
00000000
00000000
10000000
00000000
00010000
00000000
10000000
00000000
00000000
10000000
,
00000000
00000000
00100000
00000000
00010000
00000000
00000000
00000000
00001000
00000000
00000010
00000000
00000001
00000000
00000000
00000001
,
00000000
00000000
00001000
00000000
00000010
00000000
00000000
00000000
00000100
00000000
00000001
00000000
00000010
00000000
00000000
00000010
,
00000000
00000000
00000100
00000000
00000001
00000000
00000000
00000000
00000100
00000000
00001000
00000000
01000000
00000000
00000000
00100000
,
00000000
00010000
01000000
00000000
00200000
00000000
00010000
00000000
,
20300000
00000000
00000000
00000000
01000000
00000000
00000000
00000000
30100000
00000000
10000000
00000000
01000000
00000000
00000000
00010000
,
00000000
00001000
00000100
00000001
00000020
00000000
00001000
00000000
,
00000032
00000000
00000000
00000000
00000100
00000000
00000000
00000000
00000013
00000000
00000001
00000000
00000100
00000000
00000000
00001000
,
00000000
00000000
00000100
00000000
00000001
00000000
00000000
00000000
00000000
00001000
00000001
00000000
00000000
00000001
00000100
00000000
,
00000000
00000100
00000010
00000000
00000000
00000010
00001000
00000000
00000200
00000000
00000000
00000000
00000000
00000000
00000000
00000000
,
00020000
00000000
00000000
00000000
00000000
00000000
00000000
00000000
00030300
00010000
00001000
00000000
00000000
00001000
01000000
00000000
,
00000000
01000000
00100000
00000000
00000000
00100000
10000000
00000000
00020000
00000000
00000000
00000000
00000000
00000000
00000000
00000000
,
00030000
00000000
00200000
01000000
,
00302000
00000000
00000000
00000000
00000100
00000000
00000000
00000000
00013000
00000000
00000000
00000000
00000100
00000000
00000000
00000100
,
00000000
00000010
00000100
00001000
00000020
00000000
00000100
00000000
,
00020030
00000000
00000000
00000000
01000000
00000000
00000000
00000000
00031000
00000000
00000000
00000000
01000000
00000000
00000000
00100000
,
00000000
00000000
10000000
00000000
00100000
01000000
00100000
01000000
00200000
00000000
00000000
00000000
00000000
00000000
00000000
00000000
,
20300000
00000000
00000000
00000000
00000000
00000000
00000000
00000000
00020000
00000000
30000000
00000000
00000000
00030000
00000000
00000000
,
00000000
00000000
00000000
00000000
00000000
00000000
00000000
00000000
10000000
00000000
01000000
00000000
00000000
00010000
00000000
00000000
,
00000000
00000000
00000000
00000000
00000000
00000000
00000000
00000000
00001000
00000000
00000100
00000000
00000000
00000001
00000000
00000000
,
00000000
00000000
00000020
00000000
,
00000032
00000000
00000000
00000000
00000000
00000000
00000000
00000000
00002000
00000000
00000003
00000000
00000000
00003000
00000000
00000000
,
00000000
00000000
00000000
00000000
00000000
00000000
00000000
00000000
00000001
00000000
00000010
00000000
00000000
00001000
00000000
00000000
,
00000000
00000000
00000000
00000000
00010000
00011000
00000000
00000000
,
00000000
00000000
00000000
00000000
00000000
00000000
00000000
00000000
00001000
00000000
00000000
00010000
00000000
00001000
00000000
00000000
,
00100000
00000000
00000000
00010000
00000000
10000000
00000000
00000000
00100000
00000000
00000000
01000000
00000000
00010000
00000000
00000000
,
00200000
00000000
00000000
00000000
01300000
00000000
00100000
00000000
00010000
00000000
00000000
10000000
00000000
00100000
00000000
00000000
,
01000000
00000000
00000000
00001000
00000000
00010000
00000000
00000000
00000100
00000000
00000000
00000010
00000000
00000001
00000000
00000000
,
00000200
00000000
00000000
00000000
00000310
00000000
00000100
00000000
00000001
00000000
00000000
00000010
00000000
00001000
00000000
00000000
,
00010000
00000000
00000000
00001000
00000000
00100000
00000000
00000000
01000000
00000000
00000000
00100000
00000000
00010000
00000000
00000000
,
20000000
00000000
00000000
00000000
30100000
00000000
00100000
00000000
10000000
00000000
00000000
00100000
00000000
00010000
00000000
00000000
,
00001000
00000000
00000000
00000010
00000000
00000001
00000000
00000000
00000100
00000000
00000000
00001000
00000000
00010000
00000000
00000000
,
00002000
00000000
00000000
00000000
00013000
00001000
00010000
00001000
02000000
00000000
00000000
00000000
00000000
00000000
00000000
00000000
,
03200000
00000000
00000000
00000000
00310000
00100000
01000000
10000000
,
01000000
00000000
00100000
00000000
00010000
00000000
00001000
00000000
00000010
00000000
00000100
00000000
00001000
00000000
00000000
00000001
,
00000000
00000000
00001000
00000000
00000010
00000000
00001000
00000000
00000001
00000000
00000010
00000000
00000100
00000000
00000000
00000100
,
00000000
00000010
00000001
00001000
00000020
00000000
00000000
00000000
,
00000230
00000000
00000000
00000000
00001300
00000100
00000010
00001000
,
00000010
00000000
00000100
00000000
00001000
00000000
00010000
00000000
01000000
00000000
00100000
00000000
00010000
00000000
00000000
00010000
,
00000000
00000000
10000000
00000000
00010000
00000000
01000000
00000000
00100000
00000000
10000000
00000000
00200000
01000000
00000000
00000000
,
00300000
01000000
00100000
00000000
10000000
00000000
10000000
00000000
00020000
00000000
00000000
00000000
00000000
00000000
00000000
00000000
,
00000000
00000000
00000000
01030000
00001000
00000220
00000000
00000000
,
00000000
00000000
00000030
00000301
00000010
00000100
00000000
00000000
,
00000000
00000000
00000000
00001000
00010000
00100000
00000000
00000000
,
00000000
00000000
00000000
10000000
01000000
00120000
00000000
00000000
,
00000000
00000000
00000000
00130000
00001000
00000220
00000000
00000000
,
00000000
00000000
00000300
00000031
00001000
00000010
00000000
00000000
,
00000000
00000000
00000000
00000100
00001000
00020000
00000000
00000000
,
00030000
00000000
00000000
00000000
;

//---------------dance-single - Telperion----------------
#NOTES:
     dance-single:
     Telperion:
     Easy:
     3:
     0.158,0.175,0.010,0.291,0.000,77.000,1.000,28.000,2.000,0.000,0.000,0.000,0.158,0.175,0.010,0.291,0.000,77.000,1.000,28.000,2.000,0.000,0.000,0.000:
M000
0000
0000
0000
,
0000
0000
0000
0000
,
0000
0000
0000
0000
,
0000
0000
0000
0000
,
0000
000M
0000
0000
,
0000
0000
0000
0000
,
0000
0000
0000
0000
,
0000
0000
0000
0000
,
0000
0000
1000
0000
,
0001
1000
0020
0000
,
0000
0000
1030
0000
,
0001
1000
0200
0000
,
0300
0000
0020
0000
,
0230
0000
0320
0000
,
0030
0000
0002
0000
,
2003
0000
3002
0000
,
0003
0000
1000
0000
,
0001
0100
0020
0000
,
0000
0000
1030
0000
,
0001
0010
0200
0000
,
0300
0000
2000
0000
,
3002
0000
2003
0000
,
3000
0000
0020
0000
,
0230
0000
0320
0000
,
0030
0000
1000
0000
,
0010
0000
0200
0000
,
0000
0000
0310
0000
,
0000
0000
0010
0000
,
0000
0000
0002
0000
,
0023
0000
0230
0000
,
0000
0000
0310
0000
,
0000
0000
0110
0000
,
0000
0000
0001
0000
,
0001
0000
0001
0000
,
0001
0000
1000
0000
,
1000
0000
1000
0000
,
1000
0000
0010
0000
,
0010
0000
0010
0000
,
0010
0000
0100
0000
,
0100
0000
0100
0000
,
0100
0010
1000
0000
,
0001
1000
0100
0000
,
0010
0100
2000
0000
,
0000
0000
0002
0000
,
3003
0000
0001
0000
,
1000
0001
0100
0000
,
0010
1000
0020
0000
,
0000
0000
0000
0000
0100
0030
0000
0000
,
0000
0000
2000
0000
,
0000
0000
0002
0000
,
0000
0000
3003
0000
,
0000
0000
0100
0000
,
0000
0000
0002
0000
,
0000
0000
2000
0000
,
0000
0000
3003
0000
,
0000
0000
0020
0000
,
0030
0000
0000
0000
;

//---------------dance-single - Telperion----------------
#NOTES:
     dance-single:
     Telperion:
     Challenge:
     10:
     0.543,0.641,0.083,0.343,0.702,324.000,8.000,33.000,12.000,0.000,0.000,0.000,0.543,0.641,0.083,0.343,0.702,324.000,8.000,33.000,12.000,0.000,0.000,0.000:
0MM0
0000
0000
0000
,
0000
0000
0000
0000
,
0000
0000
M00M
0000
,
0000
0000
0000
0MM0
,
0000
0MM0
0000
0000
,
0000
0000
0000
0000
,
0000
0000
0000
M00M
,
0000
0000
0000
0000
,
0MM0
0000
0000
0000
0000
0000
0000
0000
1000
0000
1000
0000
0001
0000
0000
0001
,
0000
1000
0001
0100
0010
0100
0001
0000
1000
0000
1000
0000
0001
0000
0000
0001
,
0000
1000
0100
0010
0001
0010
0001
0000
1000
0000
1000
0000
0001
0000
0000
0001
,
0000
1000
0010
0100
0001
0100
0010
0000
1000
0000
0001
0000
0010
0000
0000
0010
,
0000
0100
1000
0100
0010
0001
1000
0000
0020
0000
0000
0000
0001
0000
0000
0000
,
2030
0000
0000
0000
0100
0000
0000
0000
3010
0000
0100
0000
0001
0000
0000
1000
,
0000
0001
0100
0001
1000
0010
0100
0010
2000
0000
0000
0000
0010
0000
0000
0000
,
3002
0000
0000
0000
0100
0000
0000
0000
0013
0000
0100
0000
0010
0000
0000
0010
,
0000
0100
1000
0001
0100
0001
1000
0000
0010
0100
0010
0000
1000
0001
1000
0000
,
0100
0010
0100
0000
1000
0100
1000
0000
0001
0000
0100
0000
0010
0000
0000
0010
,
0000
1000
0010
0100
0001
0100
0010
0000
1000
0001
1000
0000
0100
0010
0100
0000
,
1000
0100
1000
0000
0001
0100
0001
0000
0010
0000
0100
0000
0010
0000
0000
0010
,
0000
0001
1000
0010
0100
0010
1000
0001
0020
0000
0000
0000
0000
0000
0000
0000
,
0230
0000
0000
0000
0000
0000
0000
0000
0320
0000
0000
0000
0031
0000
0000
0001
,
0000
1000
0010
1000
0001
0010
0100
1000
0020
0000
0000
0000
0000
0000
0000
0000
,
0230
0000
0000
0000
0000
0000
0000
0000
0320
0000
0000
0000
1030
0000
0000
1000
,
0000
0001
1000
0100
0010
0100
0010
0100
0020
0000
0000
0000
0000
0000
0000
0000
,
0032
0000
0000
0000
0000
0000
0000
0000
2000
0000
0003
0000
0000
3000
0000
0000
,
0000
0000
0000
0000
0000
0000
0000
0000
0010
0000
0010
0000
0000
0010
0000
0000
,
0000
0000
0000
0000
0000
0000
0000
0000
0100
0000
0100
0000
0000
0100
0000
0000
,
0000
0000
0020
0000
,
2030
0000
0000
0000
0000
0000
0000
0000
0002
0000
3000
0000
0000
0003
0000
0000
,
0000
0000
0000
0000
0000
0000
0000
0000
0010
0000
0100
0000
0000
0100
0000
0000
,
0000
0000
0000
0000
2002
3003
0000
0000
,
0000
0000
0000
0000
0000
0000
0000
0000
1000
0100
0000
0010
0000
0100
0000
0010
,
0001
0100
0000
0010
0000
0100
0000
0010
1000
0100
0000
0010
0000
0100
0000
1000
,
0002
0000
0000
0000
1003
0001
1000
0001
1000
0100
0000
0010
0000
0100
0000
1000
,
0001
0100
0000
0010
0000
0100
0000
0001
1000
0100
0000
0100
0000
1000
0000
0001
,
2000
0000
0000
0000
3001
0010
0001
0010
0001
1000
0000
1000
0000
1000
0000
0010
,
1000
0001
0000
0001
0000
0001
0000
0010
0001
1000
0000
0010
0000
1000
0000
0100
,
0020
0000
0000
0000
0130
1000
0001
0100
0010
1000
0000
0010
0000
0100
0000
0001
,
0010
0100
0000
1000
0000
0100
0000
0010
0001
0100
0000
0010
0000
1000
0000
0010
,
0200
0000
0000
0000
0310
0100
0010
0100
0002
0000
0000
0000
0010
0000
0000
0000
,
2003
0000
0000
0000
0100
0000
0000
0000
3010
0000
0010
0000
0100
0001
0000
1000
,
0100
0010
0001
0000
1000
0001
0000
0000
0100
0000
0010
0000
1000
0010
0000
0100
,
0001
0100
0010
0000
1000
0010
0000
0000
0100
0000
0001
0000
0010
0001
0000
0010
,
0100
1000
0001
0000
1000
0001
0000
0000
0200
0000
0000
0000
1000
0000
0000
0000
,
0302
0000
0000
0000
0010
0000
0000
0000
1003
0000
1000
0000
0001
1000
0000
1000
,
0100
0010
0001
0000
0010
0001
0000
0000
1000
0000
0010
0000
0100
0001
0000
0100
,
0010
1000
0010
0000
0100
0001
0000
0000
0010
0000
0100
0000
2000
0100
0000
0000
,
3000
0001
0100
0000
0010
0100
0010
0100
0020
0000
0000
0000
0000
0000
0000
0000
,
0000
0000
0000
1030
0100
0021
0000
0000
,
0000
0000
0000
0031
0100
1020
0000
0000
,
0000
0000
0000
0130
0001
0012
0000
0000
,
0003
0000
0000
1000
0001
0110
0000
0000
,
0000
0000
0000
0010
1000
1001
0000
0000
,
0000
0000
0000
1000
0001
0110
0000
0000
,
0000
0000
0000
0100
0010
2002
0000
0000
,
3003
0000
0000
0000
;

//---------------dance-single - Telperion----------------
#NOTES:
     dance-single:
     Telperion:
     Hard:
     7:
     0.343,0.466,0.052,0.271,0.234,200.000,5.000,26.000,8.000,0.000,0.000,0.000,0.343,0.466,0.052,0.271,0.234,200.000,5.000,26.000,8.000,0.000,0.000,0.000:
M000
0000
0000
0000
,
0000
0000
0000
0000
,
0000
0000
000M
0000
,
0000
0000
0000
0MM0
,
0000
000M
0000
0000
,
0000
0000
0000
0000
,
0000
0000
0000
M000
,
0000
0000
0000
0000
,
0MM0
0000
0000
0000
1000
0001
0100
0010
,
0100
1000
0100
0010
2000
0000
0000
0000
,
0000
0000
0000
0000
3001
1000
0001
0010
,
0100
0010
1000
0010
0002
0000
0000
0000
,
0003
0000
0000
0000
0000
0000
0000
0000
0100
0000
0010
0000
0100
0000
0000
1000
,
0000
0000
0100
0000
0001
0000
0000
0000
1000
0000
0100
0000
1000
0000
0000
0001
,
0000
0000
1000
0000
0001
0000
0000
0000
0010
0000
0100
0000
0010
0000
0000
1000
,
0000
0000
0010
0000
0001
0000
0000
0000
0100
0000
0010
0000
1000
0000
0000
0010
,
0000
0100
0001
0000
0010
0010
0100
0100
,
1000
1000
0001
0001
0200
0000
0000
0000
,
0000
0000
0000
0000
0310
0010
1000
1000
,
0001
0001
0010
0010
0200
0000
0000
0000
,
0300
0000
0000
0000
0000
0000
0000
0000
1000
0000
0010
0000
0100
0000
0000
0101
,
0000
0000
0000
0000
1000
0000
0000
0000
0001
0000
1000
0000
0001
0000
0000
0001
,
0000
0000
0000
0000
1000
0000
0000
0000
0001
0000
0010
0000
0100
0000
0000
1100
,
0000
0000
0001
0000
1000
0010
0100
0001
,
0010
0000
0001
0000
1000
0001
1000
0001
2000
0000
0000
0000
0000
0000
0000
0000
,
3002
0000
0000
0000
0000
0000
0000
0000
0020
0000
0003
0000
0000
0030
0000
0000
,
0000
0000
0000
0000
0100
0100
0000
0000
,
0000
0000
0000
0000
0100
0100
0000
0000
,
0000
0000
2000
0000
,
3020
0000
0000
0000
0000
0000
0000
0000
0200
0000
0030
0000
0000
0300
0000
0000
,
0000
0000
0000
0000
0010
0010
0000
0000
,
0000
0000
0000
0000
1001
1000
0000
0000
,
0000
0000
0000
0000
0000
0000
0000
0000
0001
0000
0000
1000
0000
0001
0000
0000
,
0100
0000
0000
0010
0000
0100
0000
0000
0001
0000
0000
1000
0000
0001
0000
0000
,
0020
0000
0000
0000
0130
0000
0010
0000
0001
0000
0000
1000
0000
0010
0000
0000
,
0100
0000
0000
0010
0000
1000
0000
0000
0100
0000
0000
0010
0000
0100
0000
0000
,
2000
0000
0000
0000
3001
0000
0001
0000
1000
0000
0000
0001
0000
0100
0000
0000
,
0010
0000
0000
1000
0000
0100
0000
0000
0010
0000
0000
0001
0000
1000
0000
0000
,
0020
0000
0000
0000
0130
0000
0010
0000
1000
0000
0000
0001
0000
0010
0000
0001
,
1000
0000
0000
0001
0000
0010
0000
0001
1000
0000
0000
0001
0000
0010
0000
0001
,
2000
0000
0000
0000
3001
1000
0001
1000
0002
0000
0000
0000
0000
0000
0000
0000
,
0203
0000
0320
0000
,
0000
0000
0000
0000
0000
0000
0000
0000
0031
0000
0010
0000
1000
0000
0000
1000
,
0000
0000
0001
0000
0000
0001
0000
0000
0010
0000
0001
0000
1000
0000
0000
1000
,
0000
0000
0001
0000
0000
0001
0000
0000
0020
0000
0000
0000
0000
0000
0000
0000
,
0230
0000
2300
0000
,
0000
0000
0000
0000
0000
0000
0000
0000
3001
0000
1000
0000
0010
0000
0000
0010
,
0000
0000
0010
0000
0000
0010
0000
0000
0100
0000
0100
0000
0000
0000
0000
0000
,
0000
0000
0001
0000
0000
1000
0000
0000
0002
0000
0000
0000
0000
0000
0000
0000
,
0000
0000
0000
0013
0100
1200
0000
0000
,
0000
0000
0000
1300
0001
0001
0000
0000
,
0000
0000
0000
0001
1000
1000
0000
0000
,
0000
0000
0000
0010
2000
0000
0000
0000
,
0000
0000
0000
3010
0100
2002
0000
0000
,
0000
0000
0003
3001
0010
0010
0000
0000
,
0000
0000
0000
1000
0020
0000
0000
0000
,
0030
0000
0000
0000
;

//---------------dance-single - Telperion----------------
#NOTES:
     dance-single:
     Telperion:
     Medium:
     4:
     0.239,0.350,0.021,0.458,0.021,115.000,2.000,44.000,6.000,0.000,0.000,0.000,0.239,0.350,0.021,0.458,0.021,115.000,2.000,44.000,6.000,0.000,0.000,0.000: // measure 1
M000
0000
0000
0000
,  // measure 2
0000
0000
0000
0000
,  // measure 3
0000
0000
M000
0000
,  // measure 4
0000
0000
0000
M000
,  // measure 5
0000
000M
0000
0000
,  // measure 6
0000
0000
0000
0000
,  // measure 7
0000
0000
0000
000M
,  // measure 8
0000
0000
0000
0000
,  // measure 9
000M
0000
0000
0000
0000
0000
0000
0000
1000
0000
0000
0000
0001
0000
0000
0001
,  // measure 10
0000
0100
0020
0000
,  // measure 11
0000
0000
0000
0000
0000
0000
0000
0000
1030
0000
0000
0000
0001
0000
0000
0001
,  // measure 12
0000
0010
0200
0000
,  // measure 13
0300
0000
2000
0000
,  // measure 14
3200
0000
0320
0000
,  // measure 15
0000
0000
0031
1000
0002
0000
0000
0000
,  // measure 16
2003
0000
0020
0000
,  // measure 17
0000
0000
0000
0000
3030
0000
0000
0000
0001
0000
0000
0000
1000
0000
0000
1000
,  // measure 18
0000
0100
0020
0000
,  // measure 19
0000
0000
0000
0000
0000
0000
0000
0000
0031
0000
0000
0000
1000
0000
0000
1000
,  // measure 20
0000
0001
0200
0000
,  // measure 21
0300
0000
0020
0000
,  // measure 22
2030
0000
0002
0000
,  // measure 23
0000
3000
0023
0000
,  // measure 24
0230
0000
2000
0000
,  // measure 25
3300
0000
0100
1000
0002
0000
0000
0000
,  // measure 26
0203
0000
2300
0000
,  // measure 27
0000
0000
3000
0000
0100
0100
0000
0000
,  // measure 28
0000
0000
0000
0000
0010
0010
0000
0000
,  // measure 29
0000
0000
2000
0000
,  // measure 30
3200
0000
0302
0000
,  // measure 31
0000
0000
0003
0000
0100
0100
0000
0000
,  // measure 32
0000
0000
0000
0000
2000
3001
0000
0000
,  // measure 33
0000
0000
0002
0000
,  // measure 34
2003
0000
3020
0000
,  // measure 35
0130
0000
0010
0100
0002
0000
0000
0000
,  // measure 36
0023
0000
0230
0000
,  // measure 37
1300
0000
0001
1000
0200
0000
0000
0000
,  // measure 38
0320
0000
0032
0000
,  // measure 39
0103
0000
0010
1000
0020
0000
0000
0000
,  // measure 40
0230
0000
0302
0000
,  // measure 41
1003
0000
0001
1000
0001
0000
0010
0001
,  // measure 42
0010
0000
0001
1000
0001
0000
1000
0010
,  // measure 43
1000
0000
0001
1000
0200
0000
0000
0000
,  // measure 44
0010
0000
1000
0000
,  // measure 45
0310
0000
0000
0000
1000
0000
0010
1000
,  // measure 46
0010
0000
1000
0001
1000
0000
0001
0010
,  // measure 47
0001
0000
0100
0010
2000
0000
0000
0000
,  // measure 48
0010
0000
0000
0000
3002
0003
0000
0000
,  // measure 49
0000
0000
0020
0000
,  // measure 50
0000
0000
0000
0130
2000
0000
0000
0000
,  // measure 51
0000
0000
3010
0000
,  // measure 52
0000
0000
0101
0000
,  // measure 53
0000
0000
0020
0000
,  // measure 54
0000
0000
0000
0130
0002
0000
0000
0000
,  // measure 55
0000
0000
0013
0000
,  // measure 56
0000
0000
2002
0000
,  // measure 57
3003
0000
0000
0000
;
