#TITLE:Primal Eyes;
#SUBTITLE:;
#ARTIST:Yoko Shimamura;
#TITLETRANSLIT:;
#SUBTITLETRANSLIT:;
#ARTISTTRANSLIT:;
#CREDIT:;
#BANNER:;
#BACKGROUND:;
#LYRICSPATH:;
#CDTITLE:;
#MUSIC:Primal Eyes.mp3;
#OFFSET:-7.850;
#SAMPLESTART:20.980;
#SAMPLELENGTH:13.150;
#SELECTABLE:YES;
#BPMS:0.000=146.000,96.000=158.000,168.000=144.000;
#STOPS:231.500=2.917
;
#BGCHANGES:;

//---------------dance-single - ----------------
#NOTES:
     dance-single:
     :
     Hard:
     9:
     0.543,0.563,0.312,0.110,0.173:
1000
0100
0010
0100
0000
0010
0001
0010
,
0001
1000
0010
0100
0000
0010
0100
0001
,
1000
0100
0001
0100
0000
1000
0100
0010
,
0100
1000
0001
0100
0000
0010
0110
0000
,
1001
0001
0100
0010
0000
0100
0001
0001
,
1000
0100
0010
0100
0000
0010
0001
0001
,
1000
0010
0100
0001
0000
0100
0010
0010
,
1000
0010
1000
0010
0000
0100
0001
0000
1000
0000
0001
0000
1001
0000
0000
0000
,
1000
0000
0100
0000
0001
0000
0100
0000
0010
0000
0001
0000
1000
0010
1000
0000
,
0001
0000
0100
0000
1000
0000
0100
0000
0010
0000
1000
0000
0001
1000
0001
0000
,
1000
0000
0100
0000
0010
0000
0100
0000
1000
0000
0100
0000
0010
0001
0010
0000
,
0001
1000
0001
0100
0010
1000
1001
0000
,
0001
0000
0010
0000
0100
0000
0010
0000
0001
0000
1000
0000
0010
0100
0001
0000
,
1000
0000
0100
0000
0010
0000
0100
0000
1000
0000
0001
0000
1000
0010
0100
0000
,
0010
0000
0100
0000
0001
0000
1000
0000
0001
0010
0001
0000
1000
0010
0100
0000
,
0110
0010
1000
1100
1001
0001
0010
0000
,
1001
0000
0000
0220
0000
0000
0330
0000
,
0010
0000
0010
1000
0000
1000
0001
0000
0001
1000
0000
1000
0100
0000
0000
0000
,
0110
0000
0000
0011
0000
0000
1001
0000
,
1000
0001
1000
0002
0000
0000
0103
0000
0010
0000
1000
0000
0100
0000
0000
0000
,
0010
0100
1000
0010
0000
0100
0010
0100
,
0001
0000
1000
0000
0100
0000
0010
0000
0100
0000
1000
0000
0001
1000
0001
0000
,
1000
0010
0100
0001
0000
0010
0001
0100
,
0101
0000
0000
0101
0000
0000
0101
0000
0100
0000
0010
0000
1000
0000
0100
0000
,
1100
0000
1000
0100
0000
0100
0010
0000
,
0001
0000
0010
0100
0000
0100
1000
0000
,
0001
1000
0001
0100
0000
0010
0100
0001
,
0010
0100
0010
0001
1000
0010
0100
0000
,
0010
0000
0100
0001
0000
0001
1000
0000
,
0001
0000
0010
0001
0000
0001
1000
0000
,
0010
0100
0001
0010
0100
0010
0001
1000
,
0010
0100
0001
1000
0100
1000
0001
0000
,
1100
0000
1000
0100
0001
0100
1000
0000
,
0001
0000
0101
0000
0110
0000
0100
0001
,
0010
0100
0010
0001
1000
0010
0110
0000
,
1001
0000
1000
0100
0001
0100
1000
0000
,
0001
0000
0101
0000
0110
0000
0010
1000
,
0100
0001
0100
0010
0001
1000
0010
0100
,
0110
0000
0010
1000
0000
1000
0100
0000
,
0100
0001
0000
0001
0100
1000
0100
0001
,
0100
0000
0100
0010
0000
0010
0001
0000
,
0001
1000
0010
0100
0001
1000
0100
0000
,
2200
0000
3300
2002
,
0000
0000
0000
0000
3003
0000
0110
0220
,
0000
0000
0330
0202
,
0000
0000
0303
1001
,
1100
0000
0000
2002
0000
0000
3003
0000
,
0001
0000
0100
0001
0000
0001
0100
0000
0010
0000
1000
0000
1001
0000
0000
0000
,
1100
0000
0100
0010
0000
0010
0001
0000
,
1000
0001
1000
0001
0000
1000
0010
0000
0100
0001
0100
0000
1010
0000
0000
0000
,
1001
0000
0001
0000
0010
0000
0100
0000
0010
0000
0001
1000
0001
0000
1000
0000
,
0010
0000
0100
0000
0001
0000
1000
0000
0100
0000
0010
0100
1000
0100
0010
0000
,
0100
0000
0010
0000
0001
0000
1000
0000
0010
0000
0100
0010
1000
0000
0001
0000
,
1000
0100
1000
0100
0000
0010
0001
0000
0001
0100
0001
0000
1000
0010
1000
0000
,
0001
0000
0010
0000
0100
0000
0001
0000
0100
0000
1000
0000
0001
0100
0001
0000
,
1000
0000
0001
1000
0001
0000
1000
0000
0010
0000
0100
0000
0001
0010
0001
0000
,
1000
0000
0100
0000
0001
0000
0100
0000
1000
0000
0001
0000
1000
0010
1000
0000
,
0001
0100
0001
0100
0001
0000
1000
0100
1000
0000
0001
0000
0010
0100
0010
0000
,
1001
0000
0000
0000
;

//---------------dance-single - ----------------
#NOTES:
     dance-single:
     :
     Beginner:
     1:
     0.117,0.147,0.059,0.000,0.000: // measure 1
1000
0000
0000
0000
,  // measure 2
0001
0000
0000
0000
,  // measure 3
0010
0000
0000
0000
,  // measure 4
0100
0000
0000
0000
,  // measure 5
0110
0000
0000
0000
,  // measure 6
0010
0000
0000
0000
,  // measure 7
0001
0000
0000
0000
,  // measure 8
1000
0000
0001
0000
,  // measure 9
1001
0000
0000
0000
,  // measure 10
1000
0000
0010
0000
,  // measure 11
0100
0000
0000
0000
,  // measure 12
0001
0000
0010
0000
,  // measure 13
0100
0000
0000
0000
,  // measure 14
0010
0000
0001
0000
,  // measure 15
1000
0000
0001
0000
,  // measure 16
0100
0000
0010
0000
,  // measure 17
0110
0000
0000
0000
,  // measure 18
0100
0000
0000
0000
,  // measure 19
1001
0000
0000
0000
,  // measure 20
0001
0000
1000
0000
,  // measure 21
1001
0000
0000
0000
,  // measure 22
0001
0000
0010
0000
,  // measure 23
0001
0000
1000
0000
,  // measure 24
0010
0000
0100
0000
,  // measure 25
0110
0000
0000
0000
,  // measure 26
0010
0000
0000
0000
,  // measure 27
1000
0000
0000
0001
,  // measure 28
0000
0000
0100
0000
,  // measure 29
0010
0000
0000
0000
,  // measure 30
0100
0000
0000
0000
,  // measure 31
0001
0000
0000
1000
,  // measure 32
0000
0000
0100
0000
,  // measure 33
0010
0000
0000
0001
,  // measure 34
0000
0000
1000
0000
,  // measure 35
0000
0010
0000
0100
,  // measure 36
0100
0000
0000
0001
,  // measure 37
0000
0000
1000
0000
,  // measure 38
0000
0001
0000
0010
,  // measure 39
0010
0000
0000
0001
,  // measure 40
0000
0000
1000
1000
,  // measure 41
1000
0000
0000
0001
,  // measure 42
0000
0000
0100
0100
,  // measure 43
0100
0000
0000
0100
,  // measure 44
0000
0000
0000
0010
,  // measure 45
0000
0000
0000
1000
,  // measure 46
0000
0000
0000
0001
,  // measure 47
0001
0000
1000
0000
,  // measure 48
0001
0000
0000
0000
,  // measure 49
0100
0000
0010
0000
,  // measure 50
0100
0000
0000
0000
,  // measure 51
0010
0000
1000
0000
,  // measure 52
0010
0000
0100
0000
,  // measure 53
0001
0000
1000
0000
,  // measure 54
0100
0000
0010
0000
,  // measure 55
0100
0000
0010
0000
,  // measure 56
0001
0000
1000
0000
,  // measure 57
0010
0000
0100
0000
,  // measure 58
0001
0000
1000
0000
,  // measure 59
1001
0000
0000
0000
;

//---------------dance-single - ----------------
#NOTES:
     dance-single:
     :
     Easy:
     3:
     0.228,0.245,0.093,0.068,0.000:
1001
0000
1000
0100
,
1000
0000
0001
0010
,
0001
0000
0100
0010
,
0100
0000
0001
1000
,
0001
0000
0010
0010
,
0010
0000
0100
0100
,
0100
0000
1000
1000
,
1000
0000
0001
0000
,
1001
0000
1000
0010
,
0100
0000
0010
0100
,
0001
0000
1000
0100
,
0010
0100
1000
0000
,
0001
0000
0100
0010
,
0100
0000
0001
0100
,
0001
0000
1000
0100
,
0001
0100
1000
0000
,
1001
0000
0000
0000
,
1000
0000
0001
0100
,
0001
0000
0000
0000
,
0100
0010
0100
0001
,
1001
0000
1000
0100
,
0010
0001
0100
0000
,
0010
0000
0100
0001
,
1000
0001
1000
0001
,
1001
0000
0000
1000
0000
0000
0001
0000
,
0100
0000
0000
0010
0000
0000
0100
0000
,
0001
0000
0000
1000
0000
0000
0100
0000
,
0000
0010
0000
0000
0001
0000
1000
0000
,
0001
0000
0000
0100
0000
0000
0010
0000
,
1000
0000
0000
0100
0000
0000
0010
0000
,
0001
0000
0000
1000
0000
0000
0001
0000
,
0000
0100
0000
0000
0010
0000
0100
0000
,
0010
0000
0000
1000
,
0100
0010
0001
0000
,
0000
0001
0100
0010
,
1000
0000
0000
0001
,
1000
0100
0010
0000
,
0000
0100
1000
0001
,
0100
0000
0000
0100
0000
0000
0100
0000
,
0000
0010
0000
0000
0010
0000
0010
0000
,
0010
0000
0000
1000
0000
0000
0001
0000
,
0000
1000
0000
0000
0001
0000
1000
0000
,
2002
0000
3003
2002
,
0000
0000
3003
0220
,
0000
0000
0330
2002
,
0000
0000
3003
1001
,
1000
0000
0001
0000
,
0100
0010
1000
0001
,
0010
0000
0100
0000
,
0010
0001
1000
0001
,
1000
0010
0100
0100
,
0100
0010
1000
0001
,
1000
0100
0010
0010
,
0010
0100
0010
0000
,
0001
1000
0001
1000
,
0001
0100
0001
0100
,
0010
1000
0010
1000
,
0010
0100
0010
0100
,
0110
0000
0000
0000
;

//---------------dance-single - ----------------
#NOTES:
     dance-single:
     :
     Medium:
     6:
     0.356,0.343,0.135,0.076,0.008:
1000
0000
0000
0010
0000
0000
1000
0000
,
0001
0000
0000
0010
0000
0000
0001
0000
,
1000
0000
0000
0010
0000
0000
0100
0000
,
0010
0000
0000
0100
0000
0000
0101
0000
,
1001
0000
0000
1000
0000
1000
0001
0000
,
0100
0000
0000
0100
0000
0100
0010
0000
,
0001
0000
0000
0001
0000
0001
1000
0000
,
0010
0100
0010
0100
0010
0000
1001
0000
,
1000
0000
0010
0000
0100
0001
0100
0000
,
0001
0000
1000
0000
0100
1000
0100
1000
,
0100
0000
0010
0000
0100
0010
0100
0000
,
0010
0000
0001
0000
1000
0010
0100
0000
,
0110
0000
0010
0000
1000
0001
1000
0000
,
0001
0000
0010
0000
0001
1000
0001
1000
,
0001
0000
0100
0000
0010
1000
0100
0000
,
0010
0100
0010
0000
0001
0000
1000
0000
,
2001
0000
0000
0002
0000
0000
3003
0000
,
0001
0000
0100
0000
0010
1000
0010
0000
,
0120
0000
0000
0200
0000
0000
0330
0000
,
0010
0000
0000
0100
0000
0000
0010
0000
0100
0000
0000
0000
1001
0000
0000
0000
,
1000
0010
1000
0000
0001
0100
0001
0000
,
1000
0001
1000
0000
0001
0010
0001
0000
,
1000
0010
0100
0001
0010
0000
0100
0000
,
0010
0001
0100
0000
0010
1000
0100
0010
,
0100
0000
0010
0001
0000
0000
1000
0000
,
0001
0000
0100
0001
0000
0000
1000
0000
,
0001
0000
1000
0100
0000
0100
0010
0000
,
0010
0001
0000
0001
1000
0000
0001
0000
,
0100
0000
0010
1000
0000
0000
0001
0000
,
0010
0000
0001
1000
0000
0000
0001
0000
,
1000
0000
1000
0100
0000
0100
0010
0000
,
0010
0001
0000
0001
1000
0000
1001
0000
,
0001
0100
0001
0000
1000
0000
0010
0000
,
0100
0000
0001
0000
1000
0100
1000
0000
,
0100
0001
0100
1000
,
0001
1000
0001
0000
0010
0000
0100
0000
,
0010
0000
0001
0000
1000
0010
0100
0000
,
0010
0000
0100
0000
0001
1000
0001
0000
,
1000
0010
1000
0010
0000
0010
0100
0000
,
0100
0001
0000
0001
1000
0000
0001
0000
,
0100
0001
0100
0001
0000
0001
1000
0000
,
1000
0100
0000
0100
0010
0000
0110
0000
,
2002
0000
0003
0002
,
0000
0000
3000
0000
1000
2000
0000
0000
,
0000
0000
0003
0002
,
0000
0000
3003
1001
,
0110
0000
0010
0100
0000
0100
0001
0000
,
1000
0100
1000
0000
0001
0010
0001
0000
,
1001
0000
1000
0100
0000
0100
0010
0000
,
0001
0000
0000
1000
0000
0000
0001
0000
1000
0000
0000
0000
1001
0000
0000
0000
,
0001
0010
0001
0000
1000
0000
0100
0000
,
0010
0100
0010
0000
0100
0000
1000
0000
,
0001
1000
0010
0000
0100
0000
0001
0000
,
0010
0001
0100
0000
0010
0000
1000
0000
,
1001
0000
0001
0000
1000
0100
1000
0001
,
0100
0000
0010
0000
0100
0001
0100
0001
,
0010
0000
0100
0000
0010
0001
1000
0001
,
1000
0000
0010
0000
0100
0001
1000
0001
,
1001
0000
0000
0000
;
