#TITLE:Paper Engine;
#SUBTITLE:(Outer Space);
#ARTIST:Hidenori Shoji;
#TITLETRANSLIT:;
#SUBTITLETRANSLIT:;
#ARTISTTRANSLIT:;
#CREDIT:;
#BANNER:bn.png;
#BACKGROUND:bg.png;
#LYRICSPATH:;
#CDTITLE:Dance Dance Revolution Extreme.png;
#MUSIC:Paper Engine (Outer Space).mp3;
#OFFSET:-2.795;
#SAMPLESTART:19.660;
#SAMPLELENGTH:12.000;
#SELECTABLE:YES;
#BPMS:0.000=142.120;
#STOPS:292.000=1.266
;
#BGCHANGES:;

//---------------dance-single - ----------------
#NOTES:
     dance-single:
     :
     Hard:
     8:
     0.458,0.500,0.262,0.254,0.168:
0000
0000
0000
0000
,
0000
0000
0000
0000
,
0001
0100
0000
0010
1000
0000
1001
0000
,
0001
0100
0010
0000
0100
0010
1000
0000
,
1000
0001
0010
0001
1000
0000
1001
0000
,
0001
0000
0100
0000
1000
0000
0000
0000
1000
0000
0000
0100
0000
0000
0001
0000
,
0010
0010
0001
0100
0010
0000
0101
0000
,
0001
0001
1000
0000
0010
0010
0100
0000
,
0010
0010
1000
0001
0010
0000
1100
0000
,
1000
0001
0010
0001
0100
2000
0200
3300
,
0010
0000
0101
0000
0001
0100
1010
0000
,
1000
0000
1001
0000
0001
1000
0010
0001
,
0010
0000
0110
0000
0100
0010
1000
0000
,
0001
0000
0000
0000
1100
0000
0000
0000
1000
0000
0000
0001
0000
0000
0001
0000
,
0100
0000
0101
0000
0010
1000
0100
0000
,
1000
0000
0000
0000
0101
0000
0000
0000
0010
0000
0000
0100
0000
0000
1000
0000
,
0001
0000
1010
0000
1000
0001
0010
0000
,
0001
0100
1000
0100
0010
0100
1000
0001
,
0020
0000
0000
0001
0000
0000
0031
0000
0200
0000
0000
0010
0000
0000
0310
0000
,
2000
0000
0000
0100
0000
0000
3100
0000
0020
0000
0000
0100
0000
0000
0130
0000
,
0200
0000
0000
0010
0000
0000
0310
0000
0002
0000
0000
1000
0000
0000
1003
0000
,
0200
0000
0000
0010
0000
0000
0310
0000
0210
0000
0000
0010
0000
0000
0310
0000
,
0200
0000
0000
1000
0000
0000
1300
0000
0020
0000
0000
0100
0000
0000
0130
0000
,
0002
0000
0000
0010
0000
0000
0013
0000
0200
0000
0000
0010
0000
0000
0310
0000
,
0020
0000
0000
0100
0000
0000
0130
0000
2000
0000
0000
0001
0000
0000
0001
0000
,
0002
0000
0000
3003
,
0001
0000
1010
0000
0001
0100
0010
1000
,
0100
0000
0011
0000
0001
0200
0000
0310
,
2000
0000
3100
0000
1000
0010
0100
0000
,
0010
0000
1010
0000
1000
0001
0010
0001
,
1000
0000
0011
0000
0001
0100
1000
0000
,
1000
0100
1000
0001
0010
0200
0000
0310
,
0002
0000
0103
0000
0010
1000
1100
0000
,
1000
0011
0010
1100
,
0001
1000
0001
0010
0001
1000
0100
1000
,
0001
0100
0001
1000
0001
0010
0100
0010
,
0001
0000
0010
0000
0001
0000
0000
0100
0000
0000
0100
0000
0000
0000
0000
0000
,
0010
0000
1000
0000
0001
0000
0000
1000
0000
0000
1000
0000
0000
0000
0000
0000
,
0100
1000
0010
0100
0010
1000
0001
0010
,
0001
0100
0010
1000
0001
0010
0001
1000
,
0100
0000
0010
0000
0100
0000
0000
1000
0000
0000
0001
0000
0000
0000
0000
0000
,
0001
0000
0100
0000
0010
0000
0000
0100
0000
0000
0100
0000
0000
0000
0000
0000
,
0020
0000
0000
0000
,
2000
0000
0000
0030
,
0200
0000
0000
3000
,
0020
0000
0000
0300
,
0002
0000
0000
0030
,
0200
0000
0000
0003
,
0020
0000
0000
0000
,
0000
0000
0000
0000
0330
0000
0000
0000
0110
0000
0000
0101
0000
0000
1010
0000
,
0001
0000
1000
0000
0001
0000
0010
0000
0100
0000
0020
0000
0000
0130
0000
0000
,
0010
0000
0001
0000
0100
0000
0010
0000
1000
0000
0002
0000
0000
0103
0000
0000
,
0001
0000
0001
0000
0010
0000
0000
0100
0000
0000
1000
0000
0010
0000
0000
0100
,
0000
0000
0010
0000
1000
0000
0000
0001
0000
0000
0010
0000
0100
0000
0000
0000
,
1000
0000
0010
0000
0100
0000
0010
0000
1000
0000
0001
0000
0000
0001
0000
0000
,
0001
0000
1000
0000
0100
0000
1000
0000
0001
0000
0010
0000
0000
0010
0000
0000
,
0010
0000
0001
0000
0100
0000
0000
0010
0000
0000
1000
0000
0010
0000
0000
0100
,
0000
0000
0010
0000
1000
0000
0000
0001
0000
0000
0010
0000
0100
0000
0000
0000
,
0100
0000
1000
0000
0001
0000
1000
0000
0100
0000
1000
0000
0000
0011
0000
0000
,
0001
0000
0100
0000
0001
0000
0010
0000
0100
0000
1000
0000
0000
0011
0000
0000
,
0001
0000
1000
0000
0100
0000
0000
1000
0001
0000
0010
0000
0100
0000
0000
0001
,
0010
0000
0100
0000
0010
0000
0000
0001
0100
0000
0010
0000
1000
0000
0000
0000
,
0001
0000
1000
0000
0100
0000
1000
0000
0001
0000
0010
0000
0000
1001
0000
0000
,
0001
0000
0100
0000
0010
0000
0100
0000
0001
0000
1000
0000
0000
0011
0000
0000
,
0001
0000
1000
0000
0100
0000
0000
1000
0010
0000
0100
0000
0010
0000
0000
1000
,
0010
0000
0100
0000
0001
0000
0000
0001
1000
0000
0100
0000
0010
0000
0000
0000
,
2200
0000
0000
0000
,
0300
0000
0000
0010
,
3010
0000
0000
0000
,
0000
0000
0000
0000
,
0101
0000
0000
0000
0000
0000
0000
1001
0000
0000
0000
0000
0000
0000
0000
0000
,
1100
0000
0000
0000
0000
0000
0000
0011
0000
0000
0000
0000
0000
0000
0000
0000
,
0101
0000
0000
0000
0000
0000
0000
0110
0000
0000
0000
0000
0000
0000
0000
0000
,
0000
2002
0000
0000
,
0000
3003
0000
0000
;

//---------------dance-single - ----------------
#NOTES:
     dance-single:
     :
     Challenge:
     11:
     0.844,0.999,0.127,0.531,1.000: // measure 1
0000
0000
0000
0000
,  // measure 2
0000
0000
0000
0000
,  // measure 3
0001
1000
0100
1000
0010
0000
0100
0010
1000
0001
0010
0000
0001
0000
0100
0000
,  // measure 4
0010
0100
1000
0010
0100
0000
0010
0100
1000
0010
0100
0010
1000
0000
0001
1000
,  // measure 5
0100
0010
0100
1000
0001
0000
0100
0010
1000
0001
0010
0000
0001
0000
0010
0000
,  // measure 6
0100
0010
0001
0100
0010
0000
0010
1000
0001
1000
0000
0001
0100
0000
0100
0000
,  // measure 7
0001
1000
0001
0010
0100
0000
1000
0001
0010
0001
0100
0010
1000
0000
1000
0001
,  // measure 8
0010
0100
0010
0001
0100
0000
0001
0100
0010
1000
0001
0010
0100
0000
0100
0010
,  // measure 9
0001
0100
0010
1000
0001
0000
0010
0000
1000
0200
0010
0000
0310
0000
0010
0001
,  // measure 10
0100
0000
0000
0010
0000
0000
1000
0000
0000
0001
0000
0000
0010
0000
0000
0000
0000
0000
0001
0000
0000
0100
0000
0000
0010
0000
0000
1000
0000
0000
0200
0000
2300
0000
3200
0000
2300
0000
3200
0000
2300
0000
3000
0000
0000
0000
0000
0000
,  // measure 11
1001
1000
0001
0010
0100
0000
0100
0010
0001
0100
0010
1000
0100
0000
1000
0001
,  // measure 12
0100
0010
1000
0100
0010
0000
0010
0100
1000
0001
0100
0001
0010
0000
0100
0000
,  // measure 13
1000
0001
0100
0000
0001
0000
0001
1000
0001
0000
0010
0000
0100
0010
0000
0100
,  // measure 14
0010
0000
0001
0000
0001
1000
0000
0100
100M
0000
0000
M010
0000
0000
010M
0000
,  // measure 15
0001
1000
0010
0000
0100
0000
0010
1000
0001
0010
0100
0010
0001
0000
1000
0000
,  // measure 16
0001
0100
0010
1000
0001
0000
0001
0100
0020
0000
0000
1000
0000
0000
1030
0000
,  // measure 17
0010
1000
0100
0000
1100
0000
1000
0001
0000
0001
0010
0000
1000
0100
0000
1000
,  // measure 18
0001
0000
0000
0000
0000
0000
0100
0000
0001
0000
0100
0000
0001
0000
0100
0000
0001
0000
0100
0000
0001
0000
0100
0000
0001
0000
0000
0000
0000
0000
0000
0000
0000
0100
0000
0000
0000
0000
0000
0000
0000
0000
0100
0000
0000
0000
0000
0000
,  // measure 19
0210
0000
0000
0020
0000
0300
0002
0030
0020
0000
0003
2000
0000
0030
3200
0000
,  // measure 20
0002
0000
0300
0200
0000
0003
2000
0300
0020
3000
0230
0020
0000
0330
0010
0000
,  // measure 21
1000
0001
0010
0000
0001
0000
0100
0000
0020
0000
0000
2000
0000
0030
0200
3000
,  // measure 22
0002
0000
0300
0200
0000
0003
1000
0000
2300
0000
0000
0010
0000
0000
0010
0000
,  // measure 23
3010
1000
0010
0100
0010
0000
0100
0000
0200
0000
0000
0320
0000
0000
2030
0000
,  // measure 24
3002
0000
0000
0023
0000
0000
0230
0000
1300
0000
0001
0020
0000
0130
2000
0000
,  // measure 25
3001
1000
0100
0000
0010
0000
0001
0000
2000
0000
0000
0020
0000
3000
0200
0030
,  // measure 26
M020
0000
000M
0000
M000
0000
000M
0330
,  // measure 27
M001
0100
0001
0000
1000
0010
1000
0000
0010
0100
0010
0000
0100
0001
0100
0000
,  // measure 28
0010
1000
0010
0000
0100
1000
0100
0000
1000
0001
0100
0002
0010
0003
0100
0000
,  // measure 29
0010
0100
0020
0000
1030
0000
1000
0001
0010
0100
0020
0000
0031
0000
0001
0100
,  // measure 30
0010
1000
0200
0000
0310
0000
0010
0100
1000
0010
0200
0000
0310
0000
0010
0001
,  // measure 31
0010
0100
0010
0000
0100
1000
0100
0000
0010
0001
0010
0000
0001
0010
0100
0000
,  // measure 32
1000
0001
1000
0000
0010
1000
0010
0000
0100
1000
0100
0000
1000
0010
1000
0000
,  // measure 33
0001
1000
0200
0000
0310
0000
0010
0100
1000
0100
0020
0000
0031
0000
0001
0010
,  // measure 34
0100
0010
0002
0000
0103
0000
0100
0010
1000
0001
0020
0000
0130
0000
0100
1000
,  // measure 35
0010
1000
0100
0000
1000
0010
0100
0000
0010
1000
0001
0000
0010
0100
0010
0000
,  // measure 36
0010
0001
0100
0000
0010
1000
0100
0000
1000
0001
0010
0000
0100
1000
0010
0000
,  // measure 37
0100
0000
0001
0000
0001
0010
0000
0010
0100
0000
0010
0000
0011
0000
0000
0000
,  // measure 38
0001
0000
1000
0000
0100
1000
0000
0100
0010
0000
0001
0000
1100
0000
0000
0000
,  // measure 39
1000
0001
0010
0000
0100
1000
0010
0000
0100
0010
1000
0000
0001
0010
0001
0000
,  // measure 40
0010
0100
1000
0000
0100
1000
0010
0000
0100
0001
0010
0000
0100
1000
0010
0000
,  // measure 41
1000
0000
0001
0000
0010
0001
0000
0001
0100
0000
0010
0000
1001
0000
0000
0000
,  // measure 42
1000
0001
0100
0001
0010
0001
0100
0010
1000
0100
0010
0100
1000
0001
0100
0010
,  // measure 43
1000
0010
1000
0010
1000
0010
1000
0010
,  // measure 44
1000
0001
1000
0001
1000
0001
1000
0001
,  // measure 45
1000
0100
1000
0100
1000
0100
1000
0100
,  // measure 46
1000
0100
1000
0100
1000
0100
1000
0000
,  // measure 47
0001
1000
0001
1000
0001
1000
0001
1000
,  // measure 48
0001
0100
0001
0100
0001
0100
0001
0100
,  // measure 49
0001
0010
0001
0010
0001
0010
0001
0010
,  // measure 50
0001
0000
0000
0010
0000
0000
0100
0000
0000
0010
0000
0000
0001
0000
0000
0100
0000
0000
0010
0000
0000
1000
0000
0000
1001
0000
0000
0000
M00M
0000
0000
0000
0000
0011
0000
0000
0000
0000
00MM
0000
0000
0000
1100
0000
0000
MM00
0000
0000
,  // measure 51
1001
1000
0001
0010
0100
0010
0001
0100
0001
0000
0020
0000
0000
M20M
0000
0330
,  // measure 52
0010
0001
0100
0010
1000
0001
0010
0100
0010
0000
0002
0000
0000
MM20
0000
0033
,  // measure 53
0001
0100
0010
0000
1000
0010
0000
0100
0010
1000
0001
0000
0001
0010
0000
0010
,  // measure 54
0001
0100
0010
0000
1000
0010
0000
0100
0010
1000
0001
0000
0001
0010
0000
0010
,  // measure 55
0100
1000
0010
0100
0001
0010
0100
0001
1000
0000
0020
0000
0000
MM02
0000
0033
,  // measure 56
0010
1000
0100
0010
0100
1000
0001
0100
0001
0000
0200
0000
0000
20MM
0000
3300
,  // measure 57
0010
1000
0001
0000
0001
0010
0000
0001
0100
0010
1000
0000
0100
1000
0000
0100
,  // measure 58
1000
0010
0100
0000
0100
0001
0000
0001
0010
0100
0010
0000
0001
1000
0000
0001
,  // measure 59
0010
0001
0010
0100
0010
1000
0001
0010
0100
1000
0020
0000
0000
MM02
0000
0033
,  // measure 60
0001
0010
1000
0100
1000
0010
0100
0001
0010
0100
0020
0000
0000
2M0M
0000
3030
,  // measure 61
0001
0010
0100
0000
1000
0100
0000
1000
0010
0100
0001
0000
0001
0010
0000
0010
,  // measure 62
0100
1000
0010
0000
0100
0010
0000
0100
0010
1000
0001
0000
0001
0010
0000
0100
,  // measure 63
1000
0100
1000
0010
0100
0001
0010
0100
0010
0001
2000
0000
0000
0M2M
0000
3030
,  // measure 64
1000
0010
0100
0010
0001
0100
0010
1000
0100
0010
0002
0000
0000
2MM0
0000
3003
,  // measure 65
0001
0100
0010
0000
0100
0010
0000
0001
0010
0100
0010
0000
0010
0001
0000
0001
,  // measure 66
0100
0010
1000
0100
0010
0100
1000
0001
0100
0010
1000
0100
0010
0100
1000
0001
,  // measure 67
0M10
M000
000M
0M00
00M0
0000
00M0
M000
000M
00M0
0M00
00M0
000M
0000
000M
0M00
,  // measure 68
00M0
M000
0M00
00M0
000M
0000
000M
00M0
0M00
M000
0M00
00M0
M001
00M0
0M00
000M
,  // measure 69
10M0
000M
0M00
0000
00M0
0000
00M0
M000
000M
00M0
M000
00M0
000M
0000
000M
0M00
,  // measure 70
00M0
M000
0M00
M000
00M0
0000
0M00
00M0
M000
000M
00M0
0M00
M000
0000
000M
M000
,  // measure 71
0202
0000
0000
0000
0000
0000
0000
1010
0000
0000
0000
0000
0303
0000
0000
0000
,  // measure 72
2200
0000
0000
0000
0000
0000
0000
0011
0000
0000
0000
0000
3300
0000
0000
0000
,  // measure 73
0220
0000
0000
0000
0000
0000
0000
0000
0000
0000
0000
0000
0000
0000
0000
0000
0000
0000
0000
0000
0000
1001
0000
0000
0000
0000
0000
0000
0000
0000
0000
0000
0000
0000
0000
0000
0330
0000
0000
0000
0000
0000
0000
0000
M00M
0000
0000
0000
,  // measure 74
0MM0
0MM0
M00M
2002
0000
0000
0000
0000
0000
0000
0000
0000
,  // measure 75
0000
3003
0000
0000
;

//---------------dance-single - ----------------
#NOTES:
     dance-single:
     :
     Medium:
     6:
     0.370,0.470,0.254,0.224,0.075:
0000
0000
0000
0000
,
0000
0000
0000
0000
,
0001
1000
0100
0000
,
1000
0001
0100
0000
0100
0001
0010
0000
,
0001
0010
0001
0000
,
0001
0100
0010
0000
0100
0010
1000
0000
,
0001
1000
0010
0000
,
0100
0010
1000
0000
0100
1000
0010
0000
,
0100
0000
0001
1000
0100
0000
1000
0000
,
0001
0010
0100
0000
0100
2000
0020
3030
,
1000
1100
0100
1100
,
1000
0000
1100
0000
1000
0001
0020
0000
,
0031
0011
0010
0011
,
0001
0000
0000
0000
0011
0000
0000
0000
0001
0000
0000
1000
0000
0000
0100
0000
,
0010
0110
0100
0110
,
0010
0110
0200
1300
,
0100
0011
0100
0011
,
0100
0000
0000
0000
1010
0000
0000
0000
1000
0000
0000
0001
0000
0000
0010
0000
,
0001
0000
0000
0001
0000
0000
0001
0000
1000
0000
0000
1000
0000
0000
1000
0000
,
0010
0000
0000
0010
0000
0000
0010
0000
0100
0000
0000
0200
0000
0000
0300
0000
,
0010
0000
0000
1000
0000
0000
0001
0000
0010
0000
0000
0001
0000
0000
0100
0000
,
0010
0000
0000
1000
0000
0000
0001
0000
0100
0000
0000
0100
0000
0000
0100
0000
,
0010
0000
0000
1000
0000
0000
0010
0000
0100
0000
0000
0001
0000
0000
0010
0000
,
0100
0000
0000
0010
0000
0000
0001
0000
1000
0000
0000
2000
0000
0000
3000
0000
,
0001
0000
0000
1000
0000
0000
0100
0000
1000
0000
0000
0010
0000
0000
0100
0000
,
0002
0000
0000
0000
,
1003
0001
0010
0001
,
0100
0000
0010
0000
0100
0010
1000
0001
,
0010
0100
0010
0001
,
0010
0100
0010
0001
,
1000
0100
1000
0010
,
1000
0000
0010
0000
0001
0010
1000
0100
,
1000
0001
0010
1000
,
0010
0000
0001
0000
0100
0000
0010
1000
,
0100
0000
1000
0000
0001
0010
0001
0000
,
0100
0000
0010
0000
0100
0010
0100
0000
,
0001
0000
1100
0000
1000
0010
0100
0000
,
0001
0000
1010
0000
1000
0001
0010
0000
,
0100
0100
0010
0010
,
0100
0000
0010
0000
0100
0010
1000
0010
,
0001
0000
1100
0000
0010
0001
0100
0000
,
0010
0000
0101
0000
0001
0100
0010
0010
,
0200
0000
0000
0000
,
0020
0000
0000
0330
,
2000
0000
0000
0000
,
0002
0000
0000
3003
,
0200
0000
0000
0000
,
2000
0000
0000
3300
,
0200
0000
0000
0000
,
0000
0000
0000
0000
0000
0000
0000
0000
0310
0000
0000
0010
0000
0000
0010
0000
,
0020
0000
2030
0000
3100
1000
0020
0000
,
0230
0000
0320
0000
1030
0001
0020
0000
,
0031
0011
0100
1100
,
0010
1001
0100
0110
,
0010
1000
0200
0000
0010
0000
0310
0000
,
0100
1000
0020
0000
0100
0000
0130
0000
,
0010
0101
0010
0101
,
0010
1100
0010
1100
,
1000
0001
0020
0000
0001
0000
0031
0000
,
0001
0100
0020
0000
1000
0000
1030
0000
,
1000
0101
1000
0110
,
1000
0011
0100
1001
,
0001
0100
0020
0000
0100
0000
0130
0000
,
0100
0010
2000
0000
0001
0000
3001
0000
,
0001
0101
0010
1010
,
1000
0011
0001
1001
,
2200
0000
0000
0000
,
0000
0000
0000
0300
,
3000
0000
0000
0000
,
0000
0000
0000
0000
,
0010
0000
0000
0000
0000
0000
0000
1000
0000
0000
0000
0000
0000
0000
0000
0000
,
1000
0000
0000
0000
0000
0000
0000
0010
0000
0000
0000
0000
0000
0000
0000
0000
,
0100
0000
0000
0000
0000
0000
0000
0001
0000
0000
0000
0000
0000
0000
0000
0000
,
0000
0220
0000
0000
,
0330
0000
0000
0000
;

//---------------dance-single - ----------------
#NOTES:
     dance-single:
     :
     Easy:
     3:
     0.231,0.277,0.067,0.217,0.000:
0000
0000
0000
0000
,
0000
0000
0000
0000
,
0010
0100
0001
0000
,
1000
0000
0001
0000
,
1000
0001
0010
0000
,
0001
0000
0100
0100
,
0110
0010
1000
0000
,
1000
0100
0001
0100
,
1000
0010
0010
0000
,
0100
0001
2000
3000
,
1000
0001
0010
0001
,
1000
0100
1000
0001
,
0100
0100
0001
0001
,
0010
0100
0010
0001
,
1000
0001
0100
0001
,
1000
0100
1000
0010
,
0100
0100
0010
0010
,
0100
0010
1000
0001
,
0020
0030
0002
0003
,
0200
0300
0020
0030
,
1000
0001
0100
0001
,
1000
0010
1000
0010
,
0200
0300
0020
0030
,
2000
3000
0002
0003
,
1000
0001
0100
0001
,
0020
0000
0000
0030
,
0001
0000
0001
0000
,
1000
1000
0100
0000
,
1000
0000
0010
0000
,
0100
0010
1000
0001
,
0010
0000
0100
0000
,
0010
0001
0100
0010
,
0100
0000
0001
0000
,
1000
0000
0001
0000
,
1001
0000
0010
0000
,
0100
0010
1000
0100
,
2000
3000
0001
0001
,
0200
0300
0010
0010
,
0100
0000
0001
0000
,
1000
1000
0010
0000
,
0100
0001
0010
0001
,
0100
0010
1000
0100
,
0020
0000
0000
0030
,
0002
0000
0000
0003
,
0200
0000
0000
0300
,
0020
0000
0000
0030
,
2000
0000
0000
3000
,
0002
0000
0000
0003
,
2000
0000
0000
3000
,
0000
0000
1001
0000
,
1001
0001
0001
0000
,
1000
1000
1000
0000
,
0010
0000
0100
0000
,
0001
0000
1000
0000
,
0100
0100
0100
0000
,
1000
1000
1000
0000
,
0010
0000
0100
0000
,
0001
0000
0010
0000
,
0100
0100
0100
0000
,
1000
1000
1000
0000
,
0010
0000
0100
0000
,
0010
0000
1000
0000
,
0001
0001
0001
0000
,
0010
0010
0010
0000
,
0010
0000
0001
0000
,
0100
0000
0010
0000
,
2020
0000
0000
0000
,
3030
0000
0000
1000
,
1000
0000
0000
0000
,
0000
0000
0000
0000
,
2002
0000
3003
0000
,
0202
0000
0303
0000
,
2020
0000
3030
0000
,
0000
2002
0000
0000
,
3003
0000
0000
0000
;

//---------------dance-single - ----------------
#NOTES:
     dance-single:
     :
     Beginner:
     1:
     0.098,0.164,0.022,0.030,0.000:
0000
0000
0000
0000
,
0000
0000
0000
0000
,
0010
0000
0000
0000
,
1000
0000
1000
0000
,
1000
0000
0000
0000
,
0001
0000
0001
0000
,
0100
0000
0000
0000
,
0010
0000
0010
0000
,
0010
0000
0000
0000
,
1000
0000
1000
0000
,
0001
0000
0000
0000
,
1000
0000
0010
0010
,
0010
0000
0000
0000
,
0100
0000
0000
0000
,
0010
0000
0000
0000
,
1000
0000
0001
0000
,
0100
0000
0000
0000
,
0010
0000
0000
0000
,
1000
0000
0000
0000
,
1000
0000
0001
0001
,
0100
0000
0000
0000
,
0010
0000
0000
0000
,
1000
0000
0000
0000
,
0010
0000
0000
0000
,
0100
0000
0000
0000
,
0000
0000
0000
0000
,
0001
0000
0001
0000
,
0002
0000
0003
0000
,
1000
0000
0000
0000
,
0000
0000
0000
0000
,
0010
0000
0010
0000
,
0020
0000
0000
0030
,
0000
0000
0000
0000
,
0000
0000
0000
0000
,
0100
0000
0100
0000
,
0200
0000
0000
0300
,
0010
0000
0010
0000
,
1000
0000
1000
0000
,
0001
0000
0001
0000
,
0002
0000
0000
0003
,
1000
0000
0001
0000
,
0100
0000
0010
0000
,
1001
0000
0000
0000
,
0000
0000
0000
0000
,
0100
0000
0000
0000
,
0000
0000
0000
0000
,
0010
0000
0000
0000
,
0000
0000
0000
0000
,
1000
0000
0000
0000
,
0000
0000
0001
0000
,
0001
0000
0000
0000
,
1000
0000
0000
0000
,
0100
0000
0000
0000
,
1000
0000
0000
0000
,
0010
0000
0000
0000
,
0100
0000
0000
0000
,
0001
0000
0001
0000
,
0001
0000
1000
0000
,
0010
0000
0000
0000
,
1000
0000
0000
0000
,
0100
0000
0100
0000
,
0100
0000
0100
0000
,
1000
0000
0000
0000
,
0010
0000
0000
0000
,
0100
0000
0100
0000
,
0100
0000
0100
0000
,
1001
0000
0000
0000
,
0000
0000
0000
0000
,
0000
0000
0000
0000
,
0000
0000
0000
0000
,
0010
0000
0000
0000
,
0100
0000
0000
0000
,
0001
0000
0000
0000
,
0000
1001
0000
0000
;
