#TITLE:He Has No Face;
#SUBTITLE:;
#ARTIST:Skaven;
#TITLETRANSLIT:;
#SUBTITLETRANSLIT:;
#ARTISTTRANSLIT:;
#CREDIT:348;
#BANNER:He Has No Face Banner.png;
#BACKGROUND:He Has No Face Background.png;
#LYRICSPATH:;
#CDTITLE:;
#MUSIC:He Has No Face.mp3;
#OFFSET:-0.035;
#SAMPLESTART:35.889;
#SAMPLELENGTH:15.000;
#SELECTABLE:YES;
#BPMS:0.000=53.549,16.000=107.096,144.000=53.546,152.000=107.096;
#STOPS:;
#BGCHANGES:;

//---------------dance-single - ----------------
#NOTES:
     dance-single:
     :
     Beginner:
     1:
     0.072,0.095,0.000,0.000,0.000: // measure 1
0000
0000
0000
0000
,  // measure 2
0000
0000
0000
0000
,  // measure 3
0000
0000
0000
0000
,  // measure 4
0000
0000
0000
0000
,  // measure 5
1000
0000
0000
0000
,  // measure 6
1000
0000
0000
0000
,  // measure 7
0001
0000
0000
0000
,  // measure 8
0001
0000
0000
0000
,  // measure 9
1000
0000
0000
0000
,  // measure 10
1000
0000
0000
0000
,  // measure 11
0001
0000
0000
0000
,  // measure 12
0001
0000
0000
0000
,  // measure 13
1000
0000
1000
0000
,  // measure 14
1000
0000
0000
0000
,  // measure 15
0100
0000
0100
0000
,  // measure 16
0100
0000
0000
0000
,  // measure 17
0010
0000
0010
0000
,  // measure 18
0010
0000
0000
0000
,  // measure 19
0001
0000
0001
0000
,  // measure 20
0001
0000
0000
0000
,  // measure 21
1000
0000
0100
0000
,  // measure 22
1000
0000
0000
0000
,  // measure 23
0001
0000
0010
0000
,  // measure 24
0001
0000
0000
0000
,  // measure 25
0100
0000
0001
0000
,  // measure 26
0100
0000
0000
0000
,  // measure 27
0010
0000
1000
0000
,  // measure 28
0010
0000
0000
0000
,  // measure 29
1000
1000
0000
0000
,  // measure 30
0010
0010
0000
0000
,  // measure 31
0100
0100
0000
0000
,  // measure 32
0001
0001
0000
0000
,  // measure 33
1000
0000
0100
0000
,  // measure 34
1000
0000
0100
0000
,  // measure 35
0010
0000
0001
0000
,  // measure 36
0010
0000
0001
0000
,  // measure 37
1000
0000
0001
0000
,  // measure 38
0100
0000
0010
0000
,  // measure 39
1000
0000
0000
0000
,  // measure 40
0001
0000
0000
0000
,  // measure 41
0010
0000
0000
0000
,  // measure 42
0100
0000
0000
0000
,  // measure 43
1000
0000
0000
0000
,  // measure 44
0100
0000
0000
0000
,  // measure 45
0010
0000
0000
0000
,  // measure 46
0001
0000
0000
0000
,  // measure 47
1000
0000
0000
0000
;

//---------------dance-single - ----------------
#NOTES:
     dance-single:
     :
     Easy:
     3:
     0.210,0.250,0.157,0.157,0.000: // measure 1
0000
0000
0000
0000
,  // measure 2
0000
0000
0000
0000
,  // measure 3
0000
0000
0000
0000
,  // measure 4
0000
0000
0000
0000
,  // measure 5
1000
1000
1000
0000
,  // measure 6
0001
0001
0001
0000
,  // measure 7
0100
0100
0100
0000
,  // measure 8
0010
0010
0010
0000
,  // measure 9
1000
1001
1000
0001
,  // measure 10
0100
0110
0010
0100
,  // measure 11
0001
1001
0001
0001
,  // measure 12
0100
0110
1000
1000
,  // measure 13
0002
1003
1000
0000
,  // measure 14
0020
0130
0100
0000
,  // measure 15
0200
0310
0010
0000
,  // measure 16
2000
3001
0001
0000
,  // measure 17
1000
0010
2000
3000
,  // measure 18
0001
0100
0002
0003
,  // measure 19
0200
0300
0020
0030
,  // measure 20
1001
0110
0000
0110
,  // measure 21
1001
0001
0010
0000
,  // measure 22
1100
0010
0001
0000
,  // measure 23
0110
1000
0001
0000
,  // measure 24
0011
1000
0100
0000
,  // measure 25
1000
0010
0100
0001
,  // measure 26
1000
0010
0100
0001
,  // measure 27
2000
3100
0020
0031
,  // measure 28
1000
0011
1100
0001
,  // measure 29
1000
1000
0001
0000
,  // measure 30
1000
1000
0001
0000
,  // measure 31
0100
0100
0010
0000
,  // measure 32
0100
0100
0010
0000
,  // measure 33
1000
0101
0001
1010
,  // measure 34
0001
1000
1000
0001
,  // measure 35
1000
0100
2000
3001
,  // measure 36
0010
0001
0200
0310
,  // measure 37
0002
0003
2000
3000
,  // measure 38
0200
0300
0020
0030
,  // measure 39
0001
0001
1000
1000
,  // measure 40
0010
0010
0100
0100
,  // measure 41
0001
2000
3010
1000
,  // measure 42
0001
0200
0301
0010
,  // measure 43
0001
0011
0010
0000
,  // measure 44
0100
1100
1000
0000
,  // measure 45
0001
0101
0100
0000
,  // measure 46
0010
1010
1000
0000
,  // measure 47
0200
0000
0300
0000
;

//---------------dance-single - ----------------
#NOTES:
     dance-single:
     :
     Medium:
     5:
     0.277,0.269,0.173,0.149,0.000: // measure 1
0000
0000
0000
0000
,  // measure 2
0000
0000
0000
0000
,  // measure 3
0000
0000
0000
0000
,  // measure 4
0000
0000
0000
0000
,  // measure 5
1000
0001
0001
1100
,  // measure 6
0001
0000
1000
0000
0001
0010
0001
0000
,  // measure 7
0100
0000
0001
0100
1000
0100
0001
0000
,  // measure 8
0011
1000
0010
0110
,  // measure 9
1000
0000
1000
0000
0001
0010
0001
0000
,  // measure 10
1000
0000
1000
0000
0010
0100
0010
0000
,  // measure 11
1000
0000
1000
0000
0100
1000
0100
0000
,  // measure 12
1000
0001
0100
0110
,  // measure 13
0001
0000
1000
0100
1000
0000
0001
0000
,  // measure 14
2000
0000
0001
3010
,  // measure 15
0001
0000
0100
0000
0010
1000
0010
0000
,  // measure 16
1000
0011
1100
0001
,  // measure 17
0200
0000
0320
0000
,  // measure 18
1030
0100
0001
0100
,  // measure 19
2000
0000
3001
0000
0001
0010
0100
0000
,  // measure 20
0010
1001
0100
1001
,  // measure 21
0100
0000
0001
0010
0100
0000
1000
0100
,  // measure 22
0020
0031
0002
1003
,  // measure 23
0001
0000
1000
0001
1000
0000
0010
0000
,  // measure 24
1000
0000
0101
0000
1000
0001
0100
0000
,  // measure 25
0001
0110
0000
0110
,  // measure 26
1000
0001
0200
0301
,  // measure 27
0001
0000
1000
0000
0001
0010
0001
0000
,  // measure 28
1000
0000
0100
0000
0010
0001
0010
0000
,  // measure 29
0001
0000
1000
0100
0010
0000
0001
0000
,  // measure 30
1000
0000
0010
0100
0001
0000
1100
0000
,  // measure 31
0002
0000
0013
0100
1000
0000
0001
0000
,  // measure 32
2000
3010
0200
0301
,  // measure 33
1000
0110
0001
0110
,  // measure 34
1000
0100
1000
0100
2000
0000
3001
0000
,  // measure 35
0010
0000
0001
1000
0001
0000
0010
0000
,  // measure 36
0001
0000
1000
0010
0100
0000
0001
0000
,  // measure 37
2000
3100
0020
0031
,  // measure 38
2000
3001
0020
0130
,  // measure 39
1000
0000
0100
0000
1000
0100
0010
0001
,  // measure 40
0010
0000
0001
0000
1000
0100
1000
0010
,  // measure 41
1000
0000
0001
0000
0010
0001
0010
0001
,  // measure 42
0010
0002
1003
1001
,  // measure 43
1000
0000
1100
0000
0001
0010
0001
0000
,  // measure 44
1000
0000
0011
0000
0100
0010
0100
0000
,  // measure 45
0010
0000
0101
0000
1000
0100
1000
0000
,  // measure 46
0001
1000
0110
1001
,  // measure 47
0220
0000
0330
0000
;

//---------------dance-single - ----------------
#NOTES:
     dance-single:
     :
     Hard:
     7:
     0.392,0.365,0.347,0.223,0.054: // measure 1
0000
0000
0000
0000
,  // measure 2
0000
0000
0000
0000
,  // measure 3
0000
0000
0000
0000
,  // measure 4
0000
0000
0000
0000
,  // measure 5
1010
0000
0101
0000
1000
0100
0001
0100
,  // measure 6
1000
0000
0110
0000
0001
1000
0001
0000
,  // measure 7
1001
0000
0001
0010
0100
0010
1000
0010
,  // measure 8
0002
0000
1003
0000
1000
0100
0010
0000
,  // measure 9
1001
0000
0000
0000
0110
0000
0000
0000
0001
0000
0010
0000
1000
0000
0000
0010
,  // measure 10
0001
1000
0100
0000
2000
0000
3001
0000
,  // measure 11
0110
0000
0000
0000
1001
0000
0000
0000
0100
0000
0001
0000
0010
0000
0000
0010
,  // measure 12
0001
1000
0100
0000
0020
0000
0130
0000
,  // measure 13
1000
0100
0011
0000
0001
1000
0101
0000
,  // measure 14
1000
0100
0001
1000
0010
0001
1000
0000
,  // measure 15
0001
1000
1100
0000
0010
0100
0011
0000
,  // measure 16
1001
0000
0000
1000
0100
0000
0010
0000
0100
0000
1000
0000
0100
0000
0000
0000
,  // measure 17
2010
3001
1002
0103
,  // measure 18
1000
0100
0002
0000
1003
0100
0002
0000
,  // measure 19
1003
0100
0001
0100
1000
0010
0001
0010
,  // measure 20
1000
0000
0000
0000
0110
0000
0000
0000
0001
1000
0000
0001
1000
0000
0000
0000
,  // measure 21
0001
0010
1000
0100
0001
1000
0002
0000
,  // measure 22
1003
0100
0010
0001
1100
0000
0101
0000
,  // measure 23
1000
0100
0001
0010
1000
0001
0200
0000
,  // measure 24
0302
0000
0013
1000
0020
0000
0031
0000
,  // measure 25
1010
0000
0000
0000
0011
0000
0000
1000
0100
0000
0001
0000
0100
0000
0000
0000
,  // measure 26
1000
0100
0010
1000
0010
0001
1000
0001
,  // measure 27
0100
0010
1100
0000
0001
1000
0011
0000
,  // measure 28
1010
0101
0110
1001
,  // measure 29
0001
0010
0001
0100
0010
1000
0200
0000
,  // measure 30
1300
0100
0010
0001
0100
0010
2000
0000
,  // measure 31
3001
0100
1000
0010
1000
0100
0002
0000
,  // measure 32
1003
0100
0001
0100
1000
0001
1001
0000
,  // measure 33
0110
0000
0000
1000
0100
0000
1000
0000
0002
0000
0000
0013
0001
0000
0100
0000
,  // measure 34
0010
1000
0001
1000
0010
0000
1001
0000
,  // measure 35
0001
0100
1010
0000
1000
0010
0101
0000
,  // measure 36
1000
0000
0100
0000
0010
0000
0001
0000
1000
0000
0000
0001
0010
0000
0100
0000
,  // measure 37
2000
0100
3010
0000
0002
1000
0103
0000
,  // measure 38
1020
1000
0000
1030
0200
0001
0010
0301
,  // measure 39
0001
2002
0000
0003
3001
0010
0001
0100
,  // measure 40
0020
2000
0000
3030
1000
0010
0001
0010
,  // measure 41
1000
0001
0110
0000
0001
1000
0110
0000
,  // measure 42
0001
0000
1000
0000
0100
0000
0010
0000
0100
1000
0000
0001
0010
0000
0000
0000
,  // measure 43
1001
0000
0000
0100
0001
0000
0000
0000
1000
0000
0001
0000
1010
0000
0000
0001
,  // measure 44
0010
0100
1100
0000
0011
0000
1001
0000
,  // measure 45
2000
0000
3020
0000
0130
0001
0100
0000
,  // measure 46
0001
0010
1000
0010
0001
0000
1001
0000
,  // measure 47
0220
0000
0330
0000
;

//---------------dance-single - ----------------
#NOTES:
     dance-single:
     :
     Challenge:
     9:
     0.603,0.595,0.479,0.281,0.500: // measure 1
0000
0000
0000
0000
,  // measure 2
0000
0000
0000
0000
,  // measure 3
0000
0000
0000
0000
,  // measure 4
0000
0000
0000
0000
,  // measure 5
1001
0000
1001
0000
0001
0010
0001
0000
1000
0000
0001
0010
0000
0100
1000
0000
,  // measure 6
0011
0000
0011
0000
2000
0000
3100
0000
0010
0001
0010
1000
0010
0000
0001
0000
,  // measure 7
0110
0000
0110
0000
0001
0010
1000
0010
0001
0100
1000
0100
0001
0010
0100
1000
,  // measure 8
1100
0000
1100
0000
0002
0000
1000
0000
1003
0200
0000
0310
0002
0000
0000
0000
,  // measure 9
1003
0000
1001
0000
1000
0100
0000
0000
0010
0000
0011
0000
0001
1000
0000
0001
,  // measure 10
1000
0000
1010
0000
0001
0010
0000
0010
0001
0000
2000
0000
0100
0000
3010
0000
,  // measure 11
0101
0000
0101
0000
1000
0100
1000
0000
0002
0000
0010
0000
0103
0000
0000
1000
,  // measure 12
0100
0000
1100
0000
0001
0000
0100
0000
0001
0010
0100
1000
0001
0000
0000
1000
,  // measure 13
0200
0000
1000
0000
0010
0000
0301
0000
0020
0000
0031
0000
1001
0000
0000
0001
,  // measure 14
0010
0000
0001
0000
1000
0000
0100
0000
1000
0001
1000
0000
0011
0000
0000
1000
,  // measure 15
0200
0000
0310
0000
0001
0010
0001
0000
1000
0000
0001
0000
1100
0000
0000
0001
,  // measure 16
2000
0000
0100
0000
0010
0000
3001
0000
1000
0100
0010
0100
1000
0000
0000
0000
,  // measure 17
1010
0000
0001
0010
0002
0000
0003
0000
1100
0000
0010
0100
0020
0000
0030
0000
,  // measure 18
0101
0000
1000
0001
0010
0001
1000
0000
0100
0000
0010
0000
0011
0000
0000
0000
,  // measure 19
1001
0000
0100
0001
1000
0001
0100
0000
0110
0000
0001
1000
0010
1000
0001
0000
,  // measure 20
1000
0000
0110
0000
0001
0000
0110
0000
1000
0010
0001
0010
1000
0000
0000
0001
,  // measure 21
0010
0000
0001
0100
0010
1000
0200
0000
1300
0000
0001
1000
0100
0010
0002
0000
,  // measure 22
1003
0000
1100
0000
0001
0000
0011
0000
1000
0000
0001
0000
1001
0000
0000
1000
,  // measure 23
0100
0000
0011
0000
1000
0100
0010
0000
0101
0000
0001
0000
1000
0001
0100
0000
,  // measure 24
0002
0000
0000
0000
0100
0000
0100
0000
0100
0000
1003
0001
0000
1001
0000
0000
,  // measure 25
0011
0000
1000
0100
1000
0000
0000
0000
0101
0000
1000
0010
1000
0000
0000
0000
,  // measure 26
0110
0000
0001
0010
0001
0000
2000
0000
3010
0000
0100
0001
0100
0000
0010
0000
,  // measure 27
1000
0100
0011
0000
0001
0010
1100
0000
,  // measure 28
0001
1000
0100
0000
0010
0001
0200
0000
0010
0000
0310
0000
1001
0000
0000
0000
,  // measure 29
0001
0010
1000
0010
0001
0010
0100
1000
0001
1000
0100
0010
0002
0000
0100
0000
,  // measure 30
1003
0100
0010
0100
1000
0001
0100
1000
0100
0001
1000
0001
1000
0020
0000
0000
,  // measure 31
1030
0100
0001
1000
0010
0001
1000
0001
1000
0001
0100
0010
0200
0000
0010
0000
,  // measure 32
0301
0010
0001
0100
0010
1000
0100
1000
0001
0100
0010
0100
0001
0000
1001
0000
,  // measure 33
1000
0000
0100
1000
0200
0000
0310
0000
0001
0000
0010
0001
0020
0000
0130
0000
,  // measure 34
1000
0100
0010
0001
1001
0000
0110
0000
,  // measure 35
0001
0010
0100
0010
0001
1000
0100
0010
0100
1000
0001
0100
0020
0000
0130
0000
,  // measure 36
0100
0001
1000
0001
0100
0010
1000
0010
0200
0000
0000
0301
1000
0000
0110
0000
,  // measure 37
1002
0000
0100
0100
0100
0000
0000
0000
2003
0000
0100
0000
0010
0000
3001
0000
,  // measure 38
0021
0000
0100
0000
0000
0000
0130
0000
0210
0000
1000
0000
1000
1000
1300
0000
,  // measure 39
1100
0000
1100
0000
0001
0010
1000
0010
0001
0100
0001
0100
0001
0000
1000
0000
,  // measure 40
0011
0000
0011
0000
1000
0100
0010
0100
1000
0010
0100
0001
1000
0000
0001
0000
,  // measure 41
0110
0000
1001
0000
0001
0010
0001
1000
0001
0100
0010
1000
0001
0000
0100
0000
,  // measure 42
0110
0000
1001
0000
0001
1000
0010
0100
0010
0200
0000
0301
2000
0000
0000
0000
,  // measure 43
3001
0000
0000
0000
0011
0000
0000
0100
0001
0000
1000
0000
1010
0000
0000
0001
,  // measure 44
1000
0000
0100
0000
1000
0000
0101
0000
1000
0100
1000
0000
1010
0000
0000
0001
,  // measure 45
1000
0000
0001
0000
1000
0010
1000
0000
0001
0100
0001
0000
1001
0000
0000
0001
,  // measure 46
0020
0000
0031
0000
2000
0000
3100
0000
1000
0100
0001
0100
1000
0000
0000
0000
,  // measure 47
2002
0000
3003
0000
;
