#TITLE:Gene Gadget;
#SUBTITLE:;
#ARTIST:Richard Jacques;
#TITLETRANSLIT:;
#SUBTITLETRANSLIT:;
#ARTISTTRANSLIT:;
#CREDIT:;
#BANNER:gene.bn.png;
#BACKGROUND:gene.bg.png;
#LYRICSPATH:;
#CDTITLE:;
#MUSIC:Gene Gadget 2.mp3;
#OFFSET:0.000;
#SAMPLESTART:37.140;
#SAMPLELENGTH:12.000;
#SELECTABLE:YES;
#BPMS:0.000=140.040;
#STOPS:;
#BGCHANGES:;

//---------------dance-single - Copied from----------------
#NOTES:
     dance-single:
     Copied from:
     Challenge:
     10:
     0.572,0.872,0.267,0.341,0.274:
0000
0000
0000
0000
,
0000
0000
0000
0000
,
1000
0000
0100
0000
0010
0000
0001
0010
,
0001
1000
0001
1001
,
1000
0001
1000
0000
0001
0000
0100
0100
,
0100
0000
0010
0000
1000
0000
1000
0010
,
1000
0001
0010
0100
0000
1000
0010
0100
,
0000
0001
0100
0010
0100
0010
1000
0001
,
0000
1000
0010
1000
0000
0001
0010
0001
,
0000
1000
0100
0010
0001
0010
0100
1000
,
0000
0001
0100
0010
0000
1000
0100
0010
,
0000
0001
0010
0100
1000
0100
0010
0002
,
2000
0000
0000
0000
,
0000
0000
3003
0110
,
1001
2002
0000
0000
0000
0003
0000
0000
,
0010
0000
0000
0010
0000
0000
3020
0000
0000
0000
0000
0000
0130
0000
0001
0000
,
1000
1002
0000
0000
0000
0000
0000
0000
,
0010
0000
0000
0010
0000
0000
0023
0000
0000
0000
0000
0000
0031
0000
0100
0000
,
0010
2000
0000
3001
0000
0010
1000
0001
,
0020
0000
0000
0230
0000
0000
2300
0000
0000
0000
3001
0000
1100
0000
0010
0000
,
0100
0002
0000
2003
0000
0000
3100
0010
,
0011
0000
0000
1001
0000
0000
1010
0000
0000
0000
0010
0000
0100
0000
0000
0000
,
1001
0000
1000
0000
0001
0000
0001
1000
0000
1000
0001
0000
0001
0000
0010
0000
,
0200
0000
0000
2300
0000
0000
3020
0000
0000
0230
0000
0000
0302
0000
0000
0000
,
0013
0000
0001
0000
0100
0000
0010
1000
0000
1000
0100
0000
0010
0000
0002
0000
,
0203
0000
0000
0320
0000
0000
2030
0000
0000
3200
0000
0000
0320
0000
0000
0000
,
0031
0010
0001
0000
0100
0000
0010
1000
0100
0000
0010
0000
0001
0000
0100
0000
,
2000
0000
0000
3200
0000
0000
0302
0000
0000
0023
0000
0000
0130
0000
0000
0000
,
2100
0000
0000
0000
3010
0000
0100
0001
0000
0000
0010
0000
0100
0000
0000
0000
,
1100
0000
0000
1001
0000
0000
0110
0000
0000
0000
2000
0000
0010
0000
3000
0000
,
0110
0000
0100
0000
0010
0000
0010
1000
0000
1000
0100
0000
0010
0000
0001
0000
,
0100
0000
0010
1000
0000
0001
0100
0000
0010
0000
1000
0000
0001
0000
0000
0000
,
1001
0000
0000
1000
0000
0000
0001
0000
0000
0100
0000
0000
1000
0000
0000
0000
,
0100
0000
0010
1000
0000
1000
0100
0000
0010
0000
0001
0000
0100
0000
0000
0000
,
0010
1000
0100
0000
0010
0000
0001
0100
0010
0000
0100
0000
1001
0000
0000
0000
,
1001
0000
0000
0110
0000
0000
1002
0000
0000
0000
1000
0000
1003
0000
0000
0000
,
1000
0000
0100
0000
0010
0000
0001
0010
0000
0010
0001
0000
1000
0000
0100
0000
,
0020
0000
0000
0032
0000
0000
0203
0000
0000
0320
0000
0000
1030
0000
0000
0000
,
1001
0000
0010
0000
1000
0000
0001
1000
,
0010
0000
0010
0000
1000
0000
1000
0001
,
0100
0000
0010
0000
1000
0100
0001
0100
,
1000
0001
0010
0100
,
1001
0000
0110
0000
0001
0100
1000
0100
,
0001
0000
0010
0000
0100
0000
0001
0100
,
0010
0000
0010
0001
1000
0000
0010
0100
,
0001
0000
1000
0100
0010
0001
0010
0100
,
1000
0002
0000
0000
0100
0000
0010
0000
,
2003
0000
0010
0000
0001
0000
3100
0010
,
0001
0200
0000
0000
0010
0000
1000
0000
,
0001
0000
1000
0000
0301
0010
0100
0010
,
0001
0100
0000
0000
0010
1000
0100
1000
,
0010
0000
0110
0000
1001
0000
0001
0100
,
0102
0000
0010
0000
1003
0000
1000
0100
,
2100
0000
0010
3001
,
0001
1002
0000
0000
0000
0000
0103
0010
,
1000
0000
1000
0100
0010
0000
0001
1000
,
0001
0100
0020
0000
0000
0000
0130
0001
,
0010
0000
0001
0010
0100
1000
0100
0001
,
0100
2000
0000
0000
0000
0000
0001
0001
,
3001
0000
0002
0000
0010
0000
0100
0100
,
0103
0000
0010
0000
0100
0000
0001
2000
,
0001
0010
3020
0100
,
0100
0000
0130
0000
0001
0000
0000
0010
0000
0000
0100
0000
0000
0000
1000
0000
,
0001
0000
0000
0000
0100
0000
0000
0010
0000
0000
1000
0000
0100
0000
0010
0000
,
0001
0000
0000
0000
0100
0000
0000
0010
0000
0000
0001
0000
0000
0000
0010
0000
,
1000
0000
0001
0000
0010
0000
0100
1000
,
0001
0000
0000
0000
0010
0000
0000
0001
0000
0000
0100
0000
0000
0000
0010
0000
,
1000
0000
0000
0000
0100
0000
0000
0010
0000
0000
0001
0000
0010
0000
0100
0000
,
1000
0000
0000
0000
0010
0000
0000
0100
0000
0000
0001
0000
0000
0000
0001
0000
,
0010
0000
0010
0000
0001
0010
0100
1000
,
0010
0000
0100
0000
0001
0000
0100
0010
0000
0010
0100
0000
0001
0000
0010
0000
,
0100
0000
0000
1000
0000
0000
0010
0000
0000
0100
0000
0000
0001
0000
0000
0000
,
0001
0000
0011
0000
0010
0000
0100
1000
0000
1000
0010
0000
0100
0000
0101
0000
,
0012
0000
0000
1000
0000
0000
0103
0000
0000
0010
0000
0000
1000
0000
0000
0000
,
1000
0000
1100
0000
1000
0000
1000
0001
0000
0001
0010
0000
0010
0000
0100
0000
,
2100
0000
0000
0010
0000
0000
3001
0000
0000
0010
0000
0000
0100
0000
0000
0000
,
1000
0100
1000
0000
0010
0000
0100
0001
0010
0000
0100
0000
1000
0000
0010
0000
,
1020
0000
0000
0001
0000
0000
1000
0000
0000
0130
0000
0000
0001
0010
0100
1000
,
0001
0000
0010
0000
0100
0000
1000
0010
0000
0010
1000
0000
0100
0000
0010
0000
,
0001
0100
0000
0100
0001
0000
0100
0000
0000
0010
0000
0000
1000
0000
0000
0000
,
1000
0001
1000
0000
0010
0000
0100
0010
0001
0000
0010
1000
0100
0000
0000
0000
,
1001
0000
0000
0110
0000
0000
0011
0000
0000
0100
0000
0000
1001
0000
0000
0000
,
1000
0000
2001
0000
0010
0000
0000
0000
0100
0000
0000
0010
0000
0000
0001
0000
,
3001
0000
0000
0100
0000
0000
0010
0000
0000
0000
1000
0000
0001
0000
0000
0000
,
1001
0000
0001
0010
0100
1000
0010
0100
0000
0000
0100
0010
0100
0001
0010
0100
,
1000
0000
1000
0100
0010
0001
0100
0010
1000
0001
0010
0100
1000
0010
0100
0001
,
0010
0200
0000
0000
0000
0000
0000
0000
,
0300
0000
0000
0000
;

//---------------dance-single - Copied from----------------
#NOTES:
     dance-single:
     Copied from:
     Hard:
     8:
     0.457,0.523,0.114,0.167,0.013: // measure 1
0000
0000
0000
0000
,  // measure 2
0000
0000
0000
0000
,  // measure 3
0001
0000
0001
0010
0001
0000
1000
0000
,  // measure 4
1000
0000
1000
0010
1000
0000
0001
1000
,  // measure 5
0001
0000
1000
0001
1000
0000
0010
0100
,  // measure 6
0010
1000
0001
1000
0002
0000
1000
1000
,  // measure 7
1003
0000
1000
0100
0010
0000
0001
0000
,  // measure 8
0001
0000
0001
0100
0010
0000
0010
0100
,  // measure 9
0001
0000
1000
0000
1000
0000
1000
0010
,  // measure 10
0100
0000
0100
0010
1000
0000
0001
1000
,  // measure 11
0001
0000
0010
0100
0010
0000
0001
0010
,  // measure 12
0100
1000
0100
0010
0001
0000
1000
0010
,  // measure 13
0200
0000
0000
0000
,  // measure 14
0000
0000
0000
0000
,  // measure 15
0010
0320
0000
0000
0000
0000
0000
0000
,  // measure 16
1030
0000
0000
1000
0000
0000
2000
0000
0000
0000
0000
0000
0001
0000
0001
0000
,  // measure 17
3002
0000
0000
0000
,  // measure 18
1003
0000
0000
0001
0000
0000
2000
0000
0000
0000
0000
0000
0010
0000
0010
0000
,  // measure 19
3010
0000
0000
1001
0000
0000
0001
0000
,  // measure 20
1000
0000
0000
1000
0000
0000
1000
0000
0000
0000
0000
0000
0010
0000
0100
0000
,  // measure 21
0010
0000
0000
0110
0000
0000
1000
0100
,  // measure 22
0010
0000
0000
0001
0000
0000
2002
0000
0000
0000
0000
0000
3003
0000
0000
0000
,  // measure 23
1000
0100
1000
0000
0001
0100
0001
0000
,  // measure 24
1000
0100
1000
0001
0100
0001
0010
0000
,  // measure 25
0001
0010
0001
0000
1000
0010
1000
0000
,  // measure 26
0001
0010
0001
1000
0010
1000
0100
0000
,  // measure 27
1000
0010
0100
0000
0001
0100
0010
0000
,  // measure 28
1000
0010
0100
0001
0010
0100
1000
0000
,  // measure 29
0001
0010
0100
0000
1000
0010
0100
0000
,  // measure 30
0001
0010
0100
1000
0010
0100
0001
0000
,  // measure 31
2001
3001
0120
0130
,  // measure 32
2100
0000
3010
0000
0102
0100
0013
0000
,  // measure 33
0010
0001
0010
0001
1000
0100
1000
0100
,  // measure 34
0010
0001
0100
0010
1000
0010
1000
0000
,  // measure 35
0001
0011
1000
1020
,  // measure 36
1000
1000
1030
1010
,  // measure 37
0001
0010
0001
0000
1000
0100
1000
0000
,  // measure 38
0001
0010
0100
1000
,  // measure 39
0002
0000
1000
0000
,  // measure 40
1003
1000
0001
0100
,  // measure 41
0020
0000
0100
0000
,  // measure 42
0130
0100
0010
1000
,  // measure 43
0001
1000
0001
0000
1000
0010
1000
0000
,  // measure 44
0001
0001
0001
0000
1000
0100
0010
0000
,  // measure 45
0001
0010
0100
1000
0100
0010
0001
0000
,  // measure 46
1000
0100
0010
0001
0010
0100
1000
0000
,  // measure 47
0001
0002
0000
0000
0000
0000
1000
1000
,  // measure 48
1003
0000
1000
0000
1000
0000
0010
0100
,  // measure 49
0020
0000
0000
0000
0000
0000
1000
1000
,  // measure 50
1030
0000
0100
0000
0010
0000
0001
0001
,  // measure 51
0002
0000
0000
0000
0000
0000
0010
0010
,  // measure 52
0013
0000
0100
0000
1000
0000
0010
0100
,  // measure 53
0010
0000
1000
0000
1000
0000
0001
0010
,  // measure 54
0001
0000
0100
0000
0100
0000
0100
0010
,  // measure 55
1000
0000
1000
0000
1000
0000
1000
0010
,  // measure 56
0100
0000
0010
1000
0100
0000
0010
0001
,  // measure 57
0100
0000
0010
0000
0010
0000
1000
0100
,  // measure 58
0001
0000
0100
0000
0100
0000
0010
0001
,  // measure 59
0010
0000
0100
0000
0100
0000
1000
0010
,  // measure 60
0001
0000
0010
0000
0010
0000
1000
1000
,  // measure 61
2000
0000
3001
0001
,  // measure 62
0011
0001
0101
0101
,  // measure 63
0100
0000
0020
1000
1030
0000
2000
0100
,  // measure 64
3100
0000
0200
1000
1300
0000
0002
0010
,  // measure 65
0013
0000
0010
0001
0010
0000
0200
0010
,  // measure 66
0310
0000
0010
0100
0010
0000
0001
0000
,  // measure 67
1001
0000
1000
0000
1001
0000
1000
0010
,  // measure 68
1000
0000
1000
0100
1000
0000
0001
0010
,  // measure 69
0001
0000
0001
0100
0001
0000
0100
0100
,  // measure 70
0100
0010
0010
0010
,  // measure 71
1001
0000
1000
0100
1000
0000
0001
0100
,  // measure 72
0001
0000
0001
0010
0001
1000
0010
1000
,  // measure 73
0100
0000
0010
0001
0100
0000
0001
0010
,  // measure 74
0001
0100
0001
0000
1000
0100
1000
0010
,  // measure 75
1000
0000
1000
0001
1000
0000
0001
1000
,  // measure 76
0001
0000
0001
0010
0001
1000
0010
1000
,  // measure 77
0001
0010
0001
0000
1000
0100
0001
0000
,  // measure 78
0001
0100
1000
0000
0010
0100
0010
0000
,  // measure 79
0110
0000
0010
0000
0010
1000
0100
0000
,  // measure 80
0100
0000
0100
0010
0001
0000
1000
0010
,  // measure 81
0100
0000
0001
0100
0010
0000
1000
0001
,  // measure 82
1000
0001
0001
0001
,  // measure 83
0001
0010
0001
0000
1000
0100
1000
0000
,  // measure 84
0001
0100
0010
0100
0001
0010
0100
1000
,  // measure 85
0001
0000
0100
0000
0100
0000
0010
1000
,  // measure 86
0001
0010
0001
1000
0010
0100
0010
1000
,  // measure 87
0002
0000
0000
0000
,  // measure 88
0003
0000
0000
0000
;

//---------------dance-single - Copied from----------------
#NOTES:
     dance-single:
     Copied from:
     Medium:
     5:
     0.289,0.405,0.100,0.067,0.000:
0000
0000
0000
0000
,
0000
0000
0000
0000
,
0001
0000
0001
0000
,
1000
0000
1000
0000
,
0010
0010
0010
0000
,
0100
0100
0100
0000
,
0001
1000
0001
0000
,
1000
0001
1000
0000
,
0010
0100
0010
0000
0010
0000
0010
0000
,
1000
0001
1000
0000
1000
0000
1000
0000
,
0001
1000
0001
1000
,
0010
0100
0010
0100
,
0020
0000
0000
0000
,
0000
0000
0000
0000
,
1030
0000
0000
0000
,
1000
0000
0000
0000
,
0001
0000
0000
0000
,
0100
0000
0000
0000
,
0010
0000
0000
0000
,
0100
0000
0000
0000
,
1001
0000
0000
0000
,
1001
0000
0000
0000
,
0001
1000
0001
0000
0001
0000
0001
0000
,
1000
1000
0001
0001
,
0100
0000
0100
0000
0010
0100
0010
0000
,
1000
0001
0001
1000
,
0001
1000
0001
0000
1000
0000
1000
0000
,
1000
0001
1000
0000
0010
0000
0010
0000
,
0100
0100
0110
0110
,
1001
1001
0001
1000
,
0001
1000
0001
1000
0001
0000
0010
0000
,
0010
0100
0010
0100
0010
0000
0010
0000
,
0110
0110
1001
1001
,
1000
0001
1000
0001
,
1000
1000
1000
0000
0001
0000
0001
0000
,
0001
0010
0010
0010
,
1000
0001
0100
0010
,
1000
0100
0010
0001
,
2001
0000
0000
0000
,
3002
0000
0000
0000
,
2003
0000
0000
0000
,
3002
0000
0000
0000
,
0203
0000
0000
0000
,
0320
0000
0000
0000
,
2030
0000
0001
0000
,
3002
0000
1000
0000
,
1003
0000
0000
0001
,
0001
0000
0000
1000
,
1000
0000
0000
0001
,
0001
0000
0000
0100
,
0100
0000
0000
0010
,
0010
0000
0000
0000
0000
0000
1000
0001
,
1000
0000
0000
0000
0000
0000
0001
1000
,
0001
0000
0100
0000
,
1001
0000
0000
0010
,
0100
0000
0000
0100
,
0010
0000
0000
0000
0000
0000
1000
0001
,
1000
0000
0000
0000
0000
0000
0001
1000
,
0001
0000
0000
0001
,
0001
0000
0010
1000
,
1000
0000
0000
0000
0000
0000
0001
1000
,
0001
0000
0010
0010
,
0100
0000
0000
0000
0000
0000
0100
0010
,
0100
0000
0000
0000
0000
0000
0010
0100
,
0010
0000
1000
0001
,
1000
0000
0001
0001
,
0001
0000
0000
0000
0000
0000
1000
1000
,
1000
0000
0000
0000
0000
0000
1000
0001
,
1000
0000
0000
0110
,
0110
0000
0100
0100
,
1001
0000
0001
0000
0001
1000
0001
0000
,
1000
0001
1000
0001
1000
0000
0010
0000
,
0100
0010
0100
0000
0010
0000
0010
0000
,
0100
0010
0100
0010
0100
0000
0010
0000
,
1000
0000
1000
0000
0001
0000
0001
1000
,
0001
0000
1000
0001
1000
0000
0001
0001
,
0001
1000
1000
0010
,
0010
0000
0100
0010
0100
0001
1000
0001
,
1000
0000
1000
0001
1000
0000
0001
1000
,
0001
0000
0010
0100
0010
0000
0100
0010
,
0100
0000
1000
0010
1000
0000
0001
0010
,
0001
1000
1000
0001
,
0001
1000
1000
0001
,
0001
0000
1000
0001
1000
0001
1000
0000
,
0010
0100
0010
0100
0001
1000
0001
1000
,
0001
0000
0001
0000
0001
1000
0001
0000
,
2000
0000
3000
0000
;

//---------------dance-single - Copied from Copied f----------------
#NOTES:
     dance-single:
     Copied from Copied f:
     Easy:
     3:
     0.246,0.376,0.100,0.067,0.000:
0000
0000
0000
0000
,
0000
0000
0000
0000
,
0010
0000
0010
0000
,
0100
0000
0100
0000
,
1000
1000
1000
0000
,
0001
0001
0001
0000
,
0010
0100
0010
0000
,
0100
0010
0100
0000
,
1000
1000
1000
1000
,
0100
0100
0100
0100
,
0010
0100
0010
0100
,
1000
0001
1000
0001
,
2000
0000
0000
0000
,
0000
0000
0000
0000
,
3100
0000
0000
0000
,
0100
0000
0000
0000
,
0010
0000
0000
0000
,
0001
0000
0000
0000
,
1000
0000
0000
0000
,
0001
0000
0000
0000
,
0110
0000
0000
0000
,
0110
0000
0000
0000
,
0010
0010
0010
0010
,
0100
0100
0010
0010
,
0001
0001
1000
1000
,
0100
0010
0010
0100
,
0010
0010
0100
0100
,
0100
0100
1000
1000
,
0001
0001
1001
1001
,
0110
0110
0010
0100
,
0010
0010
0010
1000
,
1000
1000
1000
1000
,
1001
1001
0110
0110
,
0100
0010
0100
0010
,
0100
0100
0010
0010
,
0010
1000
1000
1000
,
0100
0010
0001
1000
,
0100
0001
1000
0010
,
0210
0000
0000
0000
,
0320
0000
0000
0000
,
0230
0000
0000
0000
,
0320
0000
0000
0000
,
0032
0000
0000
0000
,
2003
0000
0000
0000
,
3200
0000
0010
0000
,
0320
0000
0100
0000
,
0130
0000
0000
0010
,
0010
0000
0000
0100
,
0100
0000
0000
0010
,
0010
0000
0000
0001
,
0001
0000
0000
1000
,
1000
0000
0000
0100
,
0100
0000
0000
0010
,
0010
0000
0001
0000
,
0110
0000
0000
1000
,
0001
0000
0000
0001
,
1000
0000
0000
0100
,
0100
0000
0000
0010
,
0010
0000
0000
0010
,
0010
0000
1000
0100
,
0100
0000
0000
0010
,
0010
0000
1000
1000
,
0001
0000
0000
0001
,
0001
0000
0000
1000
,
1000
0000
0100
0010
,
0100
0000
0010
0010
,
0010
0000
0000
0100
,
0100
0000
0000
0100
,
0100
0000
0000
1001
,
1001
0000
0001
0001
,
0110
0010
0010
0010
,
0100
0100
0100
1000
,
0001
0001
1000
1000
,
0001
0001
0001
1000
,
0100
0100
0010
0010
,
0010
0100
0100
0010
,
0010
0100
0100
1000
,
1000
0001
0001
0100
,
0100
0100
0100
0010
,
0010
1000
1000
0001
,
0001
0100
0100
0010
,
0010
0100
0100
0010
,
0010
0100
0100
0010
,
0010
0100
0100
0100
,
1000
1000
0010
0010
,
0010
0010
0010
0010
,
0020
0000
0030
0000
;
