#TITLE:Forest Funk;
#ARTIST:Danny Baranowsky;
#CREDIT:A. Michaelangelo;
#BANNER:banner.png;
#BACKGROUND:background.png;
#MUSIC:music.ogg;
#OFFSET:-0.115;
#SAMPLESTART:24.700;
#SAMPLELENGTH:10.000;
#BPMS:0.000=233.956;
#NOTES:dance-single:A. Michaelangelo:Beginner:2::
0000
0000
0000
0000
,
0000
0000
0000
0000
,
0000
0000
0000
0000
,
0000
0000
0000
0000
,
0000
0000
0000
0000
,
0000
0000
0000
0000
,
0000
0000
0000
0000
,
0000
0000
0000
0000
,
1000
0000
0000
0000
,
0001
0000
0000
0000
,
1000
0000
0000
0000
,
0001
0000
0000
0000
,
1000
0000
0000
0000
,
0001
0000
0000
0000
,
0100
0000
0000
0000
,
0010
0000
0000
0000
,
0010
0000
0000
0000
,
1000
0000
1000
0000
,
1000
0000
0000
0000
,
0010
0000
0010
0000
,
0010
0000
0000
0000
,
0100
0000
0100
0000
,
0100
0000
0000
0000
,
0001
0000
0001
0000
,
0001
0000
0000
0000
,
1000
0000
0000
0000
,
0001
0000
0000
0000
,
1000
0000
0000
0000
,
0001
0000
0000
0000
,
1000
0000
0000
0000
,
0010
0000
0000
0000
,
0100
0000
0000
0000
,
0100
0000
0000
0000
,
1000
0000
1000
0000
,
0001
0000
0001
0000
,
1000
0000
1000
0000
,
0001
0000
0001
0000
,
1000
0000
1000
0000
,
1000
0000
1000
0000
,
0010
0000
0100
0000
,
0010
0000
0010
0000
,
0010
0000
0010
0000
,
0010
0000
0010
0000
,
0010
0000
0010
0000
,
1001
0000
0000
0000
,
0000
0000
0000
0000
,
1001
0000
0000
0000
,
0000
0000
0000
0000
,
1000
0000
0001
0000
,
0001
0000
0000
0000
,
1000
0000
0001
0000
,
0001
0000
0000
0000
,
0001
0000
1000
0000
,
1000
0000
0000
0000
,
0001
0000
1000
0000
,
1000
0000
0000
0000
,
1000
0000
1000
0000
,
0001
0000
0000
0000
,
0001
0000
0001
0000
,
1000
0000
0000
0000
,
1000
0000
0001
0000
,
1000
0000
0000
0000
,
0001
0000
1000
0000
,
0001
0000
0000
0000
,
1000
0000
0100
0000
,
0001
0000
0000
0000
,
0001
0000
0100
0000
,
1000
0000
0000
0000
,
1000
0000
0010
0000
,
0001
0000
0000
0000
,
0001
0000
0010
0000
,
1000
0000
0000
0000
,
0010
0000
1000
0000
,
0100
0000
0000
0000
,
0010
0000
0001
0000
,
0100
0000
0000
0000
,
1000
0000
1000
0000
,
1000
0000
0000
0000
,
0001
0000
0001
0000
,
0001
0000
0001
0000
,
0110
0000
0000
0000
,
0000
0000
0000
0000
,
1000
0000
0000
0000
,
0000
0000
0000
0000
,
0001
0000
0000
0000
,
0000
0000
0000
0000
,
1000
0000
0000
0000
,
0000
0000
0000
0000
,
0010
0000
0000
0000
,
0000
0000
0000
0000
,
0100
0000
0000
0000
;
#NOTES:dance-single:A. Michaelangelo:Easy:5::
0000
0000
0000
0000
,
0000
0000
0000
0000
,
0000
0000
0000
0000
,
0000
0000
0000
0000
,
0000
0000
0000
0000
,
0000
0000
0000
0000
,
0000
0000
0000
0000
,
0000
0000
0000
0000
,
2000
0000
0000
0000
,
3001
0000
0000
0000
,
0002
0000
0000
0000
,
1003
0000
0000
0000
,
2000
0000
0000
0000
,
3001
0000
0000
0000
,
2002
0000
0000
0000
,
3003
0000
0000
0000
,
1001
0000
0001
0001
,
1000
0000
1000
0000
0100
0010
0100
0000
,
0100
0000
0001
0100
,
1000
1000
1000
0010
,
0001
0000
1000
0001
,
1000
0000
0001
0000
1000
0100
0001
0000
,
0001
0100
0100
1000
,
1000
0010
1000
0010
,
2000
0000
0000
0010
,
3010
0000
0000
0000
,
0002
0000
0000
0100
,
0103
0000
0000
0000
,
2000
0000
0000
0100
,
3100
0000
0000
0000
,
0002
0000
0000
0100
,
0103
0000
0000
0000
,
0000
0000
1000
0010
,
0100
0000
0001
0000
0001
0100
0001
0000
,
0001
0000
0001
0100
,
0010
1000
0100
0010
,
0001
0000
1000
0100
,
0010
0000
0001
0000
0001
1000
0001
0000
,
0001
0010
0100
1000
,
0100
0010
0001
0000
,
0001
1000
0001
1000
,
0001
1000
0001
1000
,
0001
1000
0001
1000
,
0001
1000
0001
1000
,
1001
0000
0000
0000
0000
0001
1000
0001
,
0000
0000
0000
0000
,
1001
0000
0000
0000
,
0001
0100
1000
0100
,
0001
0000
1000
1000
,
0001
0000
0001
0000
0010
0100
0010
0000
,
0010
0000
1000
0010
,
0001
0001
0001
0100
,
1000
0000
0001
1000
,
0001
0000
1000
0000
0001
0010
1000
0000
,
1000
0010
0010
0001
,
0001
0100
0001
0100
,
0000
0000
0001
0100
,
0010
0000
1000
0000
1000
0010
1000
0000
,
1000
0000
1000
0010
,
0100
0001
0010
0100
,
1000
0000
0001
0010
,
0100
0000
1000
0000
1000
0001
1000
0000
,
1000
0100
0010
0001
,
0010
0100
1000
0000
,
0001
1000
0001
1000
,
0001
1000
0001
1000
,
0010
0100
0010
0100
,
0010
0100
0010
0100
,
0010
1000
0010
1000
,
0010
1000
0010
1000
,
0001
0100
0001
0100
,
0001
0100
0001
0100
,
0001
1000
0001
1000
,
0001
1000
0001
1000
,
0010
0100
0010
0100
,
0010
0100
0010
0100
,
0001
0100
0010
1000
,
0001
0100
0010
1000
,
0001
0100
0010
1000
,
0001
0100
0010
1000
,
0110
0000
0000
0000
,
1001
0000
0000
0000
,
1010
0000
0000
0000
,
0101
0000
0000
0000
,
0110
0000
0000
0000
,
1100
0000
0000
0000
,
0011
0000
0000
0000
,
0110
0000
0000
0000
,
1001
0000
0000
0000
;
#NOTES:dance-single:A. Michaelangelo:Medium:7::
0000
0000
0000
0000
,
0000
0000
0000
0000
,
0000
0000
0000
0000
,
0000
0000
0000
0000
,
0000
0000
0000
0000
,
0000
0000
0000
0000
,
0000
0000
0000
0000
,
0000
0000
0000
0000
,
2000
0000
0000
0000
,
3200
0000
0000
0000
,
0302
0000
0000
0000
,
0023
0000
0000
0000
,
2030
0000
0000
0000
,
3200
0000
0000
0000
,
0302
0000
0000
0000
,
0203
0000
0300
0100
,
1001
0000
0000
0000
1000
0001
0100
0001
,
0010
0010
0010
0000
,
1000
0010
1000
0001
1000
0000
0000
0000
,
0010
0100
0010
1000
0010
0000
0010
0000
,
0010
0000
0000
0000
0010
1000
0100
0010
,
0001
0001
0001
0000
,
0001
0010
1000
0010
0100
0000
0000
0000
,
0100
0001
0100
0001
1000
0000
1000
0000
,
0002
0000
1000
0000
,
0203
0000
0010
0000
,
0302
0000
0010
0000
,
0203
0000
1000
0000
,
0320
0000
0100
0000
,
2030
0000
0100
0000
,
3002
0000
0010
0000
,
2003
0000
0001
0000
,
3001
0000
0000
0000
1000
0100
1000
0010
,
0100
0100
0100
0000
,
0010
1000
0010
0001
0010
0000
0000
0000
,
0010
0100
0010
1000
0100
0000
0100
0000
,
0100
0000
0000
0000
0010
0001
0010
0001
,
1000
1000
1000
0000
,
0100
0001
0100
0001
1000
0000
0000
0000
,
1000
1000
0100
0100
0010
0010
0001
0001
,
1000
0001
1000
0001
0100
0000
0000
0000
,
0100
0010
0100
0010
1000
0000
0000
0000
,
1000
0001
1000
0001
0010
0000
0000
0000
,
0010
0100
0010
0100
0010
0000
0010
0000
,
1001
0000
0000
0000
0000
0001
0100
0001
,
0100
0100
0010
0010
,
1010
0000
0000
0000
0000
0010
1000
0010
,
1000
1000
0001
0001
,
0101
0000
0210
0000
,
1300
0000
0000
0000
,
0201
0000
0000
0320
,
0000
0000
1030
0000
,
0000
0000
2001
0000
,
3100
0000
0000
0000
,
0210
0000
0000
1300
,
0000
0000
0000
0000
,
0000
0000
0102
0000
,
1003
0000
0000
0000
,
0201
0000
0000
1000
,
0000
0000
0310
0000
,
0000
0000
2002
3003
,
0110
0000
0000
0000
,
0220
0000
0330
1001
,
0000
0000
0000
0000
,
1000
0100
0001
0100
1000
0000
0000
0000
,
1000
0100
0001
0100
1000
0000
0000
0000
,
1000
0010
0001
0010
1000
0000
0000
0000
,
1000
0100
0001
0100
1000
0000
0000
0000
,
1000
0100
0010
0100
1000
0000
0000
0000
,
1000
0100
0010
0100
1000
0000
0000
0000
,
0001
0010
0100
0010
0001
0000
0000
0000
,
1000
0100
0010
0100
1000
0000
0000
0000
,
1000
0010
0001
0100
1000
0000
0000
0000
,
1000
0100
0001
0010
1000
0000
0000
0000
,
1000
0100
0001
0010
1000
0000
0000
0000
,
1000
0010
0001
0100
1000
0000
0000
0000
,
1000
0100
1000
0100
1000
0000
0000
0000
,
0001
0100
0001
0100
0001
0000
0000
0000
,
0100
0010
0100
0010
0100
0000
0000
0000
,
1000
0100
0010
0001
1000
0100
0010
0001
,
1001
0000
0000
0000
,
0101
0000
0000
0000
,
1001
0000
0000
0000
,
1100
0000
0000
0000
,
1010
0000
0000
0000
,
0110
0000
0000
0000
,
0011
0000
0000
0000
,
0110
0000
0000
0000
,
2002
0000
0000
0000
,
0000
0000
0000
0000
,
3003
0000
0000
0000
;
#NOTES:dance-single:A. Michaelangelo:Hard:9::
0000
0000
0000
0000
,
0000
0000
0000
0000
,
0000
0000
0000
0000
,
0000
0000
0000
0000
,
0000
0000
0000
0000
,
0000
0000
0000
0000
,
0000
0000
0000
0000
,
0000
0000
0000
0000
,
0020
0000
0000
0000
,
1000
0000
0000
0000
,
0100
0000
0000
0000
,
0001
0000
0000
0000
,
0100
0000
0000
0000
,
1000
0000
0000
0000
,
0100
0000
0000
0000
,
0130
0000
0000
0000
0000
0000
1000
1000
,
1001
0000
0000
0000
0010
0001
0010
0001
,
0010
0000
0100
0000
0010
0100
0000
0100
,
0000
1000
0100
0010
0001
0010
0100
1000
,
1000
0000
0010
0000
0010
0100
0000
0001
,
0000
0001
0100
1000
1000
0000
0100
0000
,
0010
0001
0000
1000
0000
1000
0100
1000
,
0000
0001
0010
1000
0100
0001
0100
1000
,
0010
0000
0100
0000
0001
1000
0000
1000
,
0002
0000
0000
0000
,
0203
0000
0000
0000
,
0320
0000
0000
0000
,
2030
0000
0000
0000
,
3020
0000
0000
0000
,
0230
0000
0000
0000
,
0302
0000
0000
0000
,
2003
0000
0000
0000
,
3000
0000
0010
0000
0010
0100
0010
0100
,
0010
0000
0001
0000
0010
0100
0000
1000
,
0000
1000
0100
0001
0010
1000
0010
0100
,
1000
0000
0001
0000
1000
0001
0000
1000
,
0000
0100
0010
0001
0001
0000
0010
0000
,
0001
0100
0000
0010
0000
0010
0100
0010
,
0000
0010
1000
0100
0010
0001
0001
0000
,
0001
0001
0010
0010
0100
0100
1000
1000
,
0001
0100
0001
1000
0001
0100
0001
1000
,
0010
0100
0010
1000
0010
0100
0010
1000
,
0001
0100
0001
0010
0001
1000
0001
0100
,
0010
1000
0010
0100
0010
1000
0010
0000
,
1001
0000
0000
0000
0000
1000
0001
1000
,
0001
1000
0001
0001
,
1001
0000
0000
0000
0000
1000
0001
1000
,
0001
0010
0100
0010
,
0110
0000
0200
0000
,
0001
0000
0000
0000
,
1000
0000
0000
0010
,
0000
0000
0301
0000
,
0000
0000
1020
0000
,
0100
0000
0000
0000
,
0001
0000
0000
1030
,
0000
0000
0000
0000
,
0000
0000
2000
0000
,
0010
0000
0000
0000
,
0100
0000
0000
0010
,
0000
0000
3100
0000
,
0000
0000
1001
0000
,
1010
0000
0000
0000
,
0101
0000
0000
1100
,
0000
0000
0011
0000
,
1000
0100
0001
0100
1000
0100
0010
0100
,
1000
0100
0001
0100
1000
0100
0010
0100
,
1000
0100
0001
0100
1000
0100
0010
0100
,
1000
0100
0001
0100
1000
0100
0010
0001
,
1000
0010
0100
0001
1000
0100
0010
0001
,
1000
0010
0100
0001
1000
0100
0010
0001
,
1000
0010
0100
0001
1000
0100
0010
0001
,
1000
0010
0100
0001
1000
0010
0100
0001
,
0100
1000
0100
0001
0100
0010
0100
0001
,
0100
1000
0100
0001
0100
0010
0100
0001
,
0100
1000
0100
0001
0100
0010
0100
0001
,
0100
1000
0100
0001
0100
0010
0100
0001
,
0010
0100
0010
0001
0100
0010
0100
0001
,
0010
0100
0010
0001
0100
0010
0100
0001
,
0010
0100
0010
0001
1000
0100
0001
0100
,
1000
0010
0001
0010
1000
0100
0001
0100
,
1001
0000
0000
0100
,
0000
0000
0001
0000
0000
0100
0000
0000
,
1100
0000
0000
0010
,
0000
0000
0001
0000
0000
0010
0000
0000
,
0110
0000
0000
1000
,
0000
0000
0010
0000
0000
0001
0000
0000
,
1100
0000
0000
1000
,
0000
0000
0100
0000
0000
0001
0000
0000
,
2002
0000
0000
0000
,
0000
0000
0000
0000
,
3003
0000
0000
0000
;
