#TITLE:EXEC_HYMM_BATTLESPHERE/.#Tyria extracting;
#SUBTITLE:;
#ARTIST:Kazuki Yanagawa;
#TITLETRANSLIT:;
#SUBTITLETRANSLIT:;
#ARTISTTRANSLIT:;
#GENRE:Video Game;
#CREDIT:AznPunk07/Frozen_Heat/GuardianFrozen;
#MENUCOLOR:Purple;
#METERTYPE:DDR;
#BANNER:EXEC_HYMM_BATTLESPHERE.#Tyria extracting-bn.png;
#BACKGROUND:EXEC_HYMM_BATTLESPHERE.#Tyria extracting-bg.png;
#LYRICSPATH:;
#CDTITLE:!cdtitle.png;
#MUSIC:EXEC_HYMM_BATTLESPHERE.#Tyria extracting.mp3;
#OFFSET:-0.053;
#SAMPLESTART:64.780;
#SAMPLELENGTH:12.380;
#SELECTABLE:YES;
#LISTSORT:;
#BPMS:0.000=140.000,16.000=142.000,20.000=144.000,24.000=146.000,28.000=148.000,32.000=150.000,48.000=152.000,52.000=154.000,56.000=156.000,60.000=158.000,64.000=160.000,68.000=155.000,296.000=140.000;
#STOPS:;
#BGCHANGES:;
#ATTACKS:;

//---------------dance-single - ----------------
#NOTES:
     dance-single:
     :
     Hard:
     9:
     0.571,0.616,0.114,0.122,0.138: // measure 1
1000
0000
0000
0000
0100
0000
0000
0000
0010
0000
0000
0001
0000
0000
0001
0000
,  // measure 2
1000
0000
0000
0000
0100
0000
0000
0000
0010
0000
0000
0001
0000
0000
0001
0000
,  // measure 3
1000
0000
0000
0000
0100
0000
0000
0000
0010
0000
0000
0001
0000
0000
0001
0000
,  // measure 4
1000
0000
0000
0000
0100
0000
0000
0000
0010
0000
0000
0001
0000
0000
0001
0000
,  // measure 5
1000
0010
1000
0001
0010
0000
0100
0000
,  // measure 6
1000
0010
1000
0001
0010
0000
0100
0000
,  // measure 7
1000
0010
1000
0001
0010
0000
0100
0000
,  // measure 8
1000
0010
1000
0001
0010
0000
0100
0000
,  // measure 9
1000
0000
0000
0000
0100
0000
0000
0000
0010
0000
0000
0001
0000
0000
0001
0000
,  // measure 10
1000
0000
0000
0000
0100
0000
0000
0000
0010
0000
0000
0001
0000
0000
0001
0000
,  // measure 11
1000
0000
0000
0000
0100
0000
0000
0000
0010
0000
0000
0001
0000
0000
0001
0000
,  // measure 12
1000
0000
0000
0000
0100
0000
0000
0000
0010
0000
0000
0001
0000
0000
0001
0000
,  // measure 13
1000
0010
1000
0001
0010
0000
0100
0000
,  // measure 14
1000
0010
1000
0001
0010
0000
0100
0000
,  // measure 15
1000
0010
1000
0001
0010
0000
0100
0000
,  // measure 16
1000
0010
1000
0001
0010
0000
0100
0000
,  // measure 17
2002
0000
0000
3003
,  // measure 18
0001
0010
0100
0000
0100
0010
0001
0000
,  // measure 19
1010
0000
0101
0000
1000
0100
0001
0000
,  // measure 20
0100
1000
0010
0000
0100
0001
0010
0001
,  // measure 21
1000
0000
0001
1000
0001
0100
0010
0000
,  // measure 22
1000
0100
0010
0000
0001
0010
0100
0000
,  // measure 23
1100
0000
0011
0000
1000
0100
0010
0000
,  // measure 24
0001
0100
0001
0010
0100
0010
0001
1000
,  // measure 25
0001
1000
0010
0100
0110
0000
1001
0000
,  // measure 26
1000
0100
1000
0010
0100
0001
1000
0100
,  // measure 27
1000
0001
0100
0001
0010
0100
0010
0001
,  // measure 28
1000
0001
0100
0001
0010
0100
0010
0001
,  // measure 29
1000
1000
0100
1000
0010
0001
0110
0000
,  // measure 30
0001
1000
0100
1000
0010
0100
0001
1000
,  // measure 31
0001
0010
1000
0001
0100
1000
0100
1000
,  // measure 32
0010
0100
0001
1000
0001
0100
0001
0010
,  // measure 33
0001
0001
0100
0010
1000
0100
1001
0000
,  // measure 34
2000
0000
0000
0000
,  // measure 35
3002
0000
0000
0000
,  // measure 36
0203
0000
0000
0000
,  // measure 37
0320
0000
0000
0000
,  // measure 38
2030
0100
0001
0100
,  // measure 39
3002
0010
1000
0100
,  // measure 40
0023
1000
0001
1000
,  // measure 41
0230
1000
0010
0001
,  // measure 42
1300
0010
1000
0010
0100
0001
0100
0001
,  // measure 43
1000
0100
0010
0001
1000
0100
0010
0001
,  // measure 44
1000
0010
1000
0001
0010
0100
0010
0001
,  // measure 45
1000
0010
0100
0001
0010
0100
0010
0000
,  // measure 46
0001
0100
1000
0100
0001
0010
0100
0010
,  // measure 47
0001
0100
1000
0100
0010
1000
0100
0010
,  // measure 48
0001
0010
0001
0010
0100
1000
0100
1000
,  // measure 49
0001
0100
0010
1000
0001
0010
0100
0000
,  // measure 50
2002
0000
0000
3003
,  // measure 51
1000
0100
0010
0100
1000
0100
0001
0100
,  // measure 52
1000
0100
0001
1000
0010
0001
0010
1000
,  // measure 53
0010
0100
1000
0100
0010
0001
0100
0001
,  // measure 54
0010
0100
1000
0001
1000
0010
0100
0001
,  // measure 55
1000
0100
0001
0100
1000
0010
0001
0010
,  // measure 56
1000
0100
0001
1000
0010
0001
0010
0100
,  // measure 57
0001
0100
1000
0010
0001
1000
0100
0001
,  // measure 58
0100
1000
0100
0010
1000
0100
0010
0000
,  // measure 59
0001
0100
0001
0000
0010
0000
0100
0000
1000
0010
1000
0000
0100
0000
0010
0000
,  // measure 60
0001
1000
0001
0000
0100
0000
0010
0000
1000
0000
0100
0000
0010
0000
0001
0000
,  // measure 61
1000
0000
0000
1000
0100
0000
0000
0100
0010
0000
0000
0010
0001
0000
0000
0001
,  // measure 62
0200
0010
1000
0001
,  // measure 63
0310
0000
0000
1000
0000
0000
1010
0000
0001
0000
0010
0000
0011
0000
0000
0000
,  // measure 64
0001
0000
0000
0100
0000
0000
0001
0000
1000
0000
0100
0000
0010
0000
0000
0000
,  // measure 65
1000
0100
0001
0100
0000
1000
0000
0001
,  // measure 66
1000
0000
0000
0001
0000
0000
0010
0000
0100
0000
0010
0000
0001
0000
1000
0000
,  // measure 67
0001
0000
0000
0001
0100
0000
0000
0100
0001
0000
0010
0000
0100
0000
1000
0000
,  // measure 68
0010
0000
0000
0010
1000
0000
0000
1000
0100
0000
0010
0000
0001
0000
1000
0000
,  // measure 69
0010
0000
0000
0010
0100
0000
0000
0100
0001
0000
1000
0000
0001
0000
0010
0000
,  // measure 70
0100
0000
1100
1000
0000
0101
0001
0000
,  // measure 71
1000
0000
0000
1000
0010
0000
0000
0010
0100
0000
0001
0000
1000
0000
0000
0000
,  // measure 72
0100
0000
0000
0100
0010
0000
0000
0010
0001
0000
1000
0000
0001
0000
0000
0000
,  // measure 73
0100
0000
0000
0100
0001
0000
0000
0001
1000
0000
0100
0000
1000
0000
0010
0000
,  // measure 74
1000
0100
0000
1000
0100
0000
0010
0000
0001
0100
0000
0001
0100
0000
0000
0000
,  // measure 75
0020
0000
0000
0000
,  // measure 76
0200
0000
0000
0000
,  // measure 77
0330
0000
0000
0000
;

//---------------dance-single - ----------------
#NOTES:
     dance-single:
     :
     Challenge:
     10:
     0.830,0.863,0.211,0.097,0.973: // measure 1
1000
0100
1000
0000
0001
0100
0000
0100
0001
0010
0000
0001
0000
1000
0100
0000
,  // measure 2
1000
0100
1000
0000
0001
0100
0000
0100
0001
0010
0000
0001
0000
1000
0100
0000
,  // measure 3
1000
0100
1000
0000
0001
0100
0000
0100
0001
0010
0000
0001
0000
1000
0100
0000
,  // measure 4
1000
0100
1000
0000
0001
0100
0000
0100
0001
0010
0000
0001
0000
1000
0100
0000
,  // measure 5
1000
0000
0010
0100
0000
0100
0001
0000
1000
0100
0000
0000
0010
0000
0100
0000
,  // measure 6
1000
0000
0010
0100
0000
0100
0001
0000
1000
0100
0000
0000
0010
0000
0100
0000
,  // measure 7
1000
0000
0010
0100
0000
0100
0001
0000
1000
0100
0000
0000
0010
0000
0100
0000
,  // measure 8
1000
0000
0010
0100
0000
0100
0001
0000
1000
0100
0000
0000
0010
0000
0100
0000
,  // measure 9
1000
0100
1000
0000
0001
0100
0000
0100
0001
0010
0000
0001
0000
1000
0100
0000
,  // measure 10
1000
0100
1000
0000
0001
0100
0000
0100
0001
0010
0000
0001
0000
1000
0100
0000
,  // measure 11
1000
0100
1000
0000
0001
0100
0000
0100
0001
0010
0000
0001
0000
1000
0100
0000
,  // measure 12
1000
0100
1000
0000
0001
0100
0000
0100
0001
0010
0000
0001
0000
1000
0100
0000
,  // measure 13
1000
0000
0010
0100
0000
0100
0001
0000
1000
0100
0000
0000
0010
0000
0100
0000
,  // measure 14
1000
0000
0010
0100
0000
0100
0001
0000
1000
0100
0000
0000
0010
0000
0100
0000
,  // measure 15
1000
0000
0010
0100
0000
0100
0001
0000
1000
0100
0000
0000
0010
0000
0100
0000
,  // measure 16
1000
0000
0010
0100
0000
0100
0001
0000
1000
0100
0000
0000
0010
0000
0100
0000
,  // measure 17
2002
0000
0000
3003
,  // measure 18
1000
0000
0100
0000
0010
0000
0000
0000
0001
1000
0001
1000
0010
0000
0000
0000
,  // measure 19
0100
0000
0001
0000
0100
0000
1000
0000
0100
0010
0000
0010
0100
0000
0001
0000
,  // measure 20
0010
0000
0100
0000
1000
0000
0000
0000
0001
0100
0001
0100
0010
0000
1000
0000
,  // measure 21
0100
1000
0000
1000
0001
0000
0100
0000
0110
0000
0000
0000
1001
0000
0000
0000
,  // measure 22
0001
0000
0010
0000
0100
0000
0000
0000
1000
0001
1000
0001
0100
0000
0000
0000
,  // measure 23
0010
0000
1000
0000
0010
0000
0001
0000
0010
0100
0000
0100
0010
0000
1000
0000
,  // measure 24
0100
0000
0010
0000
0001
0000
0000
0000
1000
0010
1000
0010
0100
0000
0001
0000
,  // measure 25
0010
0001
0000
0001
1000
0000
0010
0000
0110
0000
0000
0000
1001
0000
0000
0000
,  // measure 26
1000
0000
0100
0000
1000
0001
0000
0001
1000
0000
0010
0000
1000
0000
0001
0000
,  // measure 27
0100
0000
0001
0000
0010
0001
0000
0001
0100
0000
0010
0000
1000
0100
0000
0100
,  // measure 28
1000
0000
0010
0000
0100
0001
0000
0001
0100
0000
0010
0000
1000
0000
0100
0000
,  // measure 29
0010
0000
0100
0000
1000
0010
0000
0010
0100
0000
0001
0000
1000
0100
0000
0100
,  // measure 30
0010
0000
0100
0000
1000
0001
0000
1000
0001
0000
0100
0000
0010
0000
1000
0000
,  // measure 31
0001
0000
0010
0000
0001
0100
0000
0010
1000
0000
0001
0000
1000
0100
0000
0010
,  // measure 32
0001
0000
1000
0000
0001
0100
0000
0001
0010
0000
0100
0000
1000
0000
0010
0000
,  // measure 33
0100
0000
0001
0000
1000
0100
0000
0010
0100
0000
1000
0000
0010
0001
0000
0010
,  // measure 34
0200
0000
0010
0010
0000
1000
1000
0000
,  // measure 35
0302
0000
1000
1000
0000
0010
0010
0000
,  // measure 36
2003
0000
0001
0001
0000
0010
0010
0000
,  // measure 37
3200
0000
1000
1000
0000
0001
0001
0000
,  // measure 38
0320
0000
0000
0000
0001
0000
0000
0100
0000
0000
0000
0000
1000
0000
0000
0000
,  // measure 39
0032
0000
0000
0100
0000
0000
1000
0000
0000
0000
0010
0000
0000
0000
0000
0000
,  // measure 40
2003
0000
0001
0000
0001
0000
0000
0010
0000
0000
0000
0000
0100
0000
0000
0000
,  // measure 41
3020
0000
1000
0000
1000
0000
0000
0100
0000
0000
0100
0000
0100
0000
0000
0000
,  // measure 42
1030
0000
0100
0000
0001
0000
0100
0000
1000
0000
0010
0000
0001
0010
1000
0000
,  // measure 43
0001
0000
0010
0000
1000
0000
0010
0000
0001
0000
0100
0000
1000
0100
0001
0000
,  // measure 44
1000
0000
0100
0000
0010
0000
0001
0000
1000
0000
0010
0000
0100
0001
1000
0000
,  // measure 45
0100
0000
0010
0000
0001
0000
1000
0000
0010
0000
0100
0000
0001
1000
0100
0000
,  // measure 46
0010
0000
0001
1000
0000
0001
0100
0000
0010
0000
1000
0100
0000
1000
0010
0000
,  // measure 47
0100
0000
0001
0000
1000
0001
1000
0000
0100
0000
0011
0000
0101
0000
1001
0000
,  // measure 48
0010
1000
0100
0000
0010
0000
0001
0000
1000
0001
0100
0000
0010
0000
1000
0000
,  // measure 49
0001
0010
0100
0000
0010
0000
0001
1000
0000
0001
1000
0000
0110
0000
1001
0000
,  // measure 50
1000
0000
0000
0001
0000
0010
0100
0000
0001
0000
0010
0000
0100
0000
0000
0000
,  // measure 51
1000
0010
0000
0010
0000
0100
0001
0000
0000
1000
0010
0000
0010
0100
0001
0000
,  // measure 52
1000
0100
0000
0010
0000
0001
1000
0000
1000
0001
0010
0100
1000
0001
1000
0000
,  // measure 53
0001
0100
0000
0100
0000
0010
1000
0000
0010
0100
0000
0001
0000
1000
0100
0000
,  // measure 54
0010
0001
0000
0001
0010
0000
0100
0000
1000
0001
1000
0001
1000
0000
0000
0000
,  // measure 55
0001
0100
0000
0100
0000
0010
1000
0000
0000
0001
0100
0000
0100
0010
1000
0000
,  // measure 56
0001
0010
0000
0100
0000
1000
0001
0000
0001
1000
0100
0010
0001
1000
0001
0000
,  // measure 57
1000
0010
0000
0010
0000
0100
0001
0000
0100
0010
0000
1000
0000
0001
0010
0000
,  // measure 58
0100
1000
0000
1000
0100
0000
0010
0000
0001
1000
0001
1000
0001
0000
0000
0000
,  // measure 59
0010
0001
0010
0100
0010
0000
0000
0100
0010
0000
0000
0100
1000
0000
0001
0000
,  // measure 60
1000
0000
0010
0000
1000
0000
0010
0000
0100
0000
0000
0000
0001
0000
0100
0000
0001
0000
1000
0000
0100
0000
1000
0000
0001
0000
0000
0001
0000
0000
0001
0000
,  // measure 61
1000
0000
0000
1000
0100
0000
0000
0100
0001
0100
0010
0100
1000
0000
0000
1000
,  // measure 62
0010
0000
0000
0010
0001
0000
0000
0000
0110
0000
0000
0000
1001
0000
0000
0000
,  // measure 63
1000
0100
0010
0100
1000
0010
1000
0100
0010
0100
1000
0010
1000
0100
0010
0001
,  // measure 64
1000
0000
0001
1000
0000
0001
1000
0000
0110
0000
0000
0000
0001
0010
0100
1000
,  // measure 65
0001
0000
0001
1000
0000
1000
0001
0000
0010
0000
0100
0010
0000
0010
0100
0000
,  // measure 66
1100
0000
0000
0000
0000
0000
0101
0000
0000
0000
0000
0000
1001
0000
0000
0000
0010
0000
0100
0000
0010
0000
0000
0000
1000
0000
0000
1000
0000
0000
1000
0000
,  // measure 67
0001
0010
0000
0001
0100
0000
0001
1000
0100
0010
0001
0010
0100
0000
1000
0001
,  // measure 68
1000
0100
0000
0100
1000
0000
0001
0000
0101
0000
0010
1000
0100
1000
0010
0000
,  // measure 69
0100
0001
0100
0001
0010
0000
1000
0000
0010
0100
1000
0100
0010
0000
0001
0000
,  // measure 70
1000
0100
1000
0100
0010
0001
0010
0001
0100
0000
0010
0000
1100
0000
0000
0000
,  // measure 71
0001
0010
0100
0000
1010
0000
0000
0000
1000
0001
0010
0000
0101
0000
0000
0000
,  // measure 72
0001
1000
0010
0000
1100
0000
0010
0000
0001
0100
0001
1000
0100
1000
0001
0000
,  // measure 73
0010
0100
1000
0000
0011
0000
0000
0000
1000
0100
0010
0000
1001
0000
0000
0000
,  // measure 74
0010
0001
1000
0000
0110
0000
1000
0000
1001
0000
0010
0100
0000
0100
0010
0000
,  // measure 75
2002
0000
0000
0000
,  // measure 76
0000
0000
0000
0000
,  // measure 77
3003
0000
0000
0000
;

//---------------dance-single - ----------------
#NOTES:
     dance-single:
     :
     Medium:
     6:
     0.441,0.517,0.089,0.146,0.008:
1000
0010
0001
0000
,
1000
0010
0001
0000
,
1000
0010
0001
0000
,
1000
0010
0001
0000
,
1000
0000
0001
0100
0001
0100
0010
0000
,
1000
0000
0001
0100
0001
0100
0010
0000
,
1000
0000
0001
0100
0001
0100
0010
0000
,
1000
0000
0001
0100
0001
0100
0010
0000
,
1000
0010
0001
0000
,
1000
0010
0001
0000
,
1000
0010
0001
0000
,
1000
0010
0001
0000
,
1000
0000
0001
0100
0001
0100
0010
0000
,
1000
0000
0001
0100
0001
0100
0010
0000
,
1000
0000
0001
0100
0001
0100
0010
0000
,
1000
0000
0001
0100
0001
0100
0010
0000
,
1000
0000
0000
0000
,
0001
0011
0100
0100
,
0010
0000
1000
0000
0100
1000
0100
0000
,
0010
0010
0100
1000
,
0001
0101
1001
0000
,
0100
0110
0010
0010
,
0100
0000
0001
0000
0010
0001
0010
0000
,
0100
1000
1100
1001
,
0100
0000
0010
0100
0010
0000
0000
0000
,
1000
0000
0100
0010
0001
0000
0100
0000
,
0010
1000
0100
0000
0010
1000
0100
0000
,
0010
0000
0001
0010
0100
0000
1000
0000
,
0010
0100
0001
0000
0010
0001
0100
0000
,
0001
0000
0010
0100
1000
0000
0001
0000
,
0100
0010
1000
0000
0100
0010
1000
0000
,
0001
0000
0010
0100
1000
0000
0010
0000
,
0100
0001
0010
0000
0100
1000
0010
0000
,
0001
0000
0000
0000
,
1000
0000
0000
0000
,
0100
0000
0000
0000
,
0010
0000
0000
0000
,
0100
0010
0001
0010
,
1000
0001
0010
0001
,
0100
0010
1000
0001
,
0010
1000
0001
0010
,
0100
1000
0100
0000
0010
0000
0001
0100
,
0001
0000
0100
0010
0100
0000
0000
0000
,
1000
0000
0010
1000
0010
0000
0100
0001
,
0100
0001
0010
0000
0100
0000
1000
0000
,
0001
0010
0100
0000
1000
0010
0100
0000
,
0001
0000
0010
0000
0100
0000
0000
0010
,
0001
0000
0000
0001
0100
0000
0010
1000
,
0010
0000
0100
0001
1000
0000
0000
0000
,
1001
0000
0000
0000
,
1000
0010
0100
0000
1000
0010
0100
0000
,
0100
0001
0010
0001
1000
0100
0010
0001
,
0001
1000
0100
0000
0001
1000
0100
0100
,
1000
0000
0000
1000
0000
0000
1000
0000
0001
0000
1000
0000
0001
0000
0000
0000
,
0001
0100
0010
0000
0001
0100
0010
0000
,
0010
1000
0100
1000
0001
0010
0100
1000
,
1000
0001
0010
0000
1000
0001
0010
0010
,
0001
0000
0000
0001
0000
0000
0001
0000
1000
0000
0001
0000
1000
0000
0000
0000
,
0002
0023
0230
0320
,
0032
0203
2300
3200
,
0320
2030
3002
0023
,
0230
2300
3002
0203
,
0310
1000
0010
1000
0010
1000
0010
0000
,
0100
0001
0100
0001
0100
0000
0100
0000
,
0001
0001
1000
1000
,
1100
0011
1001
0000
,
0001
0100
0001
0000
0001
0010
0001
0000
,
0001
1000
0001
0000
0001
0100
0001
0000
,
0001
1000
0001
0000
0001
0010
0001
0000
,
0001
1000
0001
0100
0001
0010
0001
0000
,
1000
0010
1000
0000
1000
0100
1000
0000
,
1000
0001
1000
0000
1000
0010
1000
0000
,
1000
0001
1000
0000
1000
0100
1000
0000
,
1000
0001
1000
0100
1000
0010
1000
0000
,
2002
0000
0000
0000
,
3003
0000
0000
0000
;

//---------------dance-single - ----------------
#NOTES:
     dance-single:
     :
     Easy:
     4:
     0.277,0.390,0.097,0.049,0.000:
1000
0000
0100
0000
,
0001
0000
0100
0000
,
1000
0000
0100
0000
,
0001
0000
0100
0000
,
1000
0100
0001
0100
,
1000
0100
0001
0100
,
1000
0100
0001
0100
,
1000
0100
0001
0100
,
1000
0000
0100
0000
,
0001
0000
0100
0000
,
1000
0000
0100
0000
,
0001
0000
0100
0000
,
1000
0100
0001
0100
,
1000
0100
0001
0100
,
1000
0100
0001
0100
,
1000
0100
0001
0100
,
1000
0000
0000
0000
,
0010
0000
0010
0000
,
0010
1000
0100
0000
,
0010
0000
0010
0000
,
0010
0001
0100
0000
,
0001
0000
0100
0000
,
1000
0100
0001
0000
,
0010
0000
0100
0000
,
0001
0100
1000
0000
,
0001
0010
0001
0010
,
0001
0100
0001
0100
,
1000
0010
1000
0010
,
1000
0100
1000
0100
,
0001
0100
1000
0100
,
0001
0010
1000
0010
,
1000
0010
0001
0010
,
1000
0100
0001
0100
,
1000
0000
0000
0000
,
0001
0000
0000
0000
,
1000
0000
0000
0000
,
0001
0000
0000
0000
,
1000
0100
0010
0000
,
0001
0100
0010
0000
,
1000
0010
0100
0000
,
0001
0010
0100
0000
,
1000
0100
0000
1000
,
0000
0001
0000
0100
,
0001
0010
0000
0001
,
0000
1000
0000
0010
,
1000
0100
1000
0010
,
1000
0100
0010
0000
,
0001
0100
0001
0010
,
0001
0100
0010
0000
,
0000
0000
0000
0000
,
1100
0000
1001
0000
,
1000
0100
1000
0001
,
0101
0000
1001
0000
,
0001
0100
0001
1000
,
1010
0000
0101
0000
,
1000
0010
0100
0001
,
0011
0000
1100
0000
,
0001
0010
0100
1000
,
0001
0100
0001
0100
,
1000
0100
1000
0100
,
0001
0010
1000
0010
,
0001
1000
0001
0100
,
1000
0100
0010
0001
,
0100
0100
0010
0000
,
1000
0010
0100
0001
,
0010
0010
0100
0000
,
1000
1000
0000
0101
,
0000
0001
0000
1100
,
0000
1000
0000
0011
,
0000
0001
0000
1010
,
0100
0002
0103
2000
,
3100
0002
0103
2000
,
3100
0020
1030
0200
,
0301
1000
0100
0010
,
0001
0000
0000
0000
;

//---------------dance-single - ----------------
#NOTES:
     dance-single:
     :
     Beginner:
     1:
     0.138,0.300,0.032,0.097,0.000:
1000
0000
0000
0000
,
0001
0000
0000
0000
,
1000
0000
0000
0000
,
0001
0000
0000
0000
,
1000
0000
0000
0000
,
0001
0000
0000
0000
,
1000
0000
0000
0000
,
0001
0000
0000
0000
,
1000
0000
0000
0000
,
0001
0000
0000
0000
,
1000
0000
0000
0000
,
0001
0000
0000
0000
,
1000
0000
0000
0000
,
0001
0000
0000
0000
,
1000
0000
0000
0000
,
0001
0000
0000
0000
,
1000
0000
0000
0000
,
0100
0000
0000
0000
,
0100
0000
0000
0000
,
0010
0000
0000
0000
,
0010
0000
0000
0000
,
1000
0000
0000
0000
,
1000
0000
0000
0000
,
0001
0000
0000
0000
,
0001
0000
0000
0000
,
0000
1000
0000
0000
,
0000
0001
0000
0000
,
0000
0100
0000
0000
,
0000
0010
0000
0000
,
0000
1000
0000
0000
,
0000
0001
0000
0000
,
0000
0010
0000
0000
,
0000
0100
0000
0000
,
2000
3000
0000
0000
,
0000
0000
0000
0000
,
0002
0003
0000
0000
,
0000
0000
0000
0000
,
0220
0330
0000
0000
,
0220
0330
0000
0000
,
2002
3003
0000
0000
,
1001
0000
0000
0000
,
0001
0000
0001
0000
,
0001
0000
0001
0000
,
1000
0000
1000
0000
,
1000
0000
1000
0000
,
0010
0000
0100
0000
,
0010
0000
0100
0000
,
0001
0000
1000
0000
,
0001
0000
1000
0000
,
0001
0000
0000
0000
,
0001
0001
0000
0000
,
1000
1000
0000
0000
,
0100
0100
0000
0000
,
0010
0010
0010
0000
,
0001
0001
0000
0000
,
1000
1000
0000
0000
,
0010
0010
0000
0000
,
0100
0100
0100
0000
,
0000
0001
0000
1000
,
0000
0100
0000
0010
,
0000
0100
0000
1000
,
0000
0001
0000
0000
,
0100
0100
0100
0100
,
0100
0000
0000
0000
,
0010
0000
0000
0000
,
0010
0010
0010
0000
,
0000
0000
2000
3000
,
0000
0000
0002
0003
,
0000
0000
2000
3000
,
0000
0000
0002
0003
,
0000
0010
0000
0100
,
0000
0001
0000
1000
,
0000
0010
0000
1000
,
0000
0001
0000
0100
,
0100
0000
0000
0000
;
