#TITLE:EXEC_HYMM_BATTLESPHERE/.#Finnel extracting;
#SUBTITLE:;
#ARTIST:Kazuki Yanagawa;
#TITLETRANSLIT:;
#SUBTITLETRANSLIT:;
#ARTISTTRANSLIT:;
#GENRE:Video Game;
#CREDIT:AznPunk07/Frozen_Heat/GuardianFrozen;
#MENUCOLOR:purple;
#METERTYPE:DDR;
#BANNER:EXEC_HYMM_BATTLESPHERE.#Finnel extracting-bn.png;
#BACKGROUND:EXEC_HYMM_BATTLESPHERE.#Finnel extracting-bg.png;
#LYRICSPATH:;
#CDTITLE:!cdtitle.png;
#MUSIC:EXEC_HYMM_BATTLESPHERE.#Finnel extracting.mp3;
#OFFSET:-0.058;
#SAMPLESTART:91.940;
#SAMPLELENGTH:10.500;
#SELECTABLE:YES;
#LISTSORT:;
#BPMS:0.000=150.000,196.000=160.000,300.000=150.000;
#STOPS:;
#BGCHANGES:;
#ATTACKS:;

//---------------dance-single - ----------------
#NOTES:
     dance-single:
     :
     Hard:
     8:
     0.626,0.572,0.201,0.570,0.042:
0000
0000
0000
0000
,
1000
0100
0010
0001
0200
0000
0301
0010
,
1000
0010
0100
1000
0002
0000
0000
0000
,
1003
0010
0001
0010
1000
0100
0010
0100
,
2000
0000
3200
0000
0310
0001
0100
0000
,
0010
1000
0001
1000
0100
0010
0100
1000
,
0001
0100
0001
0010
0002
0000
0003
0000
,
1000
0001
0100
0001
1000
0100
1000
0010
,
0200
0000
0302
0000
0013
0100
1000
0000
,
0002
0000
0000
0013
0200
0000
2300
0000
,
3002
0000
0103
0000
0120
0000
0030
1000
,
0200
0000
0000
0310
0002
0000
2003
0000
,
3001
0021
0230
0300
,
2000
0000
0000
3010
0200
0000
0302
0000
,
0023
0000
0130
0000
2100
0000
3000
0010
,
0200
0000
0000
0301
0020
0000
0130
0000
,
0012
0103
2020
3030
,
1000
0000
0000
1000
0100
0000
0000
0100
0010
0000
0000
0010
0001
0000
0100
0000
,
0001
0000
0010
0001
0000
0100
0010
0000
,
1000
0000
0001
0100
0001
0000
0000
0000
0001
0000
1000
0000
0100
0000
0000
0000
,
0010
0001
1000
0010
1000
1000
0100
0010
,
0001
0000
0000
0001
0100
0000
0000
0100
0010
0000
0000
0010
1000
0000
0001
0000
,
1000
0000
0100
0010
0000
1000
0100
0000
,
0010
0000
0001
0001
0000
1000
1000
0000
,
0010
0100
0010
0100
0001
1000
0001
0000
,
0020
0100
0030
0001
0200
1000
0300
0020
,
0000
2030
0000
3002
0010
0013
0001
0100
,
0020
0000
2030
0000
3100
0001
0100
0020
,
0000
0030
0001
1000
0001
0000
0000
0000
,
0010
0001
1000
0100
0010
0001
0010
0100
,
1000
0001
0100
1000
0100
0010
1000
0000
,
0001
0010
0100
1000
1000
0100
0010
0001
,
0001
1000
0001
1000
0010
0100
0010
0000
,
1000
0100
1000
0000
0100
0001
0100
0000
,
0010
0100
0010
0000
0100
1000
0100
0000
,
0010
0001
0010
0000
0001
0100
0001
0000
,
1000
0010
1000
0000
0001
1000
0001
0000
,
0010
0100
1000
0000
0010
0100
1000
0000
,
0010
0100
0001
0000
0010
0100
0001
0000
,
0100
1000
0001
0000
0100
1000
0001
0000
,
1010
0101
0011
1100
,
0001
0010
0001
0200
0000
0320
0000
1030
,
0100
1000
0010
0200
0000
0302
1000
0003
,
0100
0010
0001
2000
0000
3001
0000
0010
,
0001
1000
0001
0000
0110
0000
0000
0000
,
1000
0100
1000
0020
0000
0230
0000
0302
,
0000
2003
0000
3200
0010
0300
0000
0000
,
1000
0100
0010
0100
0001
0010
1000
0010
,
0200
0320
0130
0000
,
2002
0000
0000
3003
,
0001
0010
0100
1000
0010
0100
0010
0001
,
0010
0000
1000
0000
0001
0000
0010
0000
0100
0000
1000
0000
0100
0010
0100
0000
,
1000
0100
0001
0100
0010
0100
1000
0001
,
1000
0010
1000
0001
0010
0100
1000
0000
,
0001
0100
1000
0100
0001
0010
0100
0010
,
0001
0000
1000
0000
0001
0000
0100
0000
1000
0000
0100
0000
0010
0100
0010
0000
,
1000
0100
0001
0100
1000
0001
1000
0010
,
0001
1000
0100
0001
1000
0100
0010
0000
,
0001
0000
2100
0000
3002
0000
0103
0010
,
0002
0000
0013
1000
0200
0000
0310
0000
,
2100
0000
3020
0100
0030
0100
0002
0000
,
0013
0000
0000
0100
0000
0000
1000
0000
0020
0000
0000
0000
0030
0000
0000
0000
,
0200
0000
0000
0302
0000
0000
2003
0000
,
3200
0000
0000
0000
0320
0000
0031
1000
,
0002
0000
0023
0001
0030
0200
1000
0300
,
0011
0000
0000
1010
,
0001
0010
0001
1000
0010
1000
0100
0000
,
0011
0000
0100
1000
0101
0000
0011
1000
,
0100
0000
0010
0001
0100
0000
0010
1000
,
1100
0000
0010
0001
1010
0000
1100
0001
,
0010
0000
0100
1000
0010
0000
0100
0001
,
1000
0100
0001
0100
1000
0010
0001
0010
,
2000
0000
3200
0000
0310
0001
0100
0000
,
0001
0010
0100
1000
0001
0100
0010
1000
,
0001
0000
0011
0000
1000
0001
0110
0000
,
1001
0200
0000
0300
;

//---------------dance-single - ----------------
#NOTES:
     dance-single:
     :
     Medium:
     5:
     0.437,0.535,0.235,0.361,0.000:
0000
0000
0000
0000
,
0001
0000
0001
0010
0100
0000
0100
1000
,
0100
0000
1000
0001
0100
0000
0000
0000
,
0010
0000
1000
0001
0010
0000
0001
1000
,
0100
0000
0010
0000
0100
1000
0100
0000
,
1000
0000
1000
0010
0100
0000
0100
0001
,
0010
0000
0100
0010
0100
0000
0000
0000
,
1000
0100
1000
0000
0001
0010
0001
0000
,
1001
0000
0110
0000
0001
1000
0001
0000
,
2000
3000
1001
0100
,
0012
0100
1003
0000
,
0020
0030
0101
0010
,
2001
0010
3100
0000
,
0200
0300
0010
1100
,
0001
1000
0001
0000
0100
0000
0000
0000
,
0020
0030
1000
0101
,
0010
1000
0010
0000
0100
0000
0000
0000
,
0001
0000
0010
0000
0100
0000
0100
0010
,
0001
0000
0000
0011
0000
0000
0101
0000
,
0010
0010
0100
0100
,
0001
1000
0100
0010
,
1000
0000
0100
0000
0010
0000
0010
0100
,
1000
0000
0000
1100
0000
0000
1010
0000
,
0001
0000
0000
1000
0000
0000
0001
0000
,
0010
0100
0010
0000
,
2000
3000
1000
0010
,
0001
0010
0100
0001
,
0020
0030
0010
0001
,
1000
0001
0200
0300
,
0100
0000
0010
0000
1000
0001
1000
0000
,
0100
0010
0001
0100
,
0010
0000
1000
0000
0100
0010
0100
0000
,
1000
0001
0100
0010
,
1000
0000
0100
0000
1000
0100
1000
0000
,
0001
0000
0100
0000
0001
0100
0001
0000
,
0010
0000
0001
0000
0010
0001
0010
0000
,
0001
0000
1000
0000
0001
1000
0001
0000
,
1000
0000
0010
0000
1000
0010
1000
0000
,
0100
0000
0010
0000
0100
0010
0100
0000
,
1000
0000
0010
0000
1000
0010
1000
0000
,
0001
0000
1000
0000
0001
1000
0001
0000
,
0020
0230
2300
3200
,
0320
0032
0203
0302
,
2003
3020
0230
0302
,
1003
0100
1000
0100
2000
0000
3000
0000
,
0001
0100
1000
0100
,
0001
0100
1000
0000
,
0001
0100
0001
0000
1000
0100
1000
0000
,
1001
0010
0010
0000
,
0200
0000
0000
0300
,
1000
0100
0001
0100
,
1000
0001
0010
1000
,
0001
0010
0001
1000
,
0010
0000
0010
0000
0100
0010
0100
0000
,
0001
1000
0001
0010
,
0001
1000
0010
0001
,
1000
0100
0001
1000
,
0001
0000
0100
0000
0001
1000
0001
0000
,
0000
2000
3200
0300
,
0020
0030
0002
2003
,
3020
0030
0200
0302
,
2003
0000
0002
3003
,
0002
0003
0000
0020
,
0230
0300
0020
0032
,
2003
3000
0020
0230
,
0320
0030
0000
0000
,
1000
0001
1000
0001
,
1000
1100
1000
1100
,
1000
1100
1001
0101
,
0001
0011
0001
0011
,
0001
0011
1001
1010
,
0100
0010
0100
0000
0001
1000
0001
0000
,
1000
0100
0010
0001
,
1000
1010
0001
0011
,
1001
0110
1001
0020
,
0030
0000
0000
0000
;

//---------------dance-single - ----------------
#NOTES:
     dance-single:
     :
     Easy:
     3:
     0.314,0.408,0.034,0.168,0.000:
0000
0000
0000
0000
,
0100
0100
1000
0001
,
0100
0100
0002
0003
,
0010
0010
0100
1000
,
0001
0001
0200
0300
,
1000
1000
0100
0010
,
0001
0001
2000
3000
,
0010
0010
0100
0001
,
1000
1000
0020
0030
,
2000
3000
0100
1000
,
0001
0100
0010
0000
,
0002
0003
0010
0001
,
0100
0010
1000
0000
,
0020
0030
0100
0001
,
1000
0100
0010
0000
,
0200
0300
1000
0001
,
0100
0010
0100
0000
,
0001
0001
0010
0010
,
0001
0100
1000
0100
,
0010
0010
0100
0100
,
0001
1000
1001
0000
,
1000
1000
0100
0100
,
1000
0010
0001
0010
,
0100
0100
0010
0010
,
1000
0001
1001
0000
,
0002
0003
2000
3000
,
0010
0100
0010
0000
,
1000
0100
0010
0000
,
0001
0100
0010
0000
,
2000
0000
3001
0000
,
0002
0000
1003
0000
,
0001
0010
0100
1000
,
0001
0100
0010
0000
,
1000
0100
0001
0000
,
1000
0100
0001
0100
,
1000
0010
0100
0010
,
1000
0000
0001
0000
,
0001
0010
1000
0000
,
0001
0010
1000
0010
,
0001
0100
0010
0100
,
0001
0000
1000
0000
,
1000
0100
0010
0100
,
1000
0100
0001
0100
,
1000
0010
0100
0001
,
1000
1000
0001
0000
,
0001
0010
0100
0010
,
0001
0000
1000
0000
,
0001
0100
0001
0100
,
0010
0010
0100
0000
,
0000
0000
0000
0000
,
1000
1000
0001
0001
,
0100
0100
0010
0010
,
1000
1000
0001
0001
,
0010
0010
0010
0000
,
0001
0001
1000
1000
,
0100
0100
0010
0010
,
0001
0001
1000
1000
,
0010
0010
0010
0000
,
0000
1000
0100
0000
,
0010
0000
0001
1000
,
0001
0000
0100
0000
,
0010
1000
0010
0000
,
1000
0000
0001
0100
,
0001
0000
0010
0000
,
0100
0000
0010
0100
,
1000
0000
0000
0000
,
0000
0000
0000
0000
,
2000
3100
2000
3100
,
2000
3100
2000
3100
,
0002
0013
0002
0013
,
0002
0013
0002
0013
,
1000
1000
0001
0001
,
0100
0010
0100
0000
,
0001
0010
0100
1000
,
0001
1000
1001
0110
;

//---------------dance-single - ----------------
#NOTES:
     dance-single:
     :
     Beginner:
     1:
     0.137,0.188,0.050,0.126,0.000:
0000
0000
0000
0000
,
0001
0000
0000
0000
,
1000
0000
0000
0000
,
0100
0000
0000
0000
,
1000
0000
0000
0000
,
0010
0000
0000
0000
,
0001
0000
0000
0000
,
0010
0000
0000
0000
,
0100
0000
0000
0000
,
2000
0000
0000
0000
,
3000
0000
0000
0000
,
0002
0000
0000
0000
,
0003
0000
0000
0000
,
0020
0000
0000
0000
,
0030
0000
0000
0000
,
0200
0000
0000
0000
,
0300
0000
0000
0000
,
1000
1000
1000
1000
,
0000
0000
0000
0000
,
0001
0001
0001
0001
,
0000
0000
0000
0000
,
0100
0100
0100
0100
,
0000
0000
0000
0000
,
0010
0010
0010
0010
,
0000
0000
0000
0000
,
1000
0000
0000
0000
,
0001
0000
0000
0000
,
0010
0000
0000
0000
,
0100
0000
0000
0000
,
0010
0000
0000
0000
,
0001
0000
0000
0000
,
1000
0000
0000
0000
,
0010
0000
0000
0000
,
0100
0000
0100
0000
,
0100
0000
0100
0000
,
0100
0000
0100
0000
,
0100
0000
0100
0000
,
0010
0000
0010
0000
,
0010
0000
0010
0000
,
0010
0000
0010
0000
,
0010
0010
0010
0000
,
2000
3000
0000
0000
,
0002
0003
0000
0000
,
0020
0030
0000
0000
,
0200
0300
0000
0000
,
0020
0030
0000
0000
,
0002
0003
0000
0000
,
0200
0300
0000
0000
,
2000
3000
0000
0000
,
0000
0000
0000
0000
,
0001
0000
0000
0000
,
1000
0000
0000
0000
,
0100
0000
0000
0000
,
0010
0000
0000
0000
,
1001
0000
0000
0000
,
0100
0000
0000
0000
,
0110
0000
0000
0000
,
1000
0000
0000
0000
,
0000
0001
0001
0000
,
0000
0000
0000
0000
,
0000
1000
1000
0000
,
0000
0000
0000
0000
,
0020
0000
0030
0000
,
0200
0000
0300
0000
,
0002
0000
0003
0000
,
1001
0000
0000
0000
,
1000
1000
1000
1000
,
1000
0000
0000
0000
,
0100
0000
0000
0000
,
0010
0000
0000
0000
,
0001
0001
0001
0000
,
0100
0000
0000
0000
,
0010
0000
0000
0000
,
1000
0000
0000
0000
,
1001
0000
1001
1001
;
