#TITLE:EXEC_CUTYPUMP/.;
#SUBTITLE:;
#ARTIST:Maiko Iuchi feat. Au (Gusya Ningen);
#TITLETRANSLIT:;
#SUBTITLETRANSLIT:;
#ARTISTTRANSLIT:;
#GENRE:Video Game;
#CREDIT:AznPunk07/Frozen_Heat/GuardianFrozen;
#MENUCOLOR:Purple;
#METERTYPE:DDR;
#BANNER:[Video Games] - EXEC_CUTYPUMP-bn.png;
#BACKGROUND:[Video Games] - EXEC_CUTYPUMP-bg.png;
#LYRICSPATH:[Video Games] - EXEC_CUTYPUMP.lrc;
#CDTITLE:!cdtitle.png;
#MUSIC:[Video Games] - EXEC_CUTYPUMP.mp3;
#OFFSET:-0.031;
#SAMPLESTART:41.120;
#SAMPLELENGTH:20.540;
#SELECTABLE:YES;
#LISTSORT:;
#DISPLAYBPM:187.000;
#BPMS:0.000=187.000,46.000=374.000,48.000=187.000;
#STOPS:47.000=0.321
;
#BGCHANGES:;
#ATTACKS:;

//---------------dance-single - ----------------
#NOTES:
     dance-single:
     :
     Hard:
     9:
     0.714,0.731,0.669,0.138,0.008: // measure 1
0000
0000
0000
0000
,  // measure 2
0000
0000
0000
0000
,  // measure 3
0000
0000
0000
0000
,  // measure 4
0000
0000
0000
0000
,  // measure 5
0001
0010
0100
1000
0002
0100
0003
0010
,  // measure 6
0000
0001
0100
0010
0000
0010
0100
0001
,  // measure 7
1000
0100
0010
0001
2000
0010
3000
0100
,  // measure 8
0000
1000
0010
0100
0000
0100
0010
1000
,  // measure 9
0001
0100
0010
1000
0200
0010
0300
1000
,  // measure 10
0000
0001
0100
0001
0010
0100
1000
0010
,  // measure 11
1000
0010
0100
0001
0020
0100
0030
0001
,  // measure 12
0010
0000
0000
0000
0000
0000
0000
0000
0100
0000
0000
0000
0000
0000
0000
0000
1000
0000
0000
0000
0000
0000
0000
0000
0001
0000
0000
0000
0000
0000
0000
0000
0220
0000
0000
0000
0000
0000
0000
0000
0000
0000
0000
0000
0000
0000
0000
0000
0000
0330
0000
0000
0000
0000
0000
0000
0000
0000
0000
0000
0000
0000
0000
0000
,  // measure 13
1000
1010
1001
0011
,  // measure 14
0100
0001
0100
0000
0010
1000
0001
0000
,  // measure 15
0010
0000
1100
0000
0011
1000
0000
1001
,  // measure 16
0000
0010
0100
0010
1000
0001
0100
0000
,  // measure 17
0101
0000
0010
1000
0100
0000
0100
1000
,  // measure 18
0000
0001
0010
0100
1000
0001
0100
0000
,  // measure 19
1001
0000
0010
1000
0100
0000
0010
0001
,  // measure 20
0000
0001
0100
0000
0001
1000
0101
0000
,  // measure 21
1001
0000
0001
0010
0100
0000
1000
0010
,  // measure 22
0000
0001
1000
0001
0100
0010
1000
0000
,  // measure 23
1010
0000
0100
0001
0100
0000
1000
0001
,  // measure 24
0000
1000
0100
0010
0001
1000
0001
0000
,  // measure 25
0010
0000
1100
0000
1001
0010
0000
1010
,  // measure 26
0000
0001
1000
0001
1000
0100
0010
0001
,  // measure 27
0000
0000
0001
0100
0010
1010
0000
1001
,  // measure 28
0000
0011
0100
0000
1010
0000
0100
0000
,  // measure 29
0001
0100
0001
0000
0002
0010
0003
0100
,  // measure 30
0010
0100
0010
0000
1000
0010
1000
0000
,  // measure 31
0100
1000
0100
0000
0020
0100
0030
0001
,  // measure 32
1000
0000
0001
0000
0100
0000
0000
0000
0010
0000
0000
0010
0000
0000
0010
0000
,  // measure 33
1000
0100
1000
0001
,  // measure 34
0100
0000
0001
0000
0010
0100
1000
0100
,  // measure 35
0010
0001
0010
1000
,  // measure 36
0100
0000
1000
0000
0001
0010
1000
0010
,  // measure 37
0100
1000
0001
0100
,  // measure 38
1000
0000
0010
0000
1000
0001
0001
0010
,  // measure 39
0100
0010
0001
1000
,  // measure 40
0010
0100
0010
1000
0001
0001
0001
0001
,  // measure 41
1001
1100
1001
0101
,  // measure 42
0010
0100
1100
0000
0101
0010
1000
0000
,  // measure 43
0001
0011
1001
1010
,  // measure 44
1001
0010
0100
0010
0001
1000
1001
0000
,  // measure 45
1010
0000
0101
0000
1001
0000
0010
1000
,  // measure 46
0000
0001
1000
0001
0010
0100
1000
0000
,  // measure 47
0011
0000
1100
0000
0110
0000
0010
0001
,  // measure 48
0000
1000
0001
0100
0001
1000
0010
0000
,  // measure 49
1000
0100
1000
0200
0000
0010
0000
0300
,  // measure 50
1000
0000
0002
0100
0003
0000
1010
0000
,  // measure 51
0100
0001
0100
0001
0010
0100
0000
1100
,  // measure 52
0000
0001
0010
0100
1000
0100
0100
0000
,  // measure 53
0001
0100
0001
2000
0000
0001
3000
0000
,  // measure 54
0010
0100
1000
0200
0000
0310
0001
0000
,  // measure 55
1000
0001
1000
0010
0100
0001
0100
0010
,  // measure 56
1000
0100
0001
1000
0010
0001
0001
0000
,  // measure 57
0011
1100
1001
0101
,  // measure 58
1010
0101
1001
1100
,  // measure 59
0010
0100
1000
0000
1100
0000
1001
0000
,  // measure 60
0010
0100
0001
0000
0101
0000
1001
0010
,  // measure 61
0100
0100
1000
0001
0100
0001
0000
1010
,  // measure 62
0000
0101
0000
0001
1000
0100
0010
0000
,  // measure 63
0011
0000
1100
0001
0100
0010
0000
0110
,  // measure 64
0000
1001
0000
0001
0100
0001
1000
0001
,  // measure 65
0100
0100
0100
0001
0001
0001
0010
0100
,  // measure 66
1000
1000
1000
0010
0010
0010
0100
0001
,  // measure 67
1000
1000
1000
0001
0001
0001
0010
0100
,  // measure 68
0220
0000
0000
0000
0330
0000
0000
0000
1000
0000
0000
0001
0000
0000
1001
0000
,  // measure 69
0001
0100
1000
0001
0100
1000
0100
0000
,  // measure 70
1000
0100
0001
1000
0100
0001
1000
0000
,  // measure 71
1000
0010
0001
1000
0010
0001
1000
0000
,  // measure 72
0001
0010
1000
0001
0010
1000
0001
2000
,  // measure 73
0000
0000
0000
0000
0000
0000
0000
3000
,  // measure 74
0010
0001
0100
0010
1000
0100
0010
0000
,  // measure 75
0011
0000
1100
0000
0001
0100
0000
0101
,  // measure 76
0000
0000
1010
0000
1001
0000
0001
1000
,  // measure 77
0001
0000
0010
0100
1000
0000
0010
0100
,  // measure 78
0001
0000
0010
0100
1000
0100
0010
0001
,  // measure 79
1000
0001
0100
0001
0000
0110
0000
1000
,  // measure 80
0001
1000
0010
1000
0000
0110
0000
1000
,  // measure 81
1100
0100
0000
0011
0010
0000
1001
1000
,  // measure 82
0000
1010
0010
0100
1001
0000
0101
0000
,  // measure 83
0011
0000
0001
1000
0001
0101
0000
1010
,  // measure 84
0000
0001
1000
0000
1100
0000
0010
0001
,  // measure 85
0010
1100
0010
0101
,  // measure 86
1000
0000
1001
0000
0010
0000
0110
0001
,  // measure 87
1000
0100
1000
0100
0000
0011
0000
0001
,  // measure 88
0100
0001
0100
0001
0000
1010
0000
0001
,  // measure 89
1000
0101
0000
0001
1100
0000
1000
0101
,  // measure 90
0000
0001
1100
0000
0101
1000
0000
0000
,  // measure 91
2002
0000
0000
0000
,  // measure 92
0000
0000
0000
3003
,  // measure 93
0010
1000
0010
0000
0100
0001
0100
0000
,  // measure 94
0010
1000
0010
0000
0100
0001
0010
0000
,  // measure 95
0100
1000
0100
0000
0010
0001
0010
0000
,  // measure 96
0100
1000
0100
0000
0010
0001
0100
0000
,  // measure 97
0010
1000
0001
0000
0100
0001
0010
0000
,  // measure 98
0001
0010
0100
0000
1000
0010
0100
0000
,  // measure 99
0001
0100
0001
0010
0100
1000
0100
1000
,  // measure 100
0001
1000
0010
0100
0010
1000
0002
1000
,  // measure 101
0003
0000
0000
0000
;

//---------------dance-single - ----------------
#NOTES:
     dance-single:
     :
     Medium:
     8:
     0.567,0.576,0.223,0.146,0.000:
0000
0000
0000
0000
,
0000
0000
0000
0000
,
0000
0000
0000
0000
,
0000
0000
0000
0000
,
1000
0100
1000
0000
0100
0010
0000
0100
,
0000
1000
0010
0100
1000
0100
0010
1000
,
0001
0010
0001
0000
0100
0010
0000
0100
,
0000
0001
0010
0100
0010
0001
0100
0010
,
1000
0100
0010
0000
0001
0100
0000
0001
,
0000
1000
0100
1000
0001
0100
0001
0010
,
0001
0100
0010
0000
1000
0001
0000
1000
,
0000
0000
0000
0000
0000
0000
0000
0000
0100
0000
0000
0000
0000
0000
0000
0000
1000
0000
0000
0000
0000
0000
0000
0000
0010
0000
0000
0000
0000
0000
0000
0000
0200
0000
0000
0000
0000
0000
0000
0000
0000
0000
0000
0000
0000
0000
0000
0000
0000
0300
0000
0000
0000
0000
0000
0000
0000
0000
0000
0000
0000
0000
0000
0000
,
0000
0010
1000
0001
,
0010
0100
1000
0000
0010
0100
1000
0000
,
0001
1000
0010
0100
,
0010
0100
0001
0000
0010
0100
0001
0000
,
0010
0000
0001
0000
1000
0000
0001
0100
,
0000
0001
0010
0000
0100
1000
0100
0000
,
0010
0000
0001
0000
0100
0000
1000
0100
,
0000
1000
0010
1000
0100
0010
0100
0000
,
1000
0000
1010
0000
1001
0000
0000
0010
,
0000
0001
0100
0000
0001
1000
0001
0000
,
0010
0000
0011
0000
1001
0000
0000
0100
,
0000
0010
0100
0010
0100
0000
0101
0000
,
1000
0000
0001
0000
1000
0100
0000
1100
,
0000
0010
0001
0000
0001
0000
1010
0000
,
0100
0000
0001
0010
0001
0010
0000
0100
,
0000
1100
0000
1000
0001
1000
0001
0000
,
2000
0000
0000
3100
0020
0000
0100
0000
,
0032
0000
0000
0103
0020
0000
1000
0000
,
0230
0000
0000
0310
2000
0000
0100
0000
,
3002
0000
0003
0000
2002
0000
0000
3003
,
0000
0000
1000
0100
0010
0000
0001
0000
,
0100
0001
1000
0001
,
0010
0000
0001
0100
0010
0000
1000
0000
,
0001
0100
1000
0100
,
0010
0000
1000
0001
0100
0000
0001
0000
,
0010
0001
1000
0010
,
0100
0000
0010
1000
0001
0000
0010
0000
,
1000
0100
0001
0100
,
0010
1000
0100
0000
0010
1000
0100
0000
,
0010
0000
0100
1000
0100
0000
1100
0000
,
0010
0001
0100
0000
0010
0001
0100
0000
,
0010
0001
0010
0000
0011
0000
0100
0000
,
0110
0000
1001
0000
1001
0000
0001
0100
,
0000
1000
0100
0000
0010
0000
0100
0000
,
1000
0000
0110
0000
0110
0000
0000
0001
,
0000
1000
0000
0001
1000
0001
1000
0000
,
0001
0010
0100
0000
0000
0100
0000
0000
,
0100
0000
0010
0001
0000
0001
0100
0000
,
0010
1000
0100
0000
0010
1000
0100
0000
,
0010
1000
0001
0100
0010
1000
0001
0000
,
0100
0001
0010
0000
0000
0010
0000
0000
,
0010
0000
0100
1000
0000
1000
0010
0000
,
1000
0100
0010
0000
1000
0100
0010
0000
,
1000
0100
0001
0100
1000
0100
0001
0000
,
0010
0000
0011
0000
0110
0000
0100
1000
,
0000
1000
0001
0000
1000
0000
1001
0000
,
0000
0000
0001
0000
0101
0000
0100
0010
,
0000
0010
1000
0000
1100
0000
0010
0001
,
0100
0000
0100
0001
0010
0000
0010
0100
,
0000
0100
0000
0100
1000
0000
0010
0000
,
0100
0000
0001
0100
0001
0000
0010
0001
,
0000
0100
1000
0100
0010
0000
0000
0000
,
2000
0000
0000
3100
0010
0001
0010
0000
,
0200
0000
0000
0310
0001
0010
0100
0000
,
0002
0000
0000
0103
0010
1000
0020
0000
,
1000
0000
0230
0300
,
0001
0010
0100
0010
0001
0000
0110
0000
,
1000
0010
0100
0010
1000
0000
0110
0000
,
0001
0010
0100
1000
0001
0000
0100
0000
,
1001
0000
0010
0100
0010
0100
0010
0000
,
0020
0000
0000
0030
,
0000
0000
0000
0000
,
1001
0000
0100
0000
0001
0010
0000
1100
,
0000
0001
0100
0000
0010
0000
1000
0100
,
0000
0000
0010
0100
1000
0000
0010
0100
,
1000
0000
0010
0100
0001
1000
0010
0100
,
0001
0100
0010
1000
0000
0100
0000
0010
,
0001
1000
0010
1000
0000
0001
0000
0010
,
1000
0100
0000
0001
0100
0000
1000
0100
,
0000
0001
0100
0000
1000
0100
0010
0000
,
1001
0000
0001
1000
0001
0000
0010
0100
,
0000
1000
0010
0000
0100
0000
0001
0100
,
0000
0000
0010
1000
0001
0000
0010
0001
,
1000
0000
0010
1000
0001
0100
0001
0001
,
1000
0000
1000
0100
0000
0100
0000
0010
,
0001
0000
0001
0100
0000
0100
0000
0001
,
1000
1000
0000
0001
0001
0000
0010
0010
,
0000
0100
0100
0000
0110
0010
0000
0000
,
2002
0000
0000
0000
,
0000
0000
0000
3003
,
1000
0100
0001
0100
,
1000
0100
0001
0100
,
1000
0010
0100
0001
,
0010
0100
1000
0001
,
0100
0010
1000
0000
0010
0000
0001
0000
,
0100
0010
1000
0001
,
0100
0010
1000
0000
0001
0010
0100
0000
,
1000
0001
0010
0100
0100
0010
0002
1003
;

//---------------dance-single - ----------------
#NOTES:
     dance-single:
     :
     Easy:
     6:
     0.437,0.500,0.400,0.131,0.000:
0000
0000
0000
0000
,
0000
0000
0000
0000
,
0000
0000
0000
0000
,
0000
0000
0000
0000
,
0001
0000
0100
0001
0100
0000
0010
0000
,
1000
0100
0010
0000
,
1000
0000
0010
1000
0010
0000
0100
0000
,
0001
0010
0100
0000
,
0010
0000
0001
1000
0001
0000
0100
0000
,
0010
1000
0100
0000
,
1000
0000
0100
0010
0100
0000
1000
0000
,
0001
0100
0020
0030
,
0000
1000
0100
0001
,
0100
1000
0010
0000
,
0001
0010
1000
0010
,
0100
1000
0001
0000
,
0100
0100
0010
1000
,
0001
0010
0100
0000
,
0010
0001
1000
0001
,
0100
0001
0010
0000
,
0100
1000
0100
0000
0100
0000
1000
0000
,
0001
0100
0001
1000
,
0010
0001
0010
0000
0010
0000
0100
0000
,
0001
1000
0001
0010
,
0001
0100
0001
0000
0010
0000
0001
0000
,
1000
0010
0100
0001
,
1000
0010
1000
0000
0100
0000
1000
0000
,
0010
0100
0001
0010
,
0000
0000
2002
3003
,
0000
0000
0000
0000
,
0000
0000
0220
0330
,
0000
0000
0000
0000
,
0000
0000
1000
0100
1000
0000
0010
0000
,
0100
0010
1000
0000
,
0000
0000
0001
0010
0001
0000
0100
0000
,
0010
0100
0001
0000
,
0000
0000
1000
0100
0010
0000
0001
0000
,
1000
0001
0100
0000
,
0000
0000
0001
0100
0010
0000
1000
0000
,
0001
1000
0100
0000
,
0000
1100
1001
1100
,
0000
0101
1001
0101
,
0000
1001
0110
1001
,
0000
1001
0110
0000
,
0001
0010
0100
0000
,
1000
0010
0100
0001
,
1000
0100
0010
0000
,
0001
0100
0010
1000
,
0001
0101
0000
0101
,
1000
0100
1000
0000
0001
0000
0000
0000
,
0000
1100
0001
0000
,
1000
0100
1000
0000
1100
0000
1100
0000
,
0010
0110
0000
1000
,
0001
1000
0001
0000
1001
0000
0000
0000
,
0000
0010
0010
0000
,
1100
0101
1001
0110
,
0000
0001
0101
1010
,
0001
1001
0101
0011
,
0000
1100
1001
1000
,
1010
0110
1010
0001
,
1000
0100
1000
0000
0001
0100
0001
0000
,
0010
0000
0110
0001
,
1001
0100
0100
0000
,
0011
1010
0100
0100
,
0002
0000
0000
0013
0002
0000
0003
0000
,
2000
0000
0000
3100
2000
0000
3000
0000
,
0020
0000
0000
0130
0020
0000
0030
0000
,
1001
0110
1001
0000
,
2000
0000
0000
3200
0010
0000
0300
0000
,
0002
0000
0000
0023
0100
0000
0030
0000
,
0200
0000
0000
0320
0001
0000
0030
0000
,
0001
1000
0001
0000
1000
0001
1000
0000
,
0000
0000
0000
0000
,
0000
0000
0000
0000
,
0001
0100
1000
0100
,
0001
0100
1000
0100
,
0001
0101
1000
1100
,
0001
0011
1000
1010
,
0001
0010
0100
0000
0100
0000
0000
0000
,
1000
0010
0100
0000
0100
0000
0000
0000
,
0001
0000
0000
1000
0000
0000
0001
0000
,
0000
1000
0000
0000
0110
0000
0110
0000
,
1000
0010
0001
0010
,
1000
0010
0001
0010
,
1000
0100
0010
0000
0010
0000
0010
0000
,
0001
0100
0010
0000
0010
0000
0010
0000
,
1000
0001
1000
0000
0100
0000
0000
0000
,
0001
1000
0001
0000
0100
0000
0000
0000
,
0101
0000
0000
1100
0000
0000
0101
0000
,
0000
1100
0000
0000
0101
0000
0000
0000
,
1000
0000
0000
0000
,
0000
0000
0000
0000
,
0001
0010
0100
1000
,
0001
0010
0100
1000
,
0010
0100
0001
1000
,
0001
0100
0010
1000
,
0100
1000
0001
0100
,
0001
0010
0100
1000
,
0010
0100
0001
1000
,
0100
0010
0001
1000
,
0001
0000
0000
0000
;

//---------------dance-single - ----------------
#NOTES:
     dance-single:
     :
     Beginner:
     3:
     0.224,0.345,0.046,0.000,0.000:
0000
0000
0000
0000
,
0000
0000
0000
0000
,
0000
0000
0000
0000
,
0000
0000
0000
0000
,
1000
0000
0000
0000
,
0000
0000
0000
0000
,
0001
0000
0000
0000
,
0000
0000
0000
0000
,
0100
0000
0000
0000
,
0000
0000
0000
0000
,
0010
0000
0000
0000
,
0000
0000
1001
0000
,
0000
0000
0000
0000
,
0100
0000
0000
0000
,
0001
0000
0000
0000
,
1000
0000
0000
0000
,
0100
0000
0000
0000
,
0010
0000
0000
0000
,
0001
0000
0000
0000
,
1000
0000
0000
0000
,
0001
0001
0000
0000
,
0100
0100
0000
0000
,
0010
0010
0000
0000
,
1000
1000
0000
0000
,
0001
0001
0000
0000
,
0010
0010
0000
0000
,
0100
0100
0000
0000
,
1000
1000
0000
0000
,
0000
0000
0001
0000
,
0000
0000
0000
0000
,
0000
0000
1000
0000
,
1001
0000
0000
0000
,
0000
0010
0000
0100
,
0000
0001
0000
1000
,
0000
0100
0000
0010
,
0000
0100
0000
1000
,
0000
0001
0000
0100
,
0000
0010
0000
0100
,
0000
0001
0000
1000
,
0000
0100
0100
0100
,
0000
1000
0000
0001
,
0000
0100
0000
0010
,
0000
1000
0000
0001
,
0000
0010
0010
0000
,
0001
0000
0100
0000
,
0010
0000
1000
0000
,
0100
0000
1000
0000
,
0010
0000
0100
0100
,
0000
0001
0000
1000
,
0000
0100
0000
0010
,
0000
0100
0000
1000
,
0000
0001
0001
0001
,
0000
0100
0000
0010
,
0000
0100
0000
1000
,
0000
0001
0000
1000
,
0000
0100
0100
0100
,
0000
1000
1000
0000
,
0010
0000
0100
0000
,
0000
0001
0001
0000
,
0010
0000
0100
0000
,
0001
0001
0001
0000
,
1000
1000
1000
0000
,
0010
0010
0010
0000
,
0100
0100
0100
0000
,
0000
0000
0001
0100
,
0000
0000
1000
0100
,
0000
0000
0001
0010
,
0000
0000
1001
0000
,
0000
0000
1000
0010
,
0000
0000
0001
0010
,
0000
0000
1000
0100
,
0000
0000
0000
0000
,
1001
0000
0000
0000
,
0010
0010
0010
0000
,
0100
0100
0000
1000
,
0000
0001
0000
0100
,
0100
0000
0001
0000
,
0010
0000
0100
0000
,
0010
0010
0010
0000
,
0001
0001
0001
0000
,
0100
0000
1000
0000
,
0100
0100
0100
0000
,
1000
1000
1000
0000
,
0010
0010
0010
0000
,
0100
0100
0000
0001
,
0000
1000
0000
0100
,
0100
0000
0100
0000
,
0010
0000
0010
0000
,
0001
0001
0001
0001
,
1001
1000
1000
0000
,
0010
0000
0100
0000
,
0110
0000
1000
0000
,
0001
0001
0001
0001
,
0001
0001
0001
0001
,
1000
1000
1000
1000
,
1000
1000
1000
1000
,
0010
0010
0010
0010
,
0010
0010
0010
0010
,
0100
0100
0100
0100
,
0001
0010
0100
1000
;

//---------------dance-single - LIFTS----------------
#NOTES:
     dance-single:
     LIFTS:
     Edit:
     10:
     0.924,0.966,1.000,0.192,0.008: // measure 1
1000
L000
00L0
0L00
,  // measure 2
000L
L000
0L00
00L0
,  // measure 3
0L00
L000
000L
0L00
,  // measure 4
000L
00L0
0L00
L000
,  // measure 5
10L0
0100
0010
0001
0200
0001
0000
0010
,  // measure 6
0000
0301
0010
0100
1000
0001
0010
0000
,  // measure 7
0001
000L
01L0
0L00
L020
1000
0000
0100
,  // measure 8
0000
1030
L100
0L00
00L1
000L
L100
0000
,  // measure 9
1000
L010
00L0
0L01
002L
0001
0000
0100
,  // measure 10
0000
0031
000L
0L10
00L0
L001
001L
0000
,  // measure 11
0001
010L
0L00
00L0
L200
1000
0000
0010
,  // measure 12
0000
0000
0000
0000
0000
0000
0000
0000
1300
0000
0000
0000
0000
0000
0000
0000
L000
0000
0000
0000
0000
0000
0000
0000
00L0
0000
0000
0000
0000
0000
0000
0000
0L02
0000
0000
0000
0000
0000
0000
0000
0000
0000
0000
0000
0000
0000
0000
0000
0000
0003
0000
0000
0000
0000
0000
0000
0000
0000
0000
0000
0000
0000
0000
0000
,  // measure 13
1000
0000
1100
0000
0000
00L0
010L
0000
,  // measure 14
0010
1000
0001
0000
L000
0L00
00L1
0000
,  // measure 15
0100
0000
0101
0000
0010
1000
0000
1001
,  // measure 16
0000
100L
0000
0L00
L000
000L
0L01
0000
,  // measure 17
0011
0000
0101
0000
0100
0001
0000
1100
,  // measure 18
0000
0010
0100
0L00
L000
000L
0L10
0000
,  // measure 19
0100
0000
0110
0000
1010
0000
1000
0100
,  // measure 20
0000
1100
0000
0001
0100
0L00
10L0
0000
,  // measure 21
1001
0000
0011
0000
0100
0001
0000
1001
,  // measure 22
0000
1000
0001
000L
00L0
L000
010L
0000
,  // measure 23
1100
0000
0010
0000
0100
1000
0000
1001
,  // measure 24
0000
1000
L000
00L0
000L
L000
0L00
000L
,  // measure 25
0L10
0000
1000
0001
0000
010L
0000
0L10
,  // measure 26
0000
1000
1000
L000
0L00
00L0
010L
0000
,  // measure 27
0010
0000
0100
0001
000L
01L0
0000
0000
,  // measure 28
L000
00L0
0L00
000L
L000
000L
01L0
0000
,  // measure 29
1000
L000
0L10
00L0
1L00
L000
01L0
0L00
,  // measure 30
L100
0L00
10L0
L000
0L10
00L0
001L
0000
,  // measure 31
0001
001L
00L0
0L10
00L0
010L
0L00
00L1
,  // measure 32
000L
0000
01L0
0000
0L00
0000
001L
0000
0110
0000
0000
0LL0
0000
0000
0110
0000
,  // measure 33
0000
000L
00L0
0L00
L000
100L
0000
0101
,  // measure 34
0000
1000
0000
1L00
L000
00L0
0L01
0000
,  // measure 35
0010
00L0
0L00
L100
0L00
L010
0000
0110
,  // measure 36
0000
0001
000L
L100
0L00
L000
001L
0000
,  // measure 37
0100
0L00
L001
000L
0L00
10L0
0000
1001
,  // measure 38
0000
0010
10L0
L000
00L0
0L00
001L
0000
,  // measure 39
0100
0L00
100L
L000
000L
01L0
0000
1010
,  // measure 40
0000
0001
000L
L000
100L
0100
0100
0100
,  // measure 41
1100
0000
0011
0000
1001
0000
0001
0100
,  // measure 42
0000
1000
0100
0000
0010
0100
1000
0000
,  // measure 43
0010
0000
1010
0000
0011
0000
1000
0001
,  // measure 44
0000
0000
00L0
0L00
00L0
000L
L001
0000
,  // measure 45
1000
0001
1001
0000
1000
0100
0000
1100
,  // measure 46
0000
0000
000L
0L00
000L
00L0
0L10
0000
,  // measure 47
0011
0000
1100
0000
1001
0000
0001
0100
,  // measure 48
0000
1010
0000
0000
L000
0L00
00L1
0000
,  // measure 49
1000
L000
00L0
0L01
0000
0200
0000
0000
,  // measure 50
0020
0000
0300
0030
1000
100L
100L
100L
,  // measure 51
000L
L000
0L00
100L
0010
0001
0000
L000
,  // measure 52
0L00
100L
0010
0001
1000
L000
01L0
0000
,  // measure 53
0000
000L
00L0
1L00
0000
0020
0000
0000
,  // measure 54
0200
0000
0030
0300
0001
L001
L001
L001
,  // measure 55
L001
0000
L000
0L00
100L
L010
0001
000L
,  // measure 56
L000
00L0
100L
L100
0001
000L
00L0
1L00
,  // measure 57
1000
0000
1100
0000
0011
1000
0000
L001
,  // measure 58
0000
0001
100L
0100
0010
0001
0100
0000
,  // measure 59
0011
0000
010L
1000
0100
0000
1000
0001
,  // measure 60
0000
0001
000L
0L00
10L0
L000
001L
01L0
,  // measure 61
1100
0000
0001
0001
0101
1001
0000
1010
,  // measure 62
0000
1001
0000
0001
0011
0000
0110
0000
,  // measure 63
1000
0100
0010
0001
0100
1010
0000
0101
,  // measure 64
0000
1010
0000
0001
1000
1001
0100
0110
,  // measure 65
0001
0000
0000
0000
0000
0000
0000
0000
000L
0000
0000
0000
0000
0000
0000
0000
00L0
0000
0000
0000
0000
0000
0000
0000
L001
0000
0000
0000
0000
0000
0000
0000
0010
0000
0000
0000
0000
0000
0000
0000
1000
0000
0000
0000
0000
0000
0000
0000
0020
0030
0000
0000
0000
0000
0000
0000
0200
0300
0000
0000
0000
0000
0000
0000
,  // measure 66
0001
0000
0000
0000
0000
0000
0000
0000
000L
0000
0000
0000
0000
0000
0000
0000
L000
0000
0000
0000
0000
0000
0000
0000
00L1
0000
0000
0000
0000
0000
0000
0000
1000
0000
0000
0000
0000
0000
0000
0000
0010
0000
0000
0000
0000
0000
0000
0000
0002
0003
0000
0000
0000
0000
0000
0000
0020
0030
0000
0000
0000
0000
0000
0000
,  // measure 67
1000
L000
000L
10L0
0001
0010
0000
0000
,  // measure 68
0220
0000
0000
0000
0000
0000
0330
0000
1001
0000
0000
L00L
0000
0000
1001
0000
,  // measure 69
1000
0100
0L00
01L0
0L00
00L1
000L
0L10
,  // measure 70
10L0
L000
001L
00L0
100L
L000
01L0
0L00
,  // measure 71
100L
0100
0L00
000L
L000
00L0
000L
00L0
,  // measure 72
0L11
1100
0101
1010
,  // measure 73
2002
0000
3003
0000
,  // measure 74
1000
100L
0001
L001
1000
100L
0001
L001
,  // measure 75
0010
0000
0000
0000
0000
0000
0000
0000
0100
0000
0000
0000
0000
0000
0000
0000
1L00
0000
0000
0000
0000
0000
0000
0000
0000
0000
0000
0000
0000
0000
0000
0000
0L20
0030
0000
0000
0000
0000
0000
0000
0000
0000
0000
0000
0000
0000
0000
0000
00L1
0000
0000
0000
0000
0000
0000
0000
0000
0000
0000
0000
0000
0000
0000
0000
,  // measure 76
0L10
0000
0000
0000
0000
0000
0000
0000
0000
0000
0000
0000
0000
0000
0000
0000
0L01
0000
0000
0000
0000
0000
0000
0000
0000
0000
0000
0000
0000
0000
0000
0000
L200
0300
0000
0000
0000
0000
0000
0000
0000
0000
0000
0000
0000
0000
0000
0000
0L10
0000
0000
0000
0000
0000
0000
0000
0000
0000
0000
0000
0000
0000
0000
0000
,  // measure 77
010L
0010
1010
0000
0100
0001
0101
0000
,  // measure 78
0001
0010
0011
0000
1000
0100
1100
0001
,  // measure 79
0100
1L00
0000
0L01
0000
01L0
1000
0001
,  // measure 80
1000
L010
0000
001L
0000
L100
0010
0000
,  // measure 81
0001
0101
0000
1000
1100
0000
0001
0011
,  // measure 82
0000
1000
1010
0000
1001
0000
0110
0000
,  // measure 83
0001
0000
0000
0000
0000
0000
0000
0000
000L
0000
0000
0000
0000
0000
0000
0000
01L0
0000
0000
0000
0000
0000
0000
0000
0L00
0000
0000
0000
0000
0000
0000
0000
00L2
0003
0000
0000
0000
0000
0000
0000
0001
0000
0000
0000
0000
0000
0000
0000
000L
0000
0000
0000
0000
0000
0000
0000
L000
0000
0000
0000
0000
0000
0000
0000
,  // measure 84
100L
0000
0000
0000
0000
0000
0000
0000
0000
0000
0000
0000
0000
0000
0000
0000
L020
0030
0000
0000
0000
0000
0000
0000
0010
0000
0000
0000
0000
0000
0000
0000
01L0
0000
0000
0000
0000
0000
0000
0000
0010
0000
0000
0000
0000
0000
0000
0000
1000
0000
0000
0000
0000
0000
0000
0000
0001
0000
0000
0000
0000
0000
0000
0000
,  // measure 85
000L
L100
0011
0000
0101
0000
1001
0000
,  // measure 86
0001
0010
1100
0000
1010
0000
1001
0010
,  // measure 87
0200
0300
0000
0000
0000
0000
0000
0000
0100
0000
0000
0000
0000
0000
0000
0000
0L00
0000
0000
0000
0000
0000
0000
0000
00L1
0000
0000
0000
0000
0000
0000
0000
0000
0000
0000
0000
0000
0000
0000
0000
0101
0000
0000
0000
0000
0000
0000
0000
0000
0000
0000
0000
0000
0000
0000
0000
1010
0000
0000
0000
0000
0000
0000
0000
,  // measure 88
0200
0300
0000
0000
0000
0000
0000
0000
0100
0000
0000
0000
0000
0000
0000
0000
0L00
0000
0000
0000
0000
0000
0000
0000
100L
0000
0000
0000
0000
0000
0000
0000
0000
0000
0000
0000
0000
0000
0000
0000
1100
0000
0000
0000
0000
0000
0000
0000
0000
0000
0000
0000
0000
0000
0000
0000
0011
0000
0000
0000
0000
0000
0000
0000
,  // measure 89
0100
1000
0000
0010
0101
0000
0010
1100
,  // measure 90
0000
0010
0101
0000
0010
1100
0000
0010
,  // measure 91
2002
0000
0000
0000
0000
0000
0000
3000
,  // measure 92
0000
L003
0000
000L
0000
1001
0000
L00L
,  // measure 93
0010
00L0
L000
0L10
0000
010L
0000
000L
,  // measure 94
L001
000L
01L0
0000
L010
0000
L000
000L
,  // measure 95
0L01
000L
L100
0000
00L1
000L
L001
0000
,  // measure 96
0L10
0000
L001
000L
L100
0000
01L0
0L00
,  // measure 97
L001
0001
0001
001L
00L0
1L00
L000
010L
,  // measure 98
0000
100L
L010
0001
001L
1000
L001
001L
,  // measure 99
1000
L000
01L0
0L00
L001
000L
0L00
L001
,  // measure 100
0000
10L0
0100
0L01
0000
01L0
0L00
L100
,  // measure 101
0001
00L0
0L00
0000
;
