#TITLE:Digi-Boy;
#SUBTITLE:;
#ARTIST:Daiki Kosho;
#TITLETRANSLIT:;
#SUBTITLETRANSLIT:;
#ARTISTTRANSLIT:;
#GENRE:;
#CREDIT:;
#MENUCOLOR:;
#METERTYPE:DDR;
#BANNER:Digi-Boy.png;
#BACKGROUND:Digi-Boy-bg.png;
#LYRICSPATH:;
#CDTITLE:;
#MUSIC:Digi-Boy.mp3;
#OFFSET:-0.493;
#SAMPLESTART:38.450;
#SAMPLELENGTH:15.000;
#SELECTABLE:YES;
#LISTSORT:;
#BPMS:0.000=152.000,192.000=76.000,208.000=152.000;
#STOPS:;
#BGCHANGES:;
#ATTACKS:;

//---------------dance-single - Darkstorm091----------------
#NOTES:
     dance-single:
     Darkstorm091:
     Hard:
     8:
     0.586,0.798,0.511,0.124,0.099:
0000
0000
0000
0000
,
0000
0000
0000
0000
,
0000
0000
0000
0000
,
0000
0000
0000
0000
,
0102
0000
0000
0000
0000
0000
0000
0000
0000
0000
0000
0000
0000
0000
0000
0000
0000
0000
0000
0000
0000
0000
0000
0000
0000
0000
0000
0000
0000
0000
0000
0000
0000
0000
0000
0000
0000
0000
0000
0000
0000
0000
0000
0000
0000
0000
0000
0000
1000
0000
0000
0000
0000
0000
0000
0000
0000
0000
0000
0000
0000
0000
0000
0000
0000
0000
0000
0000
0000
0000
0000
0000
0000
0000
0000
0000
0000
0000
0000
0000
0000
0000
0000
0000
0000
0000
0000
0000
0000
0000
0000
0000
0000
0000
0000
0000
0100
0000
0000
0000
0000
0000
0000
0000
0000
0000
0000
0000
0000
0000
0000
0000
0000
0000
0000
0000
0000
0000
0000
0000
0000
0000
0000
0000
0000
0000
0000
0000
0000
0000
0000
0000
0000
0000
0000
0000
0000
0000
0000
0000
0000
0000
0000
0000
0010
0003
0000
0000
0000
0000
0000
0000
0000
0000
0000
0000
0000
0000
0000
0000
0000
0000
0000
0000
0000
0000
0000
0000
0000
0000
0000
0000
0000
0000
0000
0000
0000
0000
0000
0000
0000
0000
0000
0000
0000
0000
0000
0000
0000
0000
0000
0000
,
1000
1001
0000
0101
0000
0011
0000
0001
,
0101
0000
0100
0010
1000
0000
0001
0010
,
0001
0000
0010
0000
0100
0000
0010
0000
0001
0010
0001
0000
0100
0000
0010
0000
,
1010
1000
0100
0010
0100
1000
0010
0001
,
0010
1000
0001
0100
0000
0010
1000
0000
,
0100
0010
0001
0100
0010
1000
0010
0001
,
0010
1000
0100
1000
1100
0000
0110
0000
,
1001
1000
0100
0010
0100
1000
0010
0001
,
0010
1000
0001
0100
0000
0010
1000
0000
,
0001
0100
0010
0100
0001
0010
0100
0010
,
0000
0001
0100
0010
0000
0100
0010
1000
,
1001
0001
0010
0100
0010
0001
0100
1000
,
0100
0001
1000
0010
0000
0100
0001
0000
,
0010
0100
0010
0001
0100
0010
0100
0001
,
1000
0010
0100
0001
0011
0000
0110
0000
,
1100
1000
0100
0010
1000
0010
0001
0100
,
0010
0100
0001
1000
0000
0001
0100
0000
,
0010
0100
0001
0010
0100
1000
0010
0100
,
0000
0001
0010
0100
2000
0000
3020
0000
,
0130
0000
0001
1000
0000
0010
0100
0001
,
0010
0000
0100
0010
0000
0001
0100
0010
,
0200
0000
0000
0301
0000
1100
0000
0110
,
0000
0011
0000
0101
0000
1010
0000
0100
,
0110
0000
0100
0001
0000
1000
0100
0010
,
0100
0000
0010
0001
0000
0100
0010
0100
,
0002
0000
0000
0013
0000
1100
0000
1001
,
0000
0101
0000
0110
0000
1100
0000
0010
,
1010
1000
0100
0010
0100
1000
0010
0000
,
0100
0000
0001
0010
0000
0100
0010
0000
,
0001
0100
1000
0100
0001
1000
0010
0000
,
0100
0000
0001
0010
0000
0100
0010
0000
,
0001
0100
0010
0100
0001
1000
0100
0000
,
0010
0000
0001
0010
0000
0100
0010
0000
,
0001
0100
1000
0100
0001
1000
0100
0000
,
1000
0000
0001
0010
0000
0100
0010
0000
,
0201
1000
0010
0301
,
0100
0101
0000
1001
0000
1100
0000
0100
,
0110
0000
0010
0001
0100
0000
0010
0100
,
0101
0000
0001
1001
0000
1100
0000
0010
,
0110
0101
0011
0110
,
0100
1100
0000
1001
0000
0101
0000
0001
,
0011
0000
0010
0100
1000
0000
0010
0100
,
0101
0000
0001
1001
0000
1100
0000
1010
,
0000
0010
0100
0001
0010
0100
1000
0100
0010
0100
1000
0020
0000
0000
0000
0000
,
0000
0130
0001
0100
1000
0100
0001
0010
0100
0010
0001
0100
0020
0000
0230
0000
,
0000
0310
0100
0001
0100
1000
0100
0001
1000
0100
0010
0200
0000
0000
0000
0000
,
0000
0310
0100
1000
0001
0010
0100
0010
0000
0100
1000
0010
0000
0100
0010
1000
,
1001
0001
0010
0100
0010
0001
1000
0010
,
0100
0010
1000
0100
0000
0010
0100
0000
,
1000
0010
0001
0010
1000
0001
0100
0010
,
1000
0100
0010
0100
0110
0000
1100
0000
,
1010
0010
0001
0010
1000
0001
0010
0100
,
0010
0100
1000
0010
0000
0100
0010
0000
,
1000
0001
0010
0100
1000
0100
0010
0100
,
0000
1000
0010
0001
0020
0000
2030
0000
,
3001
0000
0100
0010
0000
1000
0100
0010
,
0100
0000
1000
0010
0000
0001
0010
1000
,
0002
0000
0000
0103
0000
1010
0000
1100
,
0000
0110
0000
0011
0000
1001
0000
1000
,
1010
0000
0010
1000
0000
0010
0001
0010
,
1000
0000
0001
0010
0000
0100
0010
0001
,
0200
0000
0000
0310
0000
1010
0000
1100
,
0000
0110
0000
0011
0000
1001
0000
0010
,
1010
1000
0100
0010
0001
0100
0010
0000
,
1000
0000
0100
0010
0000
0100
1000
0000
,
0010
0001
0010
1000
0001
0100
0010
0000
,
1000
0000
0100
0010
0000
0100
1000
0000
,
0010
0001
0010
1000
0001
0010
0100
0000
,
0010
0000
0001
0100
0000
0010
0100
0000
,
0010
1000
0001
0010
0100
0010
0001
0000
,
1000
0000
0100
0010
0000
0010
0001
0000
,
2001
0100
0010
3001
,
0010
1010
0000
1100
0000
0110
0000
0010
,
0011
0000
0001
0100
0010
0000
1000
0100
,
0110
0000
0010
1010
0000
1001
0000
0010
,
0220
0000
0000
0000
,
0330
0000
0000
0000
;

//---------------dance-single - Darkstorm091----------------
#NOTES:
     dance-single:
     Darkstorm091:
     Medium:
     6:
     0.477,0.710,0.080,0.234,0.058: // measure 1
0000
0000
0000
0000
,  // measure 2
0000
0000
0000
0000
,  // measure 3
0000
0000
0000
0000
,  // measure 4
0000
0000
0000
0000
,  // measure 5
0001
1000
0010
0100
,  // measure 6
0001
0010
0000
0100
0000
0010
0000
0001
,  // measure 7
0100
0000
0010
0100
0001
0000
1000
0100
,  // measure 8
1000
0000
0010
0100
0000
0001
0000
0010
,  // measure 9
0100
0001
0100
0000
0010
1000
0010
0000
,  // measure 10
1000
0000
0100
0010
0000
0100
1000
0000
,  // measure 11
0010
0100
0001
0000
0100
0010
0100
0000
,  // measure 12
0010
1000
0010
0000
1100
0000
0110
0000
,  // measure 13
1000
0010
1000
0000
0001
0010
0001
0000
,  // measure 14
0100
0000
0010
0100
0000
0001
1000
0000
,  // measure 15
0010
0100
0001
0000
1000
0010
1000
0100
,  // measure 16
0000
0010
0100
0010
0000
0100
0001
0100
,  // measure 17
0001
1000
0001
0000
0010
0100
0010
0000
,  // measure 18
0001
0000
0100
0010
0000
1000
0001
0000
,  // measure 19
0010
0100
0010
0000
0001
0100
0001
0000
,  // measure 20
1000
0010
1000
0000
0110
0000
0101
0000
,  // measure 21
0001
0010
0001
0000
1000
0010
0100
0000
,  // measure 22
0001
0000
0010
0100
0000
1000
0010
0000
,  // measure 23
0100
0001
0100
0000
0001
0010
0100
0010
,  // measure 24
0000
0001
0100
0001
2000
0000
3020
0000
,  // measure 25
0130
0000
0001
0010
0000
0100
0010
0000
,  // measure 26
0001
0000
0100
0010
0000
0100
0001
0000
,  // measure 27
2000
0000
0000
3020
0000
0230
0000
0302
,  // measure 28
0000
0023
0000
0230
0000
0310
0000
0000
,  // measure 29
1001
0000
0100
0010
0000
0100
0001
0000
,  // measure 30
1000
0000
0100
0010
0000
0100
1000
0000
,  // measure 31
0020
0000
0000
0230
0000
0302
0000
2003
,  // measure 32
0000
3020
0000
0230
0000
0301
0000
0000
,  // measure 33
0010
0100
0010
0000
0100
0001
0100
0000
,  // measure 34
0001
0000
0010
0100
0000
0010
0001
0000
,  // measure 35
0100
0010
0100
0000
0001
0010
0001
0000
,  // measure 36
0010
0000
0100
1000
0000
0010
0100
0000
,  // measure 37
0001
0010
0100
0000
0010
0001
0100
0000
,  // measure 38
0010
0000
0100
0001
0000
1000
0010
0000
,  // measure 39
0100
0001
0010
0000
0100
0010
0001
0000
,  // measure 40
0100
0000
0010
0100
0000
0001
1000
0000
,  // measure 41
0010
0100
0001
0010
,  // measure 42
0100
0010
0000
0001
0000
0100
0000
0010
,  // measure 43
0100
0000
0001
1000
0010
0000
0100
0001
,  // measure 44
0100
0000
0010
0100
0000
0001
0000
1000
,  // measure 45
0010
0100
0001
0010
,  // measure 46
0100
0010
0000
0001
0000
0100
0000
0010
,  // measure 47
0100
0000
0001
1000
0100
0000
0010
0001
,  // measure 48
0010
0000
0100
1000
0000
0010
0000
0100
,  // measure 49
0001
0100
0001
0000
0100
0010
0100
0000
0010
0000
1000
0002
0000
0000
0000
0000
,  // measure 50
1003
0100
1000
0000
0100
0010
0100
0000
0010
0001
0010
0000
0101
0000
0110
0000
,  // measure 51
0100
0001
0100
0000
0001
0010
0001
0000
0010
0000
0100
2000
0000
0000
0000
0000
,  // measure 52
3010
0100
0010
0000
0100
0001
0100
0001
0000
0100
0010
0100
0000
0010
1000
0010
,  // measure 53
1000
0100
0010
0000
0100
1000
0001
0000
,  // measure 54
0100
0000
0010
0100
0000
0001
0010
0000
,  // measure 55
0001
0010
0001
0000
0010
0100
0010
0000
,  // measure 56
0100
1000
0100
0000
1001
0000
0101
0000
,  // measure 57
0001
0010
0100
0000
0010
0100
0010
0000
,  // measure 58
0100
0000
1000
0010
0000
0100
0001
0000
,  // measure 59
0010
0001
0010
0000
0100
0010
0100
0010
,  // measure 60
0000
0100
0001
0100
0002
0000
2003
0000
,  // measure 61
3010
0000
0100
0001
0000
1000
0010
0000
,  // measure 62
0100
0000
0001
0010
0000
0100
0010
0000
,  // measure 63
0002
0000
0000
0203
0000
0320
0000
0230
,  // measure 64
0000
0302
0000
2003
0000
3100
0000
0000
,  // measure 65
0110
0000
0010
0001
0000
0100
0010
0000
,  // measure 66
0100
0000
0001
1000
0000
0010
1000
0000
,  // measure 67
0002
0000
0000
0203
0000
0320
0000
0230
,  // measure 68
0000
0302
0000
2003
0000
3010
0000
0000
,  // measure 69
1000
0010
0100
0000
0001
0010
0100
0000
,  // measure 70
0010
0000
0001
0100
0000
0010
0100
0000
,  // measure 71
0001
1000
0001
0000
1000
0100
1000
0000
,  // measure 72
0100
0000
0010
0001
0000
0100
0010
0000
,  // measure 73
0100
0001
1000
0000
0100
1000
0100
0000
,  // measure 74
0010
0000
0001
0100
0000
0010
0100
0000
,  // measure 75
0001
0010
0100
0000
0010
0001
0100
0000
,  // measure 76
0010
0000
0100
0001
0000
1000
0010
0000
,  // measure 77
1000
0100
0010
0001
,  // measure 78
0010
0100
0000
0010
0000
0001
0000
0100
,  // measure 79
0010
0000
0100
0001
0010
0000
0100
1000
,  // measure 80
0010
0000
0100
0001
0000
0010
0000
0000
,  // measure 81
0220
0000
0000
0000
,  // measure 82
0330
0000
0000
0000
;

//---------------dance-single - Darkstorm091----------------
#NOTES:
     dance-single:
     Darkstorm091:
     Easy:
     4:
     0.306,0.473,0.007,0.073,0.000: // measure 1
0000
0000
0000
0000
,  // measure 2
0000
0000
0000
0000
,  // measure 3
0000
0000
0000
0000
,  // measure 4
0000
0000
0000
0000
,  // measure 5
0001
0010
0100
0010
,  // measure 6
0001
0000
0000
0100
0000
0010
0000
0000
,  // measure 7
0100
0001
1000
0010
,  // measure 8
1000
0100
0010
0001
,  // measure 9
0100
0010
0100
0001
,  // measure 10
1000
0010
0000
1000
,  // measure 11
0001
0010
0100
0010
,  // measure 12
0001
0100
0010
0100
,  // measure 13
0001
0010
0100
0010
,  // measure 14
0001
0100
0000
0010
,  // measure 15
0100
0001
0100
0010
,  // measure 16
1000
0100
0010
0100
,  // measure 17
1000
0001
0010
0100
,  // measure 18
0010
0001
0000
0100
,  // measure 19
0010
0100
0001
1000
,  // measure 20
0100
0010
0100
0010
,  // measure 21
0001
0100
0010
1000
,  // measure 22
0100
0010
0000
0100
,  // measure 23
0010
0001
0100
0010
,  // measure 24
0100
0000
0001
1000
,  // measure 25
0010
0100
0000
0001
,  // measure 26
0010
0100
0000
0010
,  // measure 27
0002
0000
0000
0103
0000
0010
0000
0100
,  // measure 28
0000
0010
0000
1000
0000
0100
0000
0000
,  // measure 29
1000
0001
0000
0100
,  // measure 30
0010
0100
0000
0001
,  // measure 31
0020
0000
0000
0130
0000
0010
0000
0001
,  // measure 32
0000
0100
0000
0010
0000
0100
0000
0000
,  // measure 33
0001
1000
0010
0100
,  // measure 34
0001
0010
0000
0100
,  // measure 35
0010
0001
0100
0010
,  // measure 36
0100
0001
0000
1000
,  // measure 37
0010
0100
0001
0010
,  // measure 38
0100
0010
0000
0001
,  // measure 39
0100
0010
0100
0001
,  // measure 40
1000
0100
0000
1000
,  // measure 41
0010
0100
0001
0010
,  // measure 42
0100
0000
0000
0010
0000
0001
0000
0000
,  // measure 43
0100
0010
0100
0001
,  // measure 44
1000
0000
0010
0000
0000
0100
0000
0000
,  // measure 45
0010
0100
0001
1000
,  // measure 46
0010
0000
0000
0100
0000
0001
0000
0000
,  // measure 47
0010
0100
1000
0010
,  // measure 48
0100
0000
0001
0000
0000
0010
0000
0000
,  // measure 49
0100
0010
0100
0001
1000
0200
0000
0000
,  // measure 50
0310
0100
1000
0100
0010
0100
1000
0010
,  // measure 51
0100
0010
1000
0001
0010
0200
0000
0000
,  // measure 52
0310
0001
0100
0010
0100
0001
1000
0010
,  // measure 53
0100
0010
0100
0001
,  // measure 54
0010
0100
0000
1000
,  // measure 55
0010
0100
0001
0010
,  // measure 56
0100
0010
0001
0100
,  // measure 57
0010
1000
0100
0010
,  // measure 58
0100
1000
0000
0010
,  // measure 59
0100
0001
0010
0100
,  // measure 60
0010
0000
0002
2003
,  // measure 61
3100
0010
0000
0001
,  // measure 62
0100
0010
0000
0100
,  // measure 63
0002
0000
0000
1003
0000
0010
0000
0100
,  // measure 64
0000
0001
0000
0010
0000
0100
0000
0000
,  // measure 65
0010
0001
0000
0100
,  // measure 66
0010
1000
0000
0001
,  // measure 67
0020
0000
0000
0130
0000
0010
0000
0001
,  // measure 68
0000
0100
0000
0010
0000
0100
0000
0000
,  // measure 69
0001
0010
0100
0010
,  // measure 70
0001
0100
0000
0010
,  // measure 71
0100
0001
1000
0100
,  // measure 72
0010
0100
0000
0010
,  // measure 73
0001
0100
0010
0100
,  // measure 74
0001
1000
0000
0010
,  // measure 75
0100
0001
0010
0100
,  // measure 76
1000
0010
0000
0100
,  // measure 77
0001
0010
0100
0010
,  // measure 78
0001
0000
0000
0100
0000
0010
0000
0000
,  // measure 79
0100
0001
1000
0010
,  // measure 80
0100
0000
0001
0000
0000
0100
0000
0000
,  // measure 81
0220
0000
0000
0000
,  // measure 82
0330
0000
0000
0000
;
