#TITLE:Battle! VS. Team Plasma;
#SUBTITLE:;
#ARTIST:Junichi Masuda;
#TITLETRANSLIT:;
#SUBTITLETRANSLIT:;
#ARTISTTRANSLIT:;
#CREDIT:;
#BANNER:bn.PNG;
#BACKGROUND:bg.PNG;
#LYRICSPATH:;
#CDTITLE:;
#MUSIC:Battle! VS. Team Plasma.ogg;
#OFFSET:-0.090;
#SAMPLESTART:12.980;
#SAMPLELENGTH:16.420;
#SELECTABLE:YES;
#BPMS:0.000=185.000;
#STOPS:;
#BGCHANGES:;

//---------------dance-single - ----------------
#NOTES:
     dance-single:
     :
     Hard:
     9:
     0.705,0.684,0.334,0.243,0.861:
0000
0000
0000
0000
,
0000
0000
0000
0000
,
1000
0000
1000
0010
0000
0010
0100
0000
0100
0001
0000
0000
,
1001
0000
0000
0110
0000
0000
0010
0000
,
1000
0000
1000
0001
0000
0001
0010
0000
0010
0100
0000
0000
,
1000
0000
0000
0010
0000
0000
0100
0000
0000
0001
1000
0001
,
1000
1001
0001
0010
,
0100
0000
0000
1000
0000
0000
0010
0000
0200
0000
0000
0300
,
0001
0100
0001
0100
0000
0000
0010
0000
0000
1000
0000
0000
,
0001
0010
0001
0100
0000
0010
0000
1000
0000
0100
0000
0010
,
0001
0011
0010
0100
,
2000
0000
0000
3020
0000
0000
0230
0000
,
0301
0000
0010
0001
0000
0000
0010
0000
0000
0110
0000
0000
,
0100
0000
1000
0100
0000
0000
1000
0000
0000
0001
1000
0001
,
1000
1001
0001
0010
,
0200
0000
0000
2300
0000
0000
3002
0000
,
0013
0000
0001
0100
0000
0000
0010
0000
0000
1010
0000
0000
,
1000
0000
0001
0010
0000
0000
0001
0000
0000
1000
0000
0000
,
1001
0001
0010
0100
,
2000
0000
0000
3020
0000
0000
0230
0000
,
0301
0000
0010
0100
0000
0000
1000
0000
0000
1010
0000
0000
,
0010
0000
0100
0001
0000
0000
0010
0000
0000
0100
1000
0100
,
1000
0000
0000
0001
0000
0000
0010
0000
0001
0000
0100
0000
,
0010
0000
1000
0000
0100
0000
0010
0000
0001
0000
1000
0000
,
1001
0000
0000
0110
0000
0000
0010
0000
1000
0000
0100
0000
,
0010
0000
0001
0000
0100
0000
0010
0000
1000
0000
0100
0000
,
1100
0000
0000
0011
0000
0000
0001
0000
0100
0000
0010
0000
,
1000
0000
0100
0000
0001
0000
0100
0000
1000
0000
0010
0000
,
0110
0000
0000
0101
0000
0000
0001
0000
0010
0000
0100
0000
,
1000
0000
0001
0000
0010
0000
0001
0000
0100
0000
0010
0000
,
1000
0000
1000
0100
0000
0100
0010
0000
0010
0001
0000
0001
,
0100
0000
0100
0010
0000
0010
1000
0000
1000
0001
0000
0000
,
1002
1003
2010
3010
,
0120
0130
0201
0301
,
1001
1000
0100
0010
,
0002
0000
0000
0203
0000
0000
0320
0000
,
1030
0000
0001
0100
0000
0000
0010
0000
0000
0110
0000
0000
,
0010
0000
1000
0001
0000
0000
0010
0000
0000
0001
0100
0001
,
0100
0110
0010
1000
,
0200
0000
0000
0320
0000
0000
0032
0000
,
0103
0000
0010
0100
0000
0000
0010
0000
0000
1010
0000
0000
,
1000
0000
0100
0010
0000
0000
0001
0000
0000
1000
0001
1000
,
0001
1001
1000
0100
,
0020
0000
0000
0032
0000
0000
0203
0000
,
0310
0000
1000
0001
0000
0000
0010
0000
0000
0011
0000
0000
,
0001
0000
0100
0010
0000
0000
1000
0000
0000
0100
1000
0100
,
1000
0000
0100
0000
0010
0000
0001
0000
1000
0000
0010
0000
,
1000
0000
0001
0000
0010
0000
0001
0000
0100
0000
0010
0000
,
1000
0000
0100
0000
0010
0000
0001
0000
1000
0000
0100
0000
,
1000
0000
0001
0000
0100
0000
0001
0000
0010
0000
0100
0000
,
1000
0000
1000
0010
0000
0010
0100
0000
0100
0001
0000
0001
,
0010
0000
0010
0100
0000
0100
1000
0000
1000
0010
0000
0010
,
0100
0000
0100
0001
0000
0001
0010
0000
0010
0100
0000
0100
,
1000
0000
1000
0100
0000
0100
0010
0000
0010
0001
0010
0001
,
0010
0000
0010
0100
0000
0100
1000
0000
1000
0001
0000
0001
,
0010
0000
0010
0001
0000
0001
0100
0000
0100
0010
0000
0010
,
1000
0000
1000
0100
0000
0100
0001
0000
0001
0100
0000
0100
,
1000
0000
1000
0010
0000
0010
0100
0000
0100
0001
0010
0001
,
0100
0000
0100
0010
0000
0010
1000
0000
1000
0100
0000
0000
,
0010
0000
0010
0001
0000
0001
1000
0000
1000
0100
0000
0000
,
0010
0000
0010
0001
0000
0001
0100
0000
0100
0010
0000
0000
,
1000
0000
1000
0001
0000
0001
0010
0000
0010
0100
0000
0000
,
1000
0000
0000
1001
0000
0000
0001
0010
0001
0010
0000
0100
,
1000
0000
0000
1010
0000
0000
0010
0100
0001
0100
0000
0010
,
1000
0000
0000
1100
0000
0000
0100
0010
0001
0010
0000
0100
,
1000
0000
0000
1100
0000
0000
0010
0001
0010
0100
1000
0100
,
0010
0000
0010
0001
0000
0001
0100
0000
0100
0010
0000
0000
,
1000
0000
1000
0100
0000
0100
0010
0000
0010
0001
0000
0000
,
1000
0000
1000
0010
0000
0010
0100
0000
0100
0001
0000
0000
,
0001
0000
0001
0010
0000
0010
0100
0000
0100
1000
0000
1000
,
0010
0000
0000
0110
0000
0000
0100
0001
0100
0001
0000
0010
,
0100
0000
0000
1100
0000
0000
1000
0010
1000
0010
0000
1000
,
0001
0000
0000
0011
0000
0000
0001
0010
0100
1000
0000
0010
,
0100
0000
0000
0101
0000
0000
0100
0010
1000
0100
0010
0001
,
2000
0000
0000
0000
,
3000
0000
0000
0000
;

//---------------dance-single - ----------------
#NOTES:
     dance-single:
     :
     Beginner:
     2:
     0.111,0.150,0.000,0.000,0.000:
0000
0000
0000
0000
,
0000
0000
0000
0000
,
1000
0000
0000
0000
,
0001
0000
0000
0000
,
0010
0000
0000
0000
,
0100
0000
0000
0000
,
1000
0000
0000
0000
,
0000
0000
0000
0000
,
0010
0000
0000
0000
,
0000
0000
0000
0000
,
0100
0000
0000
0000
,
0000
0000
0000
0000
,
0001
0000
0000
0000
,
0001
0000
0000
0000
,
0001
0000
0000
0000
,
0010
0000
0000
0000
,
0100
0000
0000
0000
,
1000
0000
0000
0000
,
0010
0000
0000
0000
,
0100
0000
0000
0000
,
0001
0000
0000
0000
,
1000
0000
0000
0000
,
0100
0000
0000
0000
,
0010
0000
0010
0000
,
0010
0000
0000
0000
,
0001
0000
0001
0000
,
0001
0000
0000
0000
,
0100
0000
0100
0000
,
0100
0000
0000
0000
,
0010
0000
0010
0000
,
0010
0000
0000
0000
,
1000
0000
0000
0000
,
0100
0000
0100
0000
,
0100
0000
0000
0000
,
0010
0000
0000
0000
,
0001
0000
0000
0000
,
1000
0000
0000
0000
,
0100
0000
0000
0000
,
0010
0000
0000
0000
,
0001
0000
0000
0000
,
1000
0000
0000
0000
,
0010
0000
0000
0000
,
0100
0000
0000
0000
,
0001
0000
0000
0000
,
1000
0000
0000
0000
,
0100
0000
0000
0000
,
0010
0000
0000
0000
,
0001
0000
0000
0000
,
1000
0000
0000
0000
,
0100
0000
0000
0000
,
0010
0000
0000
0000
,
0001
0000
0000
0000
,
0100
0000
0000
0000
,
0010
0000
0000
0000
,
1000
0000
0000
0000
,
0100
0000
0000
0000
,
0010
0000
0000
0000
,
0001
0000
0000
0000
,
1000
0000
1000
0000
,
1000
0000
0000
0000
,
0001
0000
0001
0000
,
0001
0000
0000
0000
,
0010
0000
0000
0000
,
0100
0000
0000
0000
,
1000
0000
0000
0000
,
0001
0000
0000
0000
,
0010
0000
0000
0000
,
0001
0000
0000
0000
,
0100
0000
0000
0000
,
0010
0000
0000
0000
,
1000
0000
0000
0000
,
0100
0000
0000
0000
,
0001
0000
0000
0000
,
0100
0000
0000
0000
,
1000
0000
0000
0000
;

//---------------dance-single - ----------------
#NOTES:
     dance-single:
     :
     Easy:
     4:
     0.256,0.337,0.010,0.101,0.000:
0000
0000
0000
0000
,
0000
0000
0000
0000
,
1000
0000
0100
0010
,
0002
0000
0003
0000
,
0100
0000
0010
1000
,
0200
0000
0300
0000
,
0010
0010
0000
0000
,
0001
0000
0100
0000
,
0010
0010
0000
0000
,
1000
0100
1000
0001
,
0010
0000
0001
0000
,
0100
0000
0010
0000
,
1000
1000
0000
0000
,
0001
0001
0000
0010
,
0010
0000
0100
0000
,
1000
0000
0010
0000
,
0100
0100
0000
0000
,
0001
0001
0000
0010
,
0010
0000
0100
0000
,
1000
0000
0010
0000
,
0100
0100
0000
0000
,
0001
0001
0000
0000
,
0010
0000
0100
0000
,
1000
1000
0001
0001
,
1000
0000
0010
0000
,
0100
0100
0010
0010
,
0100
0000
0001
0000
,
1000
1000
0001
0001
,
0010
0000
0001
0000
,
0100
0100
0010
0010
,
1000
0000
0001
0000
,
1000
0000
0001
0000
,
0010
0000
0100
0000
,
0010
0000
0100
0000
,
0010
0000
1000
0000
,
0001
0000
0100
0000
,
0010
0010
0000
0000
,
1000
1000
0000
0100
,
0100
0000
0010
0000
,
0001
0000
1000
0000
,
0100
0100
0000
0000
,
0010
0010
0000
0001
,
0001
0000
0100
0000
,
0010
0000
1000
0000
,
0001
0001
0000
0000
,
1000
1000
0000
0000
,
0010
0000
1000
0000
,
0100
0000
0010
0000
,
0001
0000
1000
0000
,
0100
0000
0001
0000
,
0200
0000
0000
0300
,
2000
0000
3000
0001
,
0002
0000
0000
0003
,
2000
0000
0000
3000
,
0020
0000
0000
0030
,
0200
0000
0300
0001
,
0002
0000
0000
0003
,
2000
0000
0000
3000
,
0010
0100
0001
0000
,
0010
0100
1000
0000
,
0010
1000
0001
0000
,
0010
0001
1000
0000
,
0010
0000
1000
0000
,
0100
0000
0010
0000
,
0001
0000
0100
0000
,
0010
0000
1000
0000
,
0001
0010
0001
0010
,
1000
0010
1000
0010
,
0001
0100
0001
0100
,
1000
0100
1000
0100
,
0010
0000
0001
0000
,
0100
0000
0010
0000
,
1000
0000
0100
0000
,
0010
0000
0001
1000
,
1001
0000
0000
0000
;

//---------------dance-single - ----------------
#NOTES:
     dance-single:
     :
     Medium:
     6:
     0.443,0.532,0.132,0.233,0.061: // measure 1
0000
0000
0000
0000
,  // measure 2
0000
0000
0000
0000
,  // measure 3
1000
0001
0010
0001
,  // measure 4
0100
0000
0000
0010
0000
0000
0100
0000
,  // measure 5
0010
1000
0100
0010
,  // measure 6
0001
1000
0010
1000
,  // measure 7
0001
0001
0010
0001
,  // measure 8
0100
0000
0000
0010
0000
0000
1000
0000
0001
0000
0000
0000
,  // measure 9
1000
0010
0100
0001
,  // measure 10
0010
0000
0010
0100
0000
1000
0000
1000
0000
1000
0000
0000
,  // measure 11
0001
1000
0010
1000
,  // measure 12
0001
0000
0000
0010
0000
0000
0100
0000
,  // measure 13
1000
0010
1000
0001
,  // measure 14
0010
0000
0000
0001
0000
0000
0100
0000
0000
0010
0000
0010
,  // measure 15
0100
0001
0010
0100
,  // measure 16
1000
0000
0000
0001
0000
0000
0010
0000
,  // measure 17
0100
1000
0010
1000
,  // measure 18
0001
0000
0000
0010
0000
0000
0001
0000
0000
0001
0000
0001
,  // measure 19
0100
0010
1000
0100
,  // measure 20
0010
0000
0000
0001
0000
0000
0100
0000
,  // measure 21
0010
1000
0100
1000
,  // measure 22
0001
0000
0000
0010
0000
0000
0001
0000
0000
0100
0000
0100
,  // measure 23
0010
0010
1000
1000
,  // measure 24
0001
0001
0010
0010
,  // measure 25
0001
0001
0100
0100
,  // measure 26
0010
0010
1000
1000
,  // measure 27
0100
0010
0001
0010
,  // measure 28
1000
0010
0001
0100
,  // measure 29
0010
0100
1000
0001
,  // measure 30
0010
0001
0100
0010
,  // measure 31
2000
3000
0002
0003
,  // measure 32
0020
0030
0200
0300
,  // measure 33
2000
3000
0020
0030
,  // measure 34
0200
0300
0002
0003
,  // measure 35
0010
0100
1000
0001
,  // measure 36
0010
0000
0000
0001
0000
0000
0010
0000
,  // measure 37
0100
1000
0010
1000
,  // measure 38
0001
0000
0000
0010
0000
0000
0001
0000
0000
0100
0000
0100
,  // measure 39
0010
1000
0001
0010
,  // measure 40
0001
0000
0000
0100
0000
0000
0010
0000
,  // measure 41
1000
0001
0010
0001
,  // measure 42
0100
0000
0000
0010
0000
0000
1000
0000
0000
0100
0000
0100
,  // measure 43
0010
0001
1000
0100
,  // measure 44
1000
0000
0000
0001
0000
0000
0010
0000
,  // measure 45
0001
0100
0010
1000
,  // measure 46
0100
0000
0000
0010
0000
0000
0001
0000
0000
0100
0000
0001
,  // measure 47
0100
0010
1000
0100
,  // measure 48
1000
0001
0010
0001
,  // measure 49
0100
0010
1000
0100
,  // measure 50
0001
0100
1000
0010
,  // measure 51
0200
0300
0020
0030
,  // measure 52
0002
0003
1000
0010
,  // measure 53
2000
3000
0020
0030
,  // measure 54
0200
0300
0002
0003
,  // measure 55
0020
0030
0200
0300
,  // measure 56
2000
3000
0001
0010
,  // measure 57
0002
0003
0200
0300
,  // measure 58
0020
0030
2000
3000
,  // measure 59
0100
0010
0001
0011
,  // measure 60
0001
0100
0010
0110
,  // measure 61
0010
1000
0100
1100
,  // measure 62
0100
0010
0001
0011
,  // measure 63
0001
0100
0010
1000
,  // measure 64
0100
1000
0001
0010
,  // measure 65
0001
0100
0010
1000
,  // measure 66
0100
0001
0100
1000
,  // measure 67
0010
1000
1100
1001
,  // measure 68
0001
0010
0011
0101
,  // measure 69
0100
0010
0110
1010
,  // measure 70
1000
0100
1100
0110
,  // measure 71
0011
0001
0100
0010
,  // measure 72
1000
0100
0010
0001
,  // measure 73
1000
0010
1000
0001
,  // measure 74
0010
0000
0000
0001
0000
0000
0100
0000
0000
0010
1000
0001
,  // measure 75
0200
0000
0000
0000
,  // measure 76
0300
0000
0000
0000
;
