#TITLE:Battle I;
#SUBTITLE:;
#ARTIST:植松伸夫;
#TITLETRANSLIT:;
#SUBTITLETRANSLIT:;
#ARTISTTRANSLIT:Nobuo Uematsu;
#CREDIT:;
#BANNER:;
#BACKGROUND:Battle I-bg.jpg;
#LYRICSPATH:;
#CDTITLE:;
#MUSIC:18 - Battle 1.mp3;
#OFFSET:0.380;
#SAMPLESTART:45.680;
#SAMPLELENGTH:12.000;
#SELECTABLE:YES;
#BPMS:0.000=160.060;
#STOPS:;
#BGCHANGES:;

//---------------dance-single - ----------------
#NOTES:
     dance-single:
     :
     Easy:
     4:
     0.242,0.261,0.012,0.071,0.000:
0000
0000
0000
0000
,
0000
0000
0000
0000
,
0000
0000
0000
0000
,
0001
0001
0001
0001
,
0100
0100
0100
0100
,
0010
0010
0010
0010
,
1000
1000
1000
1000
,
0001
0000
0000
1000
0000
0000
0001
0000
,
0100
0010
1000
0100
,
0000
0100
0000
0000
0100
0000
0000
0010
,
0000
0010
0010
0001
,
0001
0001
0001
1000
,
1000
1000
1000
0010
,
0010
0010
0010
0100
,
0100
0100
0100
0001
,
0000
0001
0000
0000
0000
0000
1000
0000
,
0000
1000
0000
0000
0000
0000
1000
0000
,
1000
0100
0100
0010
,
0010
0001
0001
0100
,
0000
0100
0000
0000
0000
0000
0010
0000
,
0000
0010
0000
0000
0000
0000
1000
0000
,
1000
0100
0100
0010
,
0010
0001
0001
1000
,
0000
0001
0000
0000
0000
0000
1000
0000
,
0000
0001
0000
0000
0000
0000
1000
0000
,
1000
0010
0010
0100
,
0100
0001
0001
0100
,
0000
0100
0000
0000
0010
0000
1000
0000
,
0000
1000
0000
0000
0001
0000
1000
0000
,
0100
0001
0100
1000
,
0100
0001
0100
1000
,
0000
1000
0000
0000
2000
0000
0000
0000
,
0000
0000
0000
3001
,
0000
0001
0000
0000
0002
0000
0000
0000
,
0000
0000
0003
0100
,
0000
0100
0000
0000
0010
0000
1000
0000
,
0000
0001
0000
0000
1000
0000
0100
0000
,
0000
0010
0000
0000
0001
0000
0100
0000
,
0000
0010
0000
0000
1000
0000
0100
0000
,
0000
0100
0000
0000
0100
0000
0020
0000
,
0000
0000
0000
0031
,
0001
1000
1000
0002
,
0000
0000
0000
0000
0000
0003
0100
0000
,
0000
0100
0000
0000
0010
0000
1000
0000
,
0000
1000
0000
0000
0001
0000
2000
0000
,
0000
0000
0000
0000
,
0000
0000
3100
0020
,
0000
0000
0000
0031
,
0001
0001
0001
1001
;

//---------------dance-single - ----------------
#NOTES:
     dance-single:
     :
     Medium:
     6:
     0.351,0.377,0.214,0.262,0.000:
0000
0000
0000
0000
,
0000
0000
0000
0000
,
0000
0000
0000
0000
,
0001
0100
1000
0100
,
0001
0000
0001
0010
0000
0010
0100
0000
,
1000
0100
0001
0100
,
1000
0000
1000
0010
0000
0010
0100
0000
,
1010
0000
0000
0101
0000
0000
0110
0000
,
1001
0001
0100
0002
,
0000
2003
0000
0000
3020
0000
0000
0230
,
0000
0302
1003
0001
,
0001
0100
0010
1000
,
1000
0001
0000
0001
0010
0000
0100
0000
,
0100
0010
0001
1000
,
0100
0010
0000
0010
0001
0000
0001
0000
,
0000
1001
0000
0000
0001
0000
1000
0000
,
0000
1100
0000
0100
0010
0001
2000
0000
,
0000
3002
0000
0000
0100
0000
0100
0000
,
0100
0100
0103
0001
,
0000
0101
0000
0000
0010
0000
1000
0000
,
0000
1100
0000
0000
0010
0000
0002
0000
,
1000
1000
1000
1000
,
1000
1000
1003
0001
,
0000
1001
0000
0000
0010
0000
0001
0000
,
0000
0101
0000
0001
1000
0100
0020
0000
,
0000
0032
0000
0000
0100
0000
0100
0000
,
0100
0100
0103
0010
,
0000
1010
0000
0000
1000
0000
0001
0000
,
0000
0101
0000
0000
0001
0000
2000
0000
,
0010
0010
0010
0010
,
0010
0000
3010
0000
0110
0000
1000
0100
,
0001
0100
1000
0010
0200
0000
0000
0000
,
0000
0000
0000
0000
0000
0000
0301
0100
,
1000
0100
0001
0010
0200
0000
0000
0000
,
0000
0000
0000
1300
,
0000
1001
0000
0000
1000
0000
0010
0000
,
0000
0110
0000
0000
0010
0000
0100
0000
,
0000
0101
0000
0001
0010
0100
1000
0000
,
0000
2002
0000
0000
3003
0000
2000
0000
,
0000
3002
0000
0000
0203
0000
0320
0000
,
0000
0000
0000
0000
0000
0000
0130
0001
,
1000
0100
0010
0001
1000
0200
0000
0000
,
0000
0000
0000
1300
,
0000
1000
0000
1000
0001
0000
0001
0000
,
0000
0001
0000
0001
1000
0000
0020
0000
,
0100
0000
0100
0000
,
0100
0000
0130
0200
,
0010
0000
0010
0310
,
1000
0100
0010
1001
;

//---------------dance-couple - ----------------
#NOTES:
     dance-couple:
     :
     Medium:
     5:
     0.487,0.748,0.762,0.000,0.095:
00000000
00000000
00000000
00000000
,
00000000
00000000
00000000
00000000
,
00000000
00000000
00000000
00000000
,
01100110
00000000
00000000
10001000
00000000
01000100
00000000
00000000
,
00010001
00010001
00000000
10001000
01000100
00000000
00000000
00010001
,
00000000
00110011
00000000
00000000
10001000
01000100
00000000
00100010
,
00000001
00000100
00000001
00100000
,
10000000
01000000
00000010
00001000
,
00001000
01000000
00010000
00010000
,
00000100
00000100
00000000
00100000
,
00100000
00000000
00001000
00001000
,
00000000
00010000
00010000
00000000
,
00001001
00000000
00000010
00000100
00000010
00000000
01100000
00000000
,
00010000
10000000
00010000
00000000
00001001
00000000
00000010
00000001
,
00000100
00000000
01100000
00000000
10000000
00010000
01000000
00000000
,
10000000
00000000
00100000
01000000
00000000
00100000
01000000
00000000
00010000
00000000
00000000
00000000
00000001
00000000
00000010
00000100
,
00000000
00000010
00000100
00000000
00001000
00000000
00000000
00000000
00010000
00000000
00100000
01000000
00000000
00100000
01000000
00000000
,
10000000
00000000
00000000
00000000
00001000
00000000
00000010
00000100
00000000
00000010
00000100
00000000
00000001
00000000
00000000
00000000
,
00100000
10000000
01000000
00010000
,
00100000
10010000
00000010
00001000
,
00000100
00000001
00000010
00001001
,
00100000
10000000
01000000
00010000
,
00100000
01000000
00100000
00000000
00000010
00000000
00001000
00000000
,
00000100
00000000
00000001
00000000
00000010
00000100
00000010
00000000
,
10011001
00000000
00000000
01100110
00000000
10011001
00000000
00000000
,
01010101
11001100
00000000
10011001
00000000
00000000
00010000
00000000
,
00000000
00000000
00000100
00000000
,
00000000
10000000
00000000
00000000
,
00000010
00000000
00100000
01000000
,
00010000
00001000
00000001
00000100
,
10000000
01000000
00100000
00000010
,
00001000
00000000
00000001
00000000
00100000
00010000
01000000
00000000
,
00010000
00000000
00000010
00000100
00000010
00000000
00001000
00000000
,
00100000
01000000
00100000
00000000
10000000
00000000
00000001
00000100
,
00000010
00000000
00000000
00000000
00001000
00000000
00000000
00000000
10000000
00000000
00100000
01000000
00000000
00100000
01000000
00000000
,
00010000
00000000
00000000
00000000
00001000
00000000
00000010
00000100
00000000
00000010
00000100
00000000
00000001
00000000
00000000
00000000
,
00010000
00000000
00100000
01000000
00000000
00100000
01000000
00000000
10000000
00000000
00000000
00000000
00000001
00000000
00000010
00000100
,
00000000
00000010
00000100
00000000
00001000
00000000
00000000
00000000
00100010
00000000
00000000
00000000
10001000
00000000
00010001
00000000
,
01000100
00010001
00100010
10011001
,
00100010
01000100
00010001
10001000
00100010
01000100
00010001
01000100
,
00100010
00000000
01000100
00000000
00000000
00100010
00000000
00010001
,
00000000
01000100
00000000
10001000
00100010
01000100
00100010
00000000
,
10001000
00010001
01000100
00010001
10001000
00010001
00100010
01000100
,
10001000
00000000
00010001
00000000
10011001
00000000
00000000
10100000
,
00000000
00000101
00000000
00000000
01010000
00001100
00000000
10011001
;

//---------------dance-solo - ----------------
#NOTES:
     dance-solo:
     :
     Easy:
     3:
     0.303,0.321,0.143,0.000,0.000:
000000
000000
000000
000000
,
000000
000000
000000
000000
,
000000
000000
000000
000000
,
000100
000001
001000
100000
,
000100
000100
000100
100000
,
001000
000001
000100
000100
,
000010
000001
010000
100000
,
000010
000001
100001
010000
,
100000
000010
000001
010000
,
100001
000010
000001
010000
,
100000
000010
100001
000100
,
000010
000100
010000
000100
,
000001
000001
001000
100000
,
100000
001000
000001
000001
,
001000
100000
100000
001000
,
000010
000010
001000
010000
,
010000
100001
000010
000010
,
001000
010000
010000
100001
,
000010
010000
000001
100000
,
001000
001000
000001
100000
,
000010
010000
000100
000100
,
000010
010000
000001
100000
,
001000
001000
000001
100000
,
000010
010000
000100
000100
,
001000
000000
000000
000100
000000
001000
000000
000000
,
000010
010000
000000
000100
000000
000000
100001
000000
,
000010
000010
100001
010000
,
010000
100001
000100
000100
,
100001
001000
001000
100001
,
000010
000010
100001
010000
,
010000
100001
000100
000100
,
001000
000000
000100
000010
,
000001
000100
010000
001000
,
000100
000010
000001
000100
,
010000
001000
000100
000010
,
000001
000100
010000
001000
,
000100
000010
000001
000100
,
010000
001000
000100
010000
,
000100
001000
100000
100000
,
000100
000010
000100
001000
,
000001
000001
000100
010000
,
000100
001000
100000
100000
,
000100
000010
000100
001000
,
000001
000000
000001
000000
000100
000000
000000
001000
,
000000
000100
000000
000000
010000
000010
000000
010000
;

//---------------dance-solo - ----------------
#NOTES:
     dance-solo:
     :
     Medium:
     5:
     0.400,0.481,0.334,0.000,0.000:
000000
000000
000000
000000
,
000000
000000
000000
000000
,
000000
000000
000000
000000
,
000100
000000
100001
000000
000010
010000
000010
000000
,
100000
100000
000000
000010
000100
000000
000000
001000
,
000000
100001
000000
000000
010000
000010
000000
000000
,
000101
000010
001000
000001
,
000100
001000
100100
010000
,
001000
100000
000100
001000
,
101000
000100
010000
100000
,
001000
000100
001001
000100
,
000010
000001
001000
000100
,
010000
000000
001000
000000
010000
000001
100000
000000
,
100000
001000
000010
001000
,
000010
100000
000001
000000
000001
000000
001000
000000
,
000100
000000
001000
000000
000100
100000
000001
000000
,
000001
001000
000100
001000
,
000010
010000
000001
000000
000001
000000
001000
000000
,
000100
010000
000100
010000
000100
010000
000100
000100
,
100100
000000
000101
000000
000100
000010
000100
000010
,
000100
000010
000100
000100
000101
000000
100100
000000
,
100000
001000
100000
001000
100000
001000
100000
100000
,
010100
000000
101000
000000
000001
001000
000001
001000
,
000001
001000
000001
000001
000110
000000
001001
000000
,
010010
000000
000000
001100
000000
100001
000000
000000
,
000010
000010
000000
001000
000000
000000
100001
000000
,
000000
001000
000100
000000
100001
000000
000000
001000
,
000100
000000
100001
000000
000000
000100
001000
000000
,
100001
000000
000000
000100
001000
000000
001010
000000
,
000000
100000
001000
000000
011000
000000
000000
000001
,
001000
000000
001010
000000
000000
100000
001000
000000
,
010010
000000
000100
000001
,
010000
001000
000010
000000
000010
000000
001000
000000
,
000100
000000
100000
000000
000010
001000
010000
000000
,
010000
001000
000100
000001
,
010000
001000
000010
000000
000001
000000
001000
000000
,
000100
000000
100000
000000
000010
001000
010000
000000
,
100000
000000
001000
000000
000100
000001
000100
000010
,
000100
000001
000100
000010
100000
000000
100000
000000
,
000100
100000
000100
010000
000100
100000
000100
010000
,
000001
000000
000001
000000
010000
000010
010000
000100
,
010000
000010
010000
000100
100000
000000
100000
000000
,
000010
010000
000010
000100
000010
010000
000010
000100
,
000001
000000
000001
000000
010010
000000
000000
001100
,
000000
100001
000000
000000
000010
000010
000000
010000
;

//---------------dance-solo - ----------------
#NOTES:
     dance-solo:
     :
     Hard:
     7:
     0.527,0.534,0.881,0.000,0.191:
000000
000000
000000
000000
,
000000
000000
000000
000000
010010
000000
000000
000101
,
000000
100100
000000
000000
000010
000010
000000
010000
,
010000
000000
000000
000000
000100
010000
000001
000000
,
001000
001000
000000
000001
100000
000000
000000
000101
,
000000
100100
000000
000000
100010
010001
000000
001001
,
101000
000100
010000
100000
,
000001
001000
110000
000100
,
000010
000001
100000
001000
,
000011
000100
010000
100000
,
000001
001000
110000
000100
,
000010
000001
100000
001000
,
000100
000000
000001
001000
000000
000001
001000
000000
000010
000000
010000
000000
001000
000000
100000
001000
,
000000
100000
001000
000000
100000
000000
000000
000000
000100
000000
100000
001000
000000
100000
001000
000000
,
010000
000000
000010
000000
001000
000000
000001
001000
000000
000001
001000
000000
000001
000000
000000
000000
,
100000
000000
000001
000100
000000
000001
000100
000000
000010
000000
010000
000000
000100
000000
100000
001000
,
000000
100000
001000
000000
100000
000000
000000
000000
000001
000000
100000
000100
000000
100000
000100
000000
,
010000
000000
000010
000000
000100
000000
000001
001000
000000
000001
001000
000000
000001
000000
000000
000000
,
000101
000000
100100
000000
101000
000000
001001
000001
,
010000
000010
100100
000101
,
001001
000000
101000
100000
000010
000000
010000
000000
,
000110
000000
101000
000000
001001
000000
010100
000100
,
000011
110000
010100
001001
,
101000
000000
000110
000100
110000
000000
000011
000000
,
001000
000000
000000
101000
000000
001001
000000
000000
,
000100
000100
000000
010010
000000
000000
000100
000000
,
000000
100010
010001
000000
000100
000000
000000
101000
,
001001
000000
000100
000000
000000
000101
100100
000000
,
000100
000000
000000
001010
011000
000000
001100
000000
,
000000
000010
000010
000000
001100
000000
000000
010000
,
010000
000000
001100
000000
000000
010000
000010
000000
,
000000
000000
000000
000000
000000
000000
000000
000000
000100
000000
000001
001000
000000
000001
001000
000000
,
000010
000000
010000
000000
000010
000000
100000
001000
000000
100000
001000
000000
100000
000000
000000
000000
,
000100
000000
100000
001000
000000
100000
001000
000000
010000
000000
000010
000000
010000
000000
000001
001000
,
000000
000001
001000
000000
000001
000000
000000
000000
100000
000000
000001
000100
000000
000001
000100
000000
,
000010
000000
010000
000000
000100
000000
100000
001000
000000
100000
001000
000000
100000
000000
000000
000000
,
000001
000000
100000
000100
000000
100000
000100
000000
010000
000000
000010
000000
000100
000000
000001
001000
,
000000
000001
001000
000000
000001
000000
000000
000000
000011
000000
000000
000000
010010
000000
000000
000000
,
110000
000000
100001
100000
000101
000000
101000
000000
,
110000
000000
010010
000000
000011
000000
100001
000001
,
100100
001001
000110
101000
,
001001
000000
010100
010000
000101
000000
100100
000000
,
010100
000000
001001
000000
101000
000000
000110
000010
,
100100
000000
000101
000000
001100
000000
000000
101000
,
000000
001001
000000
000000
000100
000100
000000
010010
;

//---------------dance-single - Copied from Copied f----------------
#NOTES:
     dance-single:
     Copied from Copied f:
     Hard:
     8:
     0.507,0.465,0.310,0.167,0.000: // measure 1
0000
0000
0000
0000
,  // measure 2
0000
0000
0000
0000
,  // measure 3
0000
0000
0000
0000
,  // measure 4
1000
0001
0010
0000
0001
0100
0000
0100
,  // measure 5
0010
0000
0010
1000
0000
1000
0002
0000
,  // measure 6
1003
0001
0100
0000
0010
1000
0000
1000
,  // measure 7
0010
0000
0010
0100
0000
0100
0001
0000
,  // measure 8
0001
0100
1000
0100
0001
0010
0100
0000
,  // measure 9
1000
0000
0001
0100
0010
1000
0002
0000
,  // measure 10
0000
2003
0000
0000
3020
0000
0000
0230
,  // measure 11
0000
0000
0320
0000
1030
0000
1000
0001
,  // measure 12
0100
0000
0001
0100
0000
0100
0001
0000
,  // measure 13
0001
0010
0000
0010
0200
0000
0310
0001
,  // measure 14
1000
0000
1000
0010
0000
0010
1000
0000
,  // measure 15
1000
0100
0000
0100
1000
0000
1100
0000
,  // measure 16
0000
1001
0000
1000
0001
0100
0101
0000
,  // measure 17
0000
1001
0000
0001
0010
0001
1000
0010
,  // measure 18
1000
0010
1000
0010
0100
0010
0100
0001
,  // measure 19
0100
0001
0100
0001
0100
0010
0110
0000
,  // measure 20
0000
1010
0000
0000
1001
0000
0101
0000
,  // measure 21
0000
0011
0000
0001
1000
0001
0100
0001
,  // measure 22
0100
0001
0100
0001
1000
0100
1000
0010
,  // measure 23
1000
0010
1000
0010
0100
0010
1010
0000
,  // measure 24
0000
1001
0000
1000
0001
0100
0101
0000
,  // measure 25
0000
1001
0000
0001
0010
0100
1000
0100
,  // measure 26
0001
0100
1000
0010
0001
0010
1000
0010
,  // measure 27
0100
0001
1000
0001
0010
0001
0101
0000
,  // measure 28
0000
1001
0000
0000
0011
0000
0101
0000
,  // measure 29
0000
1001
0000
1000
0100
0010
0001
0100
,  // measure 30
1000
0100
0001
0010
1000
0010
0001
0100
,  // measure 31
0010
1000
0100
0010
0002
0000
1003
0010
,  // measure 32
0100
0001
0100
0010
2000
0000
0001
0000
,  // measure 33
0001
0001
0000
0001
0001
0000
3001
0100
,  // measure 34
0010
1000
0010
0100
0002
0000
1000
0000
,  // measure 35
1000
1000
0000
1000
1000
0000
1003
0000
,  // measure 36
0001
1000
0000
1000
0010
0000
1000
0000
,  // measure 37
0010
0100
0000
0100
0001
0000
1000
0000
,  // measure 38
1000
0010
0000
0010
0100
0001
1000
0000
,  // measure 39
1000
0100
0000
0100
1000
0000
0101
0000
,  // measure 40
0000
1010
0000
0000
0110
0000
1002
0000
,  // measure 41
1000
1000
0000
1000
1000
0000
1003
0100
,  // measure 42
0001
0100
1000
0001
0100
0020
0000
0000
,  // measure 43
1000
1000
0000
1000
1030
0000
0201
0000
,  // measure 44
0000
0301
0000
0001
0100
0000
2010
0000
,  // measure 45
0000
3010
0000
0010
1000
0000
1001
0000
,  // measure 46
1000
0001
0000
0001
0100
0000
0010
0000
,  // measure 47
0010
0100
0000
0100
0001
0000
1010
0000
,  // measure 48
1000
0100
0000
0100
0010
0000
0001
0010
,  // measure 49
0100
1000
0100
0010
0001
1000
0001
0000
;

//---------------dance-double - Copied from Copied f----------------
#NOTES:
     dance-double:
     Copied from Copied f:
     Hard:
     8:
     0.512,0.465,0.393,0.119,0.000:
00000000
00000000
00000000
00000000
,
00000000
00000000
00000000
00000000
,
00000000
00000000
00000000
00000000
,
10000000
00100000
01000000
00000000
00010000
01000000
00000000
01000000
,
00001000
00000000
00100000
00001000
00000000
00001000
00020000
00000000
,
00030100
00000010
00000001
00000000
00000100
00000001
00000000
00000001
,
00001000
00000000
00000100
00010000
00000000
00010000
00002000
00000000
,
00013000
01000000
00100000
00010000
10000000
00100000
01000000
00000000
,
10010000
00000000
00010000
01000000
00100000
10000000
10010000
00000000
,
00000000
01010000
00000000
00000000
00101000
00000000
00000000
00011000
,
00000000
00000000
00010100
00000000
00000110
00000000
00000001
00000100
,
00000010
00000000
00001000
00000100
00000000
00000100
00010000
00000000
,
00001000
00100000
00000000
00100000
02000000
00000000
03100000
00010000
,
01000000
00000000
00100000
10000000
00000000
10000000
01000000
00000000
,
01000000
00010000
00000000
00010000
00001000
00000000
00011000
00000000
,
00000000
00010100
00000000
00000100
00000010
00000001
00000101
00000000
,
00000000
00001001
00000000
00000001
00000100
00001000
00010000
00001000
,
00010000
00001000
00010000
00001000
00010000
01000000
10000000
00100000
,
10000000
00100000
10000000
00100000
10000000
00010000
10010000
00000000
,
00000000
10100000
00000000
00000000
10010000
00000000
01010000
00000000
,
00000000
00101000
00000000
00010000
00001000
00000100
00000010
00000100
,
00000010
00000100
00000010
00000100
00000001
00000010
00000100
00001000
,
00000100
00001000
00000100
00001000
00000010
00001000
00001010
00000000
,
00000000
00010100
00000000
00010000
00001000
00010000
00011000
00000000
,
00000000
01001000
00000000
00010000
00001000
01000000
00100000
00010000
,
00100000
10000000
00100000
00010000
00100000
10000000
01000000
00010000
,
01000000
10000000
01000000
10000000
00010000
01000000
01010000
00000000
,
00000000
00101000
00000000
00000000
00011000
00000000
00010100
00000000
,
00000000
00000110
00000000
00000001
00000010
00000100
00001000
00000010
,
00000100
00000001
00001000
00000100
00010000
00001000
01000000
00100000
,
10000000
01000000
00100000
00010000
20000000
00000000
30010000
00100000
,
01000000
00100000
00010000
01000000
02000000
00000000
00001000
00000000
,
00001000
00001000
00000000
00001000
00001000
00000000
03001000
00010000
,
00000100
00000010
00000001
00000100
00000020
00000000
00010000
00000000
,
00010000
00010000
00000000
00010000
00010000
00000000
00010030
00000000
,
00001000
00010000
00000000
00010000
00001000
00000000
00100000
00000000
,
00010000
01000000
00000000
01000000
00010000
00000000
00100000
00000000
,
00100000
10000000
00000000
10000000
01000000
00010000
00001000
00000000
,
00001000
00000100
00000000
00000100
00000010
00000000
00001001
00000000
,
00000000
00000101
00000000
00000000
00001010
00000000
00012000
00000000
,
00010000
00010000
00000000
00010000
00010000
00000000
00013000
00001000
,
00000100
00000010
00001000
00000001
00001000
00000200
00000000
00000000
,
00010000
00010000
00000000
00010000
00010300
00000000
00012000
00000000
,
00000000
00013000
00000000
00010000
01000000
00000000
20100000
00000000
,
00000000
30100000
00000000
00100000
10000000
00000000
10010000
00000000
,
10000000
00010000
00000000
00010000
01000000
00000000
00001000
00000000
,
00010000
00001000
00000000
00001000
01000000
00000000
01010000
00000000
,
00010000
01000000
00000000
01000000
00100000
00000000
10000000
00010000
,
01000000
00001000
00100000
00001000
00010000
00000100
00001000
00000000
;

//---------------dance-double - Copied from----------------
#NOTES:
     dance-double:
     Copied from:
     Medium:
     6:
     0.351,0.377,0.214,0.262,0.000:
00000000
00000000
00000000
00000000
,
00000000
00000000
00000000
00000000
,
00000000
00000000
00000000
00000000
,
10000000
01000000
00010000
00001000
,
00000100
00000000
00000001
00000010
00000000
00000010
00000100
00000000
,
00001000
00000100
00000001
00000100
,
00001000
00000000
00000100
00010000
00000000
00010000
00001000
00000000
,
00011000
00000000
00000000
00101000
00000000
00000000
01100000
00000000
,
10010000
00010000
01000000
00020000
,
00000000
00230000
00000000
00000000
00302000
00000000
00000000
02003000
,
00000000
03200000
10300000
00100000
,
00100000
10000000
00010000
01000000
,
00001000
00010000
00000000
00010000
00001000
00000000
00000100
00000000
,
00000100
00000001
00000010
00000100
,
00000100
00001000
00000000
00001000
00000100
00000000
00010000
00000000
,
00000000
00011000
00000000
00000000
00010000
00000000
00001000
00000000
,
00000000
00101000
00000000
01000000
10000000
00010000
20000000
00000000
,
00000000
30020000
00000000
00000000
00100000
00000000
00100000
00000000
,
00100000
00100000
00130000
00010000
,
00000000
01010000
00000000
00000000
00100000
00000000
10000000
00000000
,
00000000
11000000
00000000
00000000
01000000
00000000
00020000
00000000
,
00001000
00001000
00001000
00001000
,
00001000
00001000
00031000
00000100
,
00000000
00000101
00000000
00000000
00000010
00000000
00010000
00000000
,
00000000
00011000
00000000
00010000
00001000
00000100
00000020
00000000
,
00000000
00002030
00000000
00000000
00000100
00000000
00000100
00000000
,
00000100
00000100
00003100
00010000
,
00000000
00011000
00000000
00000000
00100000
00000000
00010000
00000000
,
00000000
01010000
00000000
00000000
00010000
00000000
20000000
00000000
,
00100000
00100000
00100000
00100000
,
00100000
00000000
30100000
00000000
01100000
00000000
10000000
01000000
,
00010000
00001000
00000100
00000010
00002000
00000000
00000000
00000000
,
00000000
00000000
00000000
00000000
00000000
00000000
00003001
00000100
,
00001000
00010000
01000000
00100000
00020000
00000000
00000000
00000000
,
00000000
00000000
00000000
10030000
,
00000000
10010000
00000000
00000000
10000000
00000000
00100000
00000000
,
00000000
01100000
00000000
00000000
00100000
00000000
01000000
00000000
,
00000000
01010000
00000000
10000000
01000000
00100000
00010000
00000000
,
00000000
20020000
00000000
00000000
30030000
00000000
20000000
00000000
,
00000000
30200000
00000000
00000000
00320000
00000000
00032000
00000000
,
00000000
00000000
00000000
00000000
00000000
00000000
00013000
00001000
,
00000100
00000010
00001000
00000001
00001000
00000200
00000000
00000000
,
00000000
00000000
00000000
00000310
,
00000000
00000001
00000000
00000001
00000100
00000000
00000100
00000000
,
00000000
00001000
00000000
00001000
00010000
00000000
00002000
00000000
,
00010000
00000000
00010000
00000000
,
00010000
00000000
00013000
02000000
,
00100000
00000000
00100000
03100000
,
00010000
00100000
01000000
10010000
;

//---------------dance-double - Copied from----------------
#NOTES:
     dance-double:
     Copied from:
     Easy:
     4:
     0.242,0.261,0.012,0.071,0.000:
00000000
00000000
00000000
00000000
,
00000000
00000000
00000000
00000000
,
00000000
00000000
00000000
00000000
,
10000000
10000000
10000000
10000000
,
00100000
00100000
00100000
00100000
,
01000000
01000000
01000000
01000000
,
00001000
00001000
00001000
00001000
,
00010000
00000000
00000000
00000100
00000000
00000000
00000010
00000000
,
00000001
00000100
00001000
00010000
,
00000000
00010000
00000000
00000000
00010000
00000000
00000000
00001000
,
00000000
01000000
01000000
00100000
,
00100000
00100000
00100000
10000000
,
10000000
10000000
10000000
00010000
,
00010000
00010000
00010000
01000000
,
01000000
01000000
01000000
00001000
,
00000000
00001000
00000000
00000000
00000000
00000000
00000100
00000000
,
00000000
00000100
00000000
00000000
00000000
00000000
00000001
00000000
,
00000001
00000010
00000010
00000100
,
00000100
00001000
00001000
00000010
,
00000000
00000010
00000000
00000000
00000000
00000000
00010000
00000000
,
00000000
00010000
00000000
00000000
00000000
00000000
00010000
00000000
,
00010000
00001000
00001000
00100000
,
00100000
00010000
00010000
10000000
,
00000000
00010000
00000000
00000000
00000000
00000000
01000000
00000000
,
00000000
00010000
00000000
00000000
00000000
00000000
01000000
00000000
,
01000000
00001000
00001000
00010000
,
00010000
00000010
00000010
00000100
,
00000000
00000100
00000000
00000000
00000010
00000000
00001000
00000000
,
00000000
00001000
00000000
00000000
00000001
00000000
00001000
00000000
,
00000100
00000001
00000100
00010000
,
00001000
00001000
01000000
00100000
,
00000000
00100000
00000000
00000000
00200000
00000000
00000000
00000000
,
00000000
00000000
00000000
10300000
,
00000000
10000000
00000000
00000000
20000000
00000000
00000000
00000000
,
00000000
00000000
00000000
31000000
,
00000000
01000000
00000000
00000000
00100000
00000000
00010000
00000000
,
00000000
00010000
00000000
00000000
01000000
00000000
00001000
00000000
,
00000000
00001000
00000000
00000000
00010000
00000000
00000100
00000000
,
00000000
00000100
00000000
00000000
00001000
00000000
00000010
00000000
,
00000000
00000010
00000000
00000000
00000010
00000000
00000200
00000000
,
00000000
00000000
00000000
00000301
,
00000001
00001000
00001000
00000200
,
00000000
00000000
00000000
00010300
,
00000000
00010000
00000000
00000000
00001000
00000000
01000000
00000000
,
00000000
01000000
00000000
00000000
00100000
00000000
20000000
00000000
,
00000000
00000000
00000000
00000000
,
00000000
00000000
31000000
00200000
,
00000000
00000000
00000000
00310000
,
00010000
00010000
00010000
10010000
;
