#TITLE:Air Crash;
#SUBTITLE:[Another];
#ARTIST:Mark Mothersbaugh & Josh Mancell;
#TITLETRANSLIT:;
#SUBTITLETRANSLIT:;
#ARTISTTRANSLIT:;
#GENRE:;
#CREDIT:TaroNuke;
#BANNER:Air Crash-bn.png;
#BACKGROUND:Air Crash-bg.png;
#LYRICSPATH:;
#CDTITLE:;
#MUSIC:Air Crash.ogg;
#OFFSET:0.000;
#SAMPLESTART:5.374;
#SAMPLELENGTH:12.000;
#SELECTABLE:YES;
#BPMS:0.000=178.710;
#STOPS:;
#BGCHANGES:;
#KEYSOUNDS:;

//---------------dance-single - TaroNuke----------------
#NOTES:
     dance-single:
     TaroNuke:
     Hard:
     8:
     0.656,0.966,0.394,0.585,0.069:
0000
0000
0000
0000
,
0000
0000
0000
0000
,
0000
0000
0000
0000
,
0000
0000
0000
0000
,
1000
0000
0000
0001
0000
0100
0000
0001
,
0100
1000
0100
0001
1000
0000
0000
1000
,
0001
0000
0000
0100
0000
0010
0000
0100
,
0001
0010
0100
1000
0001
0010
0100
1000
,
0001
0000
0000
1000
0000
0010
0000
0100
,
0001
0000
0000
1000
0000
0010
0000
1000
,
0100
0110
0010
0011
,
1100
0000
0000
0110
0000
0000
0011
0000
,
0001
0000
0100
0001
0100
0000
0010
0000
,
1000
0000
0100
1000
0100
0000
1000
0000
,
0100
0000
0010
0001
0100
0000
0010
0000
,
1000
0000
0100
1000
0010
0000
0100
0000
,
0001
0000
0101
0000
0001
0100
0001
0000
,
1000
0000
1100
0000
1000
0100
1000
0000
,
0010
0000
1010
0000
1000
0010
1000
0000
,
0001
0000
1001
0000
1000
0001
1000
0000
,
0010
0000
0110
0000
0100
0010
0100
0010
,
1000
0000
1010
0000
0010
1000
0100
0010
,
0001
0000
0011
0000
0001
0010
0001
0100
,
0010
0000
0110
0000
0010
1000
0010
1000
,
0100
0000
0011
0000
0000
0000
0001
0010
,
0100
0000
1100
0000
0000
0000
1000
0100
,
0001
0100
1000
0000
0010
0100
0000
0101
,
0000
0001
0100
0001
0100
0010
1000
0100
,
0020
0000
0032
0000
,
0203
0000
0000
0000
0000
0000
1300
0100
,
0002
0000
0000
0000
0023
0230
2300
3002
,
0203
0320
2030
3200
0320
0032
2003
3020
,
1030
0100
0000
1000
0000
0100
0000
0100
,
1000
0100
0010
0001
0100
0010
1000
0100
,
0010
0001
0000
0110
0000
1100
0000
1000
,
0001
0100
0000
0011
0000
1100
0000
0010
,
0100
0000
0101
0000
1000
0100
0000
0110
,
0000
0000
0010
0001
0100
0000
1010
0000
,
1000
0010
1000
0010
1000
0010
1000
0010
,
0100
0010
0100
0010
0100
0010
0100
0010
,
0100
0001
0100
0001
0100
0001
0100
0001
,
0020
0000
0000
0000
0000
0000
0000
0030
,
0001
0010
0001
0010
0100
0000
1000
0010
,
0000
0100
0000
0001
0010
0100
1000
0010
,
0200
0300
0002
0003
,
2200
0000
0000
0000
0000
3300
0011
0000
,
1000
0000
0000
1000
0100
0000
0000
0100
0010
0000
0000
0010
0001
0000
0000
0001
,
0100
0000
0001
0000
0000
1000
0010
0000
1000
0000
0000
0010
0100
0000
0001
0000
,
0100
0000
0000
0100
0001
0000
0000
0001
0100
0000
0000
0100
1000
0000
0000
1000
,
0100
0000
0010
0000
0000
0100
0001
0000
0010
0000
0000
1000
0010
0000
0001
0000
,
1002
1000
1000
1000
,
1000
1000
1000
1000
,
2003
0000
0000
0000
3200
0320
0032
0203
,
0320
2030
3020
0230
0302
0023
0230
2300
,
3001
0000
0001
0100
0000
0100
0010
0000
,
2000
3020
0032
0023
,
0130
0000
0100
0010
0000
0010
1000
0010
,
0100
0000
0100
0001
0000
0001
0100
0000
,
M01M
0000
0100
1000
0000
1000
0100
0000
,
0001
0010
0001
0000
1000
0100
1000
0000
,
1010
0000
1000
0001
0000
0001
0100
0000
,
0110
0000
0000
0000
0010
0000
1000
0000
0001
0000
1000
0100
1000
0000
0001
0000
,
2001
0000
3002
0000
,
0203
0000
0000
0000
,
0320
0000
0000
0000
0230
0302
0203
2300
,
3200
0320
2030
3200
0302
0203
0320
0032
,
0103
0000
0110
0000
,
1010
0000
1100
0110
,
0000
0011
0000
1001
,
0110
0000
1001
0000
0001
0010
0100
1000
;

//---------------dance-single - TaroNuke----------------
#NOTES:
     dance-single:
     TaroNuke:
     Medium:
     6:
     0.418,0.596,0.043,0.362,0.000:
0000
0000
0000
0000
,
0000
0000
0000
0000
,
0000
0000
0000
0000
,
0000
0000
0000
0000
,
1000
0000
0100
0010
0100
0000
0010
0000
,
0001
0000
0010
0100
0010
0000
0100
0000
,
1000
0000
0010
0100
0010
0000
0100
0000
,
0001
0000
0100
0010
0100
0000
0010
0000
,
1000
0000
0000
0100
0000
0010
0000
0001
,
1000
0000
0000
0010
0000
0100
0000
0010
,
1000
1100
0010
0011
,
0001
0000
0000
0100
0000
0000
0010
0000
,
1000
0000
0100
0010
0100
0000
0010
0000
,
0001
0000
0010
0100
0010
0000
0100
0000
,
1000
0000
0010
0100
0010
0000
0100
0000
,
0001
0000
0010
0100
0010
0100
0010
0100
,
1000
0000
1000
0000
0000
0000
0000
1000
,
0010
0000
0010
0000
0000
0000
0000
0010
,
0100
0000
0100
0000
0000
0000
0000
0100
,
0001
0000
0001
0000
0000
0000
0000
0100
,
1000
0000
1000
0000
0000
0000
0000
0100
,
0001
0000
0001
0000
0000
0000
0000
0010
,
1000
0000
1000
0000
0000
0000
0000
0010
,
0100
0000
0100
0000
0000
0000
0000
1000
,
0001
0000
0001
0000
0000
0000
0010
0100
,
1000
0000
1000
0000
0000
0000
0100
0010
,
0001
0010
0100
0000
1000
0010
0000
1010
,
0000
1000
0100
1000
0100
0010
0001
0010
,
0002
0000
2003
0000
,
3020
0000
0000
0000
,
0230
0000
0000
0300
M002
0M00
00M0
0M00
,
M000
0M00
00M0
0M00
M000
0M00
00M0
0M00
,
1003
0001
0000
1000
0000
0001
0000
1000
,
0001
0100
0010
0100
,
0001
0100
0000
0010
0000
1000
0000
0100
,
1000
0100
0000
0010
0000
0001
0000
0010
,
0001
0100
0010
0000
1000
0100
0000
0020
,
0000
0000
0030
0000
,
0002
0100
0100
0100
,
2003
0010
0010
0010
,
3200
0001
0001
0001
,
0320
0000
0000
0030
,
0001
0010
0001
0010
0001
0000
0011
0000
,
0001
0100
0010
1000
,
0100
0010
0100
1000
,
0002
0000
0003
1000
,
0100
0000
0000
0010
0100
0000
0001
0100
,
2000
0000
0000
0000
3000
0000
0010
0100
,
0001
0000
0000
0010
0100
0000
0001
0100
,
2000
0000
0000
0000
3000
0000
0010
0100
,
0002
0000
0000
0000
,
0000
0000
0000
0000
,
2003
0000
0000
0000
302M
0M00
M000
0M00
,
000M
0M00
M000
0M00
000M
0M00
M000
000M
,
0130
0000
0010
0100
0010
0000
1000
0000
,
0001
0000
0100
0010
0100
0000
0001
0000
,
1000
0000
0010
0100
0010
0000
1000
0000
,
0001
0000
0100
0010
1000
0000
0010
0100
,
0001
0100
0010
0100
,
0001
0010
0100
0010
,
0001
0000
0100
0010
0100
0000
0010
0000
,
1000
0000
0100
1000
0100
0000
0010
0000
,
0002
0000
2003
0000
,
3020
0000
0000
0000
,
0230
0000
0000
0000
03M2
0M00
M000
0M00
,
00M0
0M00
M000
0M00
00M0
0M00
M000
00M0
,
0203
0300
0000
0000
0020
0030
0000
0000
,
2000
3000
0000
0000
0200
0300
0020
0030
,
0000
0000
0002
0003
0000
0000
2000
3000
,
0200
0300
0020
0030
0002
0023
0230
2300
,
3000
0000
0000
0000
;

//---------------dance-single - Trnk----------------
#NOTES:
     dance-single:
     Trnk:
     Beginner:
     2:
     0.195,0.222,0.096,0.064,0.000:
0000
0000
0000
0000
,
0000
0000
0000
0000
,
0000
0000
0000
0000
,
0000
0000
0000
0000
,
1000
0000
1000
0000
,
0010
0000
0010
0000
,
0100
0000
0100
0000
,
0001
0000
0001
0000
,
1000
0000
0100
0000
,
0001
0000
0010
0000
,
1000
0000
0010
0000
,
0001
0000
0100
0000
,
1000
0000
1000
0000
,
0001
0000
0001
0000
,
1000
0000
1000
0000
,
0001
0000
0100
0000
,
0010
0010
0000
0000
,
0100
0100
0000
0000
,
0001
0001
0000
0000
,
1000
1000
0000
0000
,
0100
0100
0000
0000
,
0010
0010
0000
0000
,
0001
0001
0000
0000
,
1000
1000
0000
0000
,
0010
0010
0000
0000
,
0100
0100
0000
0000
,
0001
0000
1000
0000
,
0001
0000
0000
0000
,
1001
0000
1001
0000
,
1001
0000
0000
0000
,
0110
0000
0220
0000
,
0000
0000
0330
0000
,
0001
0000
0001
0000
,
0100
0000
0100
0000
,
0010
0000
0010
0000
,
0010
0000
0010
0000
,
1000
0000
0100
0000
,
0010
0000
0000
0000
,
0100
0000
0000
0000
,
0001
0000
0000
0000
,
1000
0000
0000
0000
,
0010
0000
0000
0000
,
0100
0010
0100
0000
,
0001
0000
1000
0000
,
0010
0000
1000
0000
,
0100
0000
0000
0000
,
1000
0000
0100
0000
,
0001
0000
0000
0000
,
1000
0000
0010
0000
,
0001
0000
0000
0000
,
0110
0000
0000
0000
,
0000
0000
0000
0000
,
1001
0000
0220
0000
,
0000
0000
0330
0000
,
0001
0000
0001
0000
,
0100
0000
0001
0000
,
1000
0000
1000
0000
,
0010
0000
0010
0000
,
0100
0000
0100
0000
,
0001
0000
1000
0000
,
0010
0000
0010
0000
,
0100
0000
0100
0000
,
0001
0000
0100
0000
,
0010
0000
0000
0000
,
1000
0000
0220
0000
,
0000
0000
0330
0000
,
1000
0000
0100
0000
,
0010
0000
0001
0000
,
1000
0000
0100
0000
,
0010
0000
0001
0000
;

//---------------dance-single - TaroNuke----------------
#NOTES:
     dance-single:
     TaroNuke:
     Easy:
     4:
     0.375,0.483,0.106,0.298,0.000:
0000
0000
0000
0000
,
0000
0000
0000
0000
,
0000
0000
0000
0000
,
0000
0000
0000
0000
,
1000
0010
0100
0010
,
1000
0100
0010
0001
,
1000
0100
0010
0100
,
1000
0010
0100
0001
,
1000
1000
0001
0001
,
0100
0100
0010
0010
,
1000
0001
1000
0010
,
1100
0000
0000
0110
0000
0000
0011
0000
,
0001
0100
0010
0100
,
0001
0010
0100
1000
,
0001
0010
0100
0010
,
0001
0100
0010
1000
,
0100
0100
0000
0000
,
0010
0010
0000
0000
,
1000
1000
0000
0000
,
0001
0001
0000
0000
,
0100
0100
0000
0000
,
0010
0010
0000
0000
,
0001
0001
0000
0000
,
1000
1000
0000
0000
,
0010
0010
0000
0000
,
0100
0100
0000
0000
,
0001
0100
1000
0100
,
0001
0010
0100
1000
,
0002
0000
0023
0000
,
0230
0000
0000
0000
,
1300
0000
2000
3200
,
0320
0032
0023
0230
,
1300
1000
0001
0001
,
1000
0100
0010
0001
,
0100
0010
0100
0001
,
1000
0010
0100
0010
,
1000
1000
0100
0010
,
0001
0001
0100
0001
,
0100
0010
0100
0010
,
1000
0010
1000
0010
,
0100
0001
0100
0001
,
0020
0000
0000
0030
,
0001
0010
0001
0010
0001
0000
0100
0000
,
0010
0100
0001
1000
,
0100
0010
0100
1000
,
0200
0000
0000
0302
,
1003
0100
1000
0100
,
1000
0000
0000
0000
0000
0000
0010
0100
,
0010
0100
0010
0100
,
0010
0000
0000
0000
0000
0000
1000
0100
,
2000
0000
0000
0000
,
0000
0000
0000
0000
,
3001
0000
0002
0023
,
0230
2300
3200
0320
,
0031
0000
0000
0110
0000
0000
0010
0000
,
0001
0010
1000
0010
,
0001
0000
0000
0110
0000
0000
1000
0000
,
0010
0000
0000
1010
0000
0000
1000
0000
,
0100
0000
0000
0110
0000
0000
0100
0000
,
1000
0100
0001
0100
,
1000
0000
0000
1010
0000
0000
0010
0000
,
0100
0000
0000
0101
0000
0000
0010
0000
,
0012
0000
0023
0000
,
0230
0000
0000
0000
,
1300
0000
2000
3020
,
0230
0302
0203
0320
,
1030
0000
0100
0000
,
0010
0000
0001
1000
,
0000
0100
0000
0010
,
0001
0000
1000
0000
0001
0010
0100
1000
;

//---------------dance-double - Blank----------------
#NOTES:
     dance-double:
     Blank:
     Hard:
     9:
     0.571,0.595,0.372,0.170,0.069:
00000000
00000000
00000000
00000000
,
00000000
00000000
00000000
00000000
,
00000000
00000000
00000000
00000000
,
00000000
00000000
00000000
00000000
,
00011000
00000000
00000000
00001000
00000000
00010000
00000000
00001000
,
00100000
01000000
00100000
00010000
00100000
00000000
00000000
00001000
,
00010000
00000000
00000000
00001000
00000000
00010000
00000000
00000100
,
00001000
00000100
00000010
00000001
00001000
00000100
00000010
00000001
,
00000100
00000000
00000000
00001000
00000000
00010000
00000000
00001000
,
00100000
00000000
00000000
00001000
00000000
00010000
00000000
00001000
,
00100000
00110000
00100000
01100000
,
11000000
00000000
00000000
01010000
00000000
00000000
00011000
00000000
,
00010100
00000000
00001000
00000010
00001000
00000000
00000010
00000000
,
00000110
00000000
00000100
00000001
00001000
00000000
00001100
00000000
,
00010000
00000000
00001000
01000000
00100000
00000000
10000000
00000000
,
01000000
00000000
00100000
00001000
00100000
00000000
01000000
10000000
,
01000000
00000000
11000000
00000000
00000000
00000000
00000000
00100000
,
00001000
00000000
00101000
00000000
00000000
00000000
00000000
00010000
,
00000100
00000000
00010100
00000000
00000000
00000000
00000000
00000001
,
00000010
00000000
00000011
00000000
00000000
00000000
00000000
00000100
,
00010000
00000000
00010100
00000000
00000000
00000000
00000000
00001000
,
00010000
00000000
00011000
00000000
00000000
00000000
00000000
00000100
,
01000000
00000000
01000100
00000000
00000000
00000000
00000000
00100000
,
00000010
00000000
00100010
00000000
00000000
00000000
00000000
00000001
,
00000010
00000000
00000011
00000000
00000000
00000000
00000100
00010000
,
00001000
00000000
00011000
00000000
00000000
00000000
00010000
00000100
,
00000010
00000100
00001000
00000000
00000100
00010000
00000000
00011000
,
00000000
00001000
01000000
10000000
01000000
00010000
00100000
00001000
,
00020000
00000000
00030200
00000000
,
00002300
00000000
00000000
00000000
,
00003002
00000000
00000000
00000000
00000013
00000100
00010000
00001000
,
00100000
01000000
10000000
00100000
01000000
00001000
00010000
00000010
,
00000200
00000301
00000000
00000100
00000000
00000010
00000000
00000010
,
00001000
00000100
00010000
00001000
00010000
00000100
00001000
00000100
,
00010000
00001000
00000000
00001100
00000000
00000110
00000000
00010000
,
00001000
00010000
00000000
00001100
00000000
00000110
00000000
00000100
,
00010000
00001000
00100000
00001000
00010000
00001000
00000000
00220000
,
00000000
00330000
00100000
00010000
01000000
00000000
00100000
00000000
,
10000000
00100000
10000000
00010000
10000000
00100000
10000000
00010000
,
01000000
00100000
01000000
00001000
01000000
00100000
01000000
00001000
,
00100000
00010000
00100000
00001000
00100000
00010000
00100000
00001000
,
00020000
00000000
00000000
00000000
00030000
00000100
00000001
00000100
,
00010000
00001000
00010000
00001000
00011000
00000000
00010000
00000100
,
00000000
00000010
00000000
00000100
00001000
00000100
00000010
00000001
,
00000010
00000000
00011000
00000000
,
22000000
00000000
03000000
30100000
,
10000000
00000000
00000000
01000000
00100000
00000000
00000000
00001000
00010000
00000000
00000000
00010000
00000100
00000000
00000000
00000100
,
00001000
00000000
00000010
00000000
00000000
00000100
00000001
00000000
00000010
00000000
00000000
00000100
00010000
00000000
00001000
00000000
,
00010000
00000000
00000000
00000100
00000010
00000000
00000000
00000001
00000100
00000000
00000000
00000010
00010000
00000000
00000000
00001000
,
00100000
00000000
00010000
00000000
00000000
10000000
01000000
00000000
00100000
00000000
00000000
00001000
01000000
00000000
00010000
00000000
,
01010000
01000000
00001000
00010000
,
00001000
00000000
00100000
00000000
01000000
00000000
10000000
10000000
,
02000000
00000000
00000000
00000000
13000000
01000000
00100000
00001000
,
00010000
00000100
00000010
00000001
00000100
00000010
00010000
00001000
,
02000000
03000000
01000000
00100000
00000000
00100000
10000000
00000000
,
01000000
00100000
00010000
00100000
,
01000000
00000000
10000000
01000000
00000000
01000000
00100000
00000000
,
00001000
00000000
00010000
00000000
00001000
00010000
00001000
00010000
,
00000100
00000000
00000100
00000010
00000000
00000010
00000100
00000000
,
00001000
00000010
00000001
00000010
,
00001000
00000000
00001000
00000010
00000000
00000010
00000100
00000000
,
00000001
00000000
00000000
00000000
00000100
00000000
00000001
00000000
00000100
00000000
00000001
00000100
00000001
00000000
00000010
00000000
,
00000200
00000000
00002300
00000000
,
00003020
00000000
00000000
00000000
,
00000230
00000000
00000000
00000000
00000301
00000100
00000010
00010000
,
00001000
01000000
00100000
10000000
01000000
00100000
00001000
00010000
,
00001000
00000000
00001100
00000000
,
00000110
00000000
00000101
00000110
,
00000010
00010010
00010000
00010100
,
00000100
00000000
00000010
00000000
00000001
00000010
00000100
00001000
;

//---------------dance-double - TaroNuke----------------
#NOTES:
     dance-double:
     TaroNuke:
     Easy:
     5:
     0.346,0.446,0.170,0.181,0.000:
00000000
00000000
00000000
00000000
,
00000000
00000000
00000000
00000000
,
00000000
00000000
00000000
00000000
,
00000000
00000000
00000000
00000000
,
00010000
00000100
00001000
00000100
,
00000010
00000100
00010000
00001000
,
01000000
00100000
00010000
00100000
,
10000000
01000000
00100000
00010000
,
00001000
00001000
00010000
00010000
,
00000100
00000100
00000010
00000010
,
00000100
00000001
00000100
00000010
,
00000100
00000000
00010100
00000000
,
00010000
00001000
00010000
00000000
,
00100000
01000000
00100000
00000000
,
00010000
00001000
00010000
00000100
,
00000010
00000001
00000100
00000010
,
00001000
00001000
00000000
00000000
,
00000100
00000100
00000000
00000000
,
00010000
00010000
00000000
00000000
,
01000000
01000000
00000000
00000000
,
10000000
10000000
00000000
00000000
,
00100000
00100000
00000000
00000000
,
01000000
01000000
00000000
00000000
,
00001000
00001000
00000000
00000000
,
00010000
00000000
00010000
00000000
00000000
00000000
00010000
00000100
,
00000010
00000000
00000010
00000000
00000000
00000000
00000001
00000010
,
00000001
00000000
00000010
00000000
00000100
00001000
00000000
00011000
,
00000000
00000000
00000000
00000000
,
02000000
00000000
03200000
00000000
,
20300000
00000000
00000000
00000000
,
30002000
00000000
00020000
00000000
,
00000000
00000000
00033000
00000000
,
00000001
00000100
00000001
00000010
,
00000001
00000100
00000010
00000100
,
00000001
00001000
00000010
00000100
,
00000010
00001000
00000100
00010000
,
00001000
00001000
00010000
00001000
,
00100000
00000000
00110000
00000000
,
01000000
10000000
01000000
00000000
,
00100000
00010000
00100000
00000000
,
01000000
10000000
01000000
00000000
,
00200000
00000000
00000000
00000000
,
00301000
00000000
00001000
00000000
00001000
00000000
00010000
00001000
,
00000000
00010000
00000000
00000000
00000100
00000010
00000001
00000010
,
00000100
00000000
00011000
00000000
,
00220000
00030000
00300000
00001000
,
00100000
00000000
00000000
01000000
10000000
00000000
00010000
00100000
,
02000000
00000000
00000000
00000000
03000000
00000000
10000000
01000000
,
00100000
00000000
00000000
01000000
00100000
00000000
00001000
00010000
,
00000100
00000000
00000000
00000000
00000000
00000000
00010000
00001000
,
02000000
00000000
00000000
00000000
,
00000000
00000000
00000000
00000000
,
03002000
00000000
00020000
00000000
,
00000000
00000000
00033000
00000000
,
00010000
00000100
00000010
00000001
,
00000100
00000010
00001000
00000010
,
00000100
00000000
00000100
00000001
00000000
00000001
00000100
00000000
,
00000010
00000000
00010000
00000100
00000000
00000100
00010000
00000000
,
00001000
01000000
00100000
10000000
,
01000000
10000000
00100000
01000000
,
00010000
00000000
01000000
00100000
00000000
00000000
01100000
00000000
,
00001000
00000000
00010000
00001000
00000000
00000000
00101000
00000000
,
00002000
00000000
00023000
00000000
,
00030200
00000000
00000000
00000000
,
00020300
00000000
00002000
00000000
,
00000000
00000000
00033000
00000000
,
00011000
00000000
00010100
00000000
,
00101000
00000000
00011000
00011000
,
00000000
00010010
00000000
01001000
,
00011000
00000000
00011000
00000000
00001000
00010000
00000100
00100000
;

//---------------dance-double - TaroNuke----------------
#NOTES:
     dance-double:
     TaroNuke:
     Medium:
     7:
     0.419,0.520,0.340,0.191,0.043:
00000000
00000000
00000000
00000000
,
00000000
00000000
00000000
00000000
,
00000000
00000000
00000000
00000000
,
00000000
00000000
00000000
00000000
,
10000000
00000000
01000000
00100000
01000000
00000000
00100000
00000000
,
00001000
00000000
00100000
00010000
01000000
00000000
00100000
00000000
,
10000000
00000000
00100000
01000000
00100000
00000000
01000000
00000000
,
00001000
00000000
01000000
00010000
00100000
00000000
01000000
00000000
,
10000000
01000000
00100000
00001000
,
00000010
00001000
00100000
01000000
,
10000000
11000000
01000000
01100000
,
00110000
00000000
00000000
00011000
00000000
00000000
00000110
00000000
,
00000001
00000000
00000100
00000010
00000100
00000000
00000010
00000000
,
00010000
00000000
00000100
00001000
00000010
00000000
00000100
00000000
,
00000001
00000000
00000010
00000100
00000010
00000000
00000100
00000000
,
00010000
00000000
00000010
00001000
00000100
00000000
00000010
00000000
,
00000001
00000011
00000000
00000000
,
00000100
00001100
00000000
00000000
,
00100000
00110000
00000000
00000000
,
01000000
11000000
00000000
00000000
,
01000000
01100000
00000000
00000000
,
00010000
00110000
00000000
00000000
,
00010000
00010100
00000000
00000000
,
00000001
00000000
00000101
00000000
00000000
00000000
00000000
00000001
,
00001000
00000000
00001001
00000000
00000000
00000000
00001000
00000100
,
00010000
00000000
00010100
00000000
00000000
00000000
00010000
00001000
,
00100000
00001000
00010000
00000000
00001000
00010000
00000000
00010100
,
00000000
00000100
00010000
00000100
00010000
00000010
00001000
00000010
,
00000200
00000000
00000302
00000000
,
00000023
00000000
00000000
00000000
,
00000230
00000000
02000000
00000000
,
00000000
00000000
03000300
00000000
,
01000000
00100000
01000000
00010000
,
01000000
00100000
10000000
00100000
,
01000000
00010000
00000000
01010000
00000000
01100000
00000000
01000000
,
00100000
10000000
00000000
11000000
00000000
10010000
00000000
00010000
,
01000000
00000000
01100000
00000000
01000000
00010000
00000000
10100000
,
00000000
00000000
10000000
00000000
01000000
10000000
01000000
10000000
,
01000000
01000000
01000000
01000000
,
00100000
00100000
00100000
00100000
,
00001000
00001000
00001000
00001000
,
00000020
00000000
00000000
00000030
,
00000100
00000001
00000100
00010000
00000100
00000000
00010000
00000000
,
00000100
00001000
00000010
00000100
,
00000002
00000003
00000200
00000300
,
00000020
00000000
00000000
00001030
,
00000001
00000000
00000000
00000001
00000100
00000000
00000000
00000100
00000010
00000000
00000000
00000010
00000100
00000000
00000000
00000100
,
00000001
00001000
00000100
00010000
,
00001000
00000000
00000000
00001000
00100000
00000000
00000000
00100000
01000000
00000000
00000000
01000000
00100000
00000000
00000000
00100000
,
00010000
01000000
00100000
10000000
,
22000000
00000000
00000000
00000000
,
03000000
00000000
00000000
00000000
,
30002000
00000000
00020000
00000000
,
00000000
00000000
00033000
00000000
,
00010000
00000100
00010000
00000100
,
00001000
00000010
00001000
00000010
,
00000100
00000000
00000100
00000000
,
00000010
00000000
00000010
00000000
,
00001000
00000100
00001000
00000100
,
00010000
00001000
00100000
00001000
,
00010000
00001000
00100000
01000000
,
10000000
00100000
01000000
00010000
,
00200000
00000000
00320000
00000000
,
02030000
00000000
00000000
00000000
,
03002000
00000000
00020000
00000000
,
00000000
00000000
00033000
00000000
,
11000000
00000000
01010000
00000000
,
00011000
00000000
00010100
00000110
,
00000000
00000011
00000000
00001001
,
00000110
00000000
00001001
00000000
00000001
00000010
00000100
00001000
;
