#TITLE:Twinkle Park (Lightspeed Remix);
#SUBTITLE:;
#ARTIST:Sir NutS;
#TITLETRANSLIT:;
#SUBTITLETRANSLIT:;
#ARTISTTRANSLIT:;
#CREDIT:;
#BANNER:;
#BACKGROUND:;
#LYRICSPATH:;
#CDTITLE:;
#MUSIC:Sonic_Adventure_Lightspeed_OC_ReMix.ogg;
#OFFSET:0.040;
#SAMPLESTART:29.000;
#SAMPLELENGTH:11.960;
#SELECTABLE:YES;
#BPMS:0.000=148.000;
#STOPS:;
#BGCHANGES:;

//---------------dance-single - ----------------
#NOTES:
     dance-single:
     :
     Hard:
     8:
     0.513,0.634,0.201,0.074,0.345:
0000
0000
0000
0000
,
0000
0000
0000
0000
,
0000
0000
0000
0000
,
0000
0000
0000
0000
,
2000
0000
0000
0000
,
3002
0000
0000
0000
,
0203
0000
0000
0000
,
0320
0000
0000
0000
,
2030
0000
0000
0100
0000
0000
0100
0000
0000
0000
0000
0001
0000
0000
0001
0000
,
0000
0000
0000
0010
0000
0000
0010
0000
0000
0000
0000
0001
0000
0000
3002
0000
,
0000
0000
0000
0010
0000
0000
0010
0000
0000
0000
0000
1000
0000
0000
1000
0000
,
0000
0000
0000
0010
0000
0000
0010
0000
0000
0000
0000
0100
0000
0000
0203
0000
,
0000
0000
0000
0001
0000
0000
0001
0000
0000
0000
0000
0010
0000
0000
0010
0000
,
0000
0000
0000
1000
0000
0000
1000
0000
0000
0000
0000
0010
0000
0000
0320
0000
,
0000
0000
0000
1000
0000
0000
1000
0000
0000
0000
0000
0100
0000
0000
0100
0000
,
0000
0000
0000
0001
0000
0000
0001
0000
0000
0000
0000
0100
0000
0000
0200
0000
,
0000
0000
0000
0000
,
0330
1001
1010
0101
,
0010
0000
0001
0000
0100
0000
0010
0000
1000
0000
0000
0100
0000
0000
1000
0000
,
0001
0000
0000
0100
0000
0000
1000
0000
0000
0000
0100
0000
0001
0000
0000
0000
,
0010
0000
0100
0000
1000
0000
0010
0000
0100
0000
0000
0001
0000
0000
0100
0000
,
0001
0000
0000
0010
0000
0000
1000
0000
0000
0000
0010
0000
0001
0000
0000
0000
,
0100
0000
0001
0000
1000
0000
0010
0000
1000
0000
0000
0001
0000
0000
1000
0000
,
0000
0000
0001
0000
0010
0000
0100
0000
1000
0000
0000
0100
0000
0000
1000
0000
,
0010
0000
0000
0100
0000
0000
0001
0000
0000
0000
0100
0000
1000
0000
0100
0000
,
0001
0000
0010
0001
0000
0010
0001
0000
0000
0000
0100
0000
0100
0000
0001
0000
,
1000
0000
0010
0000
0100
0000
0010
0000
1000
0000
0000
0100
0000
0000
0010
0000
,
0100
0000
0000
1000
0000
0000
0100
0000
0001
0000
0100
0000
1000
0000
0000
0000
,
0001
0000
0100
0000
0010
0000
0100
0000
0001
0000
0000
0010
0000
0000
0100
0000
,
0010
0000
0000
0001
0000
0000
0010
0000
1000
0000
0010
0000
0001
0000
0000
0000
,
1000
0000
0100
0000
0010
0000
0100
0000
1000
0000
0000
0010
0000
0000
0100
0000
,
0001
0000
0010
0000
0100
0000
0010
0000
0001
0000
0000
0100
0000
0000
0010
0000
,
1000
0000
0000
0100
0000
0000
0001
0000
0000
0000
0100
0000
0001
0000
0100
0000
,
1000
0000
0001
0100
0000
0001
0100
0000
0000
0000
0010
0000
1000
0000
0100
0000
,
0010
1001
1100
1001
,
0010
1001
0101
1001
,
0100
1001
1010
1001
,
0100
1001
0011
1001
,
0100
1000
0010
1000
0001
0100
0010
0000
,
0100
0001
0100
0010
1000
0100
0010
0000
,
0100
1000
0010
0100
0001
0010
0100
1000
,
0010
0000
0100
0000
0001
0000
0010
0000
0100
1000
0100
1000
0100
1000
0100
1000
,
0001
0000
0000
0100
0010
0000
0100
0000
0001
0000
0000
0000
1010
0000
0000
0000
,
0100
0000
0000
0001
0010
0000
0001
0000
0100
0000
0000
0000
1001
0000
0000
0000
,
0010
0000
0000
1000
0100
0000
1000
0000
0010
0000
0000
0000
0101
0000
0000
0000
,
1000
0000
0000
0010
0100
0000
0010
0000
1000
0000
0000
0000
0110
0000
0000
0000
,
0001
0000
0000
0010
0100
0000
0010
0000
0001
0000
0000
0000
1010
0000
0000
0000
,
0100
0000
0000
0010
1000
0000
0010
0000
0100
0000
0000
0000
1001
0000
0000
0000
,
0010
0000
0000
0001
0100
0000
0001
0000
0010
0000
0000
0000
0101
0000
0000
0000
,
1000
0000
0000
0100
0010
0000
0100
0000
1000
0000
0000
0000
0110
0000
0000
0000
,
0001
0000
0000
0100
0010
0000
0100
0000
0001
0000
1000
0000
0100
0000
0000
0000
,
1000
0000
0000
0010
0100
0000
0001
0000
0010
0000
0100
0000
1000
0000
0000
0000
,
0010
0000
0000
0100
0001
0000
0010
0000
0100
0000
1000
0000
0001
0000
0000
0000
,
0010
0000
0000
0001
0100
0000
0010
0000
1000
0000
0010
0000
0100
0000
0000
0000
,
0001
0000
0000
0100
0010
0000
1000
0000
0100
0000
1000
0000
0010
0000
0000
0000
,
0100
0000
0000
0001
1000
0000
0100
0000
1000
0000
0010
0000
0100
0000
0000
0000
,
0010
0000
0000
1000
0100
0000
0010
0000
0100
0000
1000
0000
0001
0000
0000
0000
,
0100
0000
0000
0010
0100
0000
0001
0000
0010
0000
0100
0000
1000
0000
0000
0000
,
0001
0000
0000
0100
0010
0000
1000
0000
0001
0000
0010
0000
0100
0000
1000
0000
,
0001
0000
0000
1000
0100
0000
1000
0000
0010
0000
0100
0000
0001
0000
0010
0000
,
0100
0000
0000
0010
0001
0000
0100
0000
0010
0000
1000
0000
0001
0000
0010
0000
,
0100
0000
0000
1000
0010
0000
0100
0000
0010
0000
1000
0000
0100
0000
0010
0000
,
0001
0000
0000
0100
0010
0000
0100
0000
0001
0000
0100
0000
0010
0000
1000
0000
,
0010
0000
0000
0100
0001
0000
0010
0000
0100
0000
1000
0000
0010
0000
0100
0000
,
0001
0000
0000
1000
0100
0000
1000
0000
0010
0000
0100
0000
0001
0000
0010
0000
,
0100
0000
0000
1000
0010
0000
0100
0000
0001
0000
1000
0000
0010
0000
0100
0000
,
1001
0000
0000
0000
0100
0000
0010
0001
0000
0000
1000
0000
1000
0000
0000
0000
,
0001
0000
0010
0000
0100
0000
1000
0010
0000
0000
0100
0000
0100
0000
0000
0000
,
0001
0000
0000
0000
0100
0000
0010
1000
0000
0000
0100
0000
1000
0000
0010
0000
,
0100
0001
0000
0010
0000
0001
0001
0000
,
0110
0000
0000
0000
0001
0000
0010
0100
0000
0000
1000
0000
1000
0000
0000
0000
,
0001
0000
0100
0000
0010
0000
1000
0100
0000
0000
0010
0000
0010
0000
0000
0000
,
0001
0000
0000
0000
0100
0000
0010
1000
0000
0000
0001
0000
0000
0000
0100
0000
,
2002
0000
0000
3003
,
0100
0000
0000
1000
0000
0000
0010
0000
0100
0000
0000
1000
0000
0000
0000
0000
,
0100
0000
0000
0001
0000
0000
0010
0000
1000
0000
0000
0010
0000
0000
0000
0000
,
0001
0000
0000
0100
0000
0000
0010
0000
1000
0000
0000
0100
0000
0000
0000
0000
,
0001
0000
0000
0100
0000
0000
1000
0000
0001
0000
0000
0010
0000
0000
0000
0000
,
0001
0000
0000
0100
0000
0000
1000
0000
0100
0000
0000
0010
0000
0000
0000
0000
,
1000
0000
0000
0010
0000
0000
0001
0000
0010
0000
0000
0100
0000
0000
0000
0000
,
0001
0000
0000
0010
0000
0000
0100
0000
1000
0000
0000
0100
0000
0000
0000
0000
,
1010
0000
0000
0001
0000
0000
0010
0000
0100
0000
0000
0001
0000
0000
0000
0000
,
0101
0000
0000
1000
0000
0000
0100
0000
0001
0000
0000
0100
0000
0000
0000
0000
,
1000
0000
0000
0010
0000
0000
0100
0000
0010
0000
0000
1000
0000
0000
0000
0000
,
0001
0000
0000
0010
0000
0000
1000
0000
0010
0000
0000
0001
0000
0000
0000
0000
,
0100
0000
0000
0010
0000
0000
1000
0000
0001
0000
0000
0010
0000
0000
0000
0000
,
0011
0000
0000
1000
0000
0000
0100
0000
0010
0000
0000
0001
0000
0000
0000
0000
,
0010
0000
0000
1000
0000
0000
0010
0000
0100
0000
0000
1000
0000
0000
0000
0000
,
1001
0000
0000
0100
0000
0000
0010
0000
1000
0000
0000
0001
0000
0000
0000
0000
,
0100
0000
0000
0010
0000
0000
1000
0000
0001
0100
0001
0100
0001
0100
0001
0100
,
0001
0000
0000
0000
;

//---------------dance-single - ----------------
#NOTES:
     dance-single:
     :
     Challenge:
     9:
     0.696,0.784,0.389,0.067,0.821:
0000
0000
0000
0000
,
0000
0000
0000
0000
,
0000
0000
0000
0000
,
0000
0000
0000
0000
,
0000
0000
1000
0000
0010
0000
0100
0000
0001
0000
0000
0001
0000
0000
1000
0000
,
0000
0000
0100
0000
1000
0000
0010
0000
0100
0000
0000
0100
0000
0000
0001
0000
,
0010
0000
0000
1001
0000
0000
0110
0000
0000
0000
0000
0000
0000
0000
0000
0000
,
1000
0000
0001
0100
0000
0001
0100
0000
0000
0000
0000
0000
0000
0000
0000
0000
,
0000
0000
0000
1100
0000
0000
1001
0000
0000
0000
0000
0011
0000
0000
1001
0000
,
0000
0000
0000
1010
0000
0000
1001
0000
0000
0000
0000
0101
0000
0000
1001
0000
,
0000
0000
0000
1100
0000
0000
0110
0000
0000
0000
0000
0101
0000
0000
0110
0000
,
0000
0000
0000
1010
0000
0000
0110
0000
0000
0000
0000
0011
0000
0000
0110
0000
,
0000
0000
0101
0000
0000
1100
0000
0000
0000
0000
1010
0000
0000
0011
0000
0000
,
0000
0000
0000
0011
0000
0000
0101
0000
0000
0000
0000
1010
0000
0000
1100
0000
,
0000
0000
0000
1001
0000
0000
0110
0000
0000
0000
0000
1010
0000
0000
0101
0000
,
0000
0000
0000
0110
0000
0000
1001
0000
0000
0000
0000
0011
0000
0000
1100
0000
,
2002
0000
0000
0000
,
3003
0110
1010
0011
,
1000
0000
0001
0000
0100
0000
1000
0000
0100
0000
0001
0010
0000
0001
0010
0000
,
0100
0000
0000
1000
0000
0000
0010
0000
0100
0000
0100
0000
0001
0000
0000
0000
,
0010
0000
0001
0000
0100
0000
0010
0000
1000
0000
0100
0001
0000
0100
0001
0000
,
0100
0000
0000
1000
0000
0000
0001
0000
0010
0000
0010
0000
0100
0000
0000
0000
,
1000
0000
0010
0000
0001
0000
0010
0000
1000
0000
0100
0010
0000
0100
0010
0000
,
0001
0000
0100
0000
1000
0000
0100
0000
0001
0000
0010
0100
0000
0010
0100
0000
,
1000
0000
0000
0001
0000
0000
0110
0000
0000
0000
0001
0000
0001
0000
0000
0000
,
1000
0000
0001
0100
0000
0001
0100
0000
0000
0000
0010
0000
0010
0000
0000
0000
,
1000
0000
0001
0010
0000
0001
0010
0000
0100
0000
1000
0010
0000
1000
0010
0000
,
0100
0000
0001
1000
0000
0001
1000
0000
0100
0000
0001
0000
0100
0000
0000
0000
,
1000
0000
0010
0100
0000
0010
0100
0000
1000
0000
0100
0010
0000
0100
0010
0000
,
1000
0000
0100
0010
0000
0100
0010
0000
0001
0000
0010
0000
1000
0000
0000
0000
,
0010
0000
0001
0100
0000
0001
0100
0000
0010
0000
1000
0100
0000
1000
0100
0000
,
0010
0000
0001
1000
0000
0001
1000
0000
0100
0000
0010
0001
0000
0010
0001
0000
,
0100
0000
0010
1000
0000
0010
1000
0000
0001
0000
0100
0000
0110
0000
0000
0000
,
1000
0000
0001
0010
0000
0001
0010
0000
0100
0000
1000
0000
1001
0000
0000
0000
,
0100
0000
0000
0010
0000
0000
1000
0000
0100
0000
0000
0010
0000
0000
0001
0000
,
1000
0000
0000
0010
0000
0000
0001
0000
0010
0000
0000
1000
0000
0000
0100
0000
,
0010
0000
0000
0001
0000
0000
1000
0000
0010
0000
0000
0001
0000
0000
0010
0000
,
1000
0000
0000
0100
0000
0000
0010
0000
0001
0000
0000
0100
0000
0000
0010
0000
,
1000
0010
0100
0001
1000
0100
0001
0100
,
1000
0010
1000
0100
0001
0100
1000
0010
,
0100
0001
0010
1000
0010
0001
0100
0010
,
1000
0000
0100
0000
0010
0000
0001
0000
1000
0001
1000
0001
1000
0001
1000
0001
,
0100
0000
0000
0000
1001
0000
0000
0010
0000
0100
0000
0000
0101
0000
0000
0100
,
0000
0001
0000
0000
1001
0000
0000
1000
0000
0100
0000
0000
0110
0000
0000
0010
,
0000
0001
0000
0000
0101
0000
0000
0100
0000
0001
0000
0000
0011
0000
0000
0010
,
0000
0100
0000
0000
1100
0000
0000
1000
0000
0010
0000
0000
0110
0000
0000
0100
,
0000
0001
0000
0000
0110
0000
0000
0001
0000
1000
0000
0000
1010
0000
0000
0100
,
0000
0001
0000
0000
0110
0000
0000
0001
0000
1000
0000
0000
1001
0000
0000
0010
,
0000
0100
0000
0000
1010
0000
0000
0100
0000
0001
0000
0000
1001
0000
0000
0100
,
0000
1000
0000
0000
0011
0000
0000
0100
0000
0001
0000
0000
0101
0000
0000
1000
,
0000
0010
0000
0100
0010
0000
0000
1000
0000
0010
0000
0100
0001
0000
0000
0010
,
0000
0100
0000
1000
0010
0000
0000
0100
0000
0010
0000
1000
0100
0000
0000
0010
,
0000
0001
0000
0100
0010
0000
0000
1000
0000
0001
0000
0010
0100
0000
0000
1000
,
0000
0010
0000
0100
0001
0000
0000
0010
0000
0100
0000
1000
0010
0000
0000
0100
,
0000
0001
0000
0100
1000
0000
0000
0100
0000
0001
0000
0010
0100
0000
0000
0010
,
0000
0001
0000
0010
1000
0000
0000
0010
0000
0001
0000
0100
0010
0000
0000
1000
,
0000
0100
0000
0010
1000
0000
0000
0010
0000
0001
0000
0100
0010
0000
0000
0100
,
0000
1000
0000
0100
0001
0000
0000
0010
0000
0001
0000
0100
0010
0000
0000
1000
,
0000
0010
0000
0100
0001
0000
0010
0001
0000
0100
0000
0010
1000
0000
0100
1000
,
0000
0001
0000
0010
0100
0000
0010
0001
0000
0100
0000
0010
1000
0000
0001
0010
,
0000
0001
0000
0100
0010
0000
1000
0100
0000
0010
0000
0100
1000
0000
0001
0100
,
0000
0010
0000
1000
0001
0000
0010
0100
0000
1000
0000
0010
0100
0000
0001
0010
,
0000
0100
0000
0010
1000
0000
0010
0001
0000
0100
0000
0010
1000
0000
0100
1000
,
0000
0010
0000
0001
0010
0000
1000
0100
0000
0010
0000
1000
0010
0000
0001
0100
,
0000
0010
0000
0100
1000
0000
0100
0010
0000
1000
0000
0001
0100
0000
1000
0100
,
0000
0001
0000
0010
0100
0000
0010
1000
0000
0010
0000
0001
0100
0000
0010
1000
,
0002
0000
0000
0000
0103
0000
0010
1000
0000
0000
0100
0000
0200
0000
0000
0000
,
1300
0001
0010
0000
0001
0000
0100
0010
0000
0000
1000
0000
2000
0000
0000
0000
,
3002
0000
0000
0000
0103
0000
0010
1000
0000
0000
0100
0000
1000
0010
0100
0000
,
0010
0100
0001
0000
0000
0000
0101
0000
0000
0000
0100
0000
0200
0000
0000
0000
,
0301
0000
0000
0000
1000
0000
0010
0100
0000
0000
0001
0000
0002
0000
0000
0000
,
0103
0010
1000
0000
0100
0000
1000
0010
0000
0000
0100
0000
0200
0000
0000
0000
,
0301
0000
0000
0000
0100
0000
0010
0100
0000
0000
0001
0000
0000
0100
0000
0010
,
2000
0000
0000
0000
3010
0000
0100
0001
0000
0010
0000
0100
1000
0000
0100
0000
,
0010
0000
0100
1000
0100
1000
0100
0000
0010
0000
0001
0000
0100
0000
1000
0000
,
0100
0001
0010
0100
1000
0010
0100
0010
,
0001
0000
0010
1000
0010
1000
0010
0000
0100
0000
0001
0000
0100
0000
0010
0000
,
1000
0100
0001
0100
1000
0010
0100
0001
,
0010
0000
0100
1000
0100
1000
0100
0000
0010
0000
0001
0000
0100
0000
0010
0000
,
1000
0001
0100
1000
0100
0001
0010
0100
,
1000
0000
0010
0100
0010
0100
0010
0000
1000
0000
0100
0000
0010
0000
0001
0000
,
0100
1000
0100
0001
0010
0100
1000
0010
,
0100
0000
0001
0010
0001
0010
0001
0000
0100
0000
0010
0000
1000
0000
0001
0000
,
0100
0000
0010
1000
0010
1000
0010
0000
0100
0000
0001
0000
0010
0000
0100
0000
,
1000
0000
0100
1000
0100
1000
0100
0000
0010
0000
0001
0000
0100
0000
0010
0000
,
0100
0000
0001
1000
0001
1000
0001
0000
0010
0000
0100
0000
1000
0000
0100
0000
,
0010
0000
0001
0100
0001
0100
0001
0000
0010
0000
0100
1000
0100
1000
0100
0000
,
0010
0000
0001
1000
0001
1000
0001
0000
0100
0000
0010
1000
0010
1000
0010
0000
,
0100
0000
0001
0010
0001
0010
0001
0000
0100
0000
0010
1000
0010
1000
0010
0000
,
1000
0000
0100
0010
0100
0010
0100
0000
0010
0000
0001
0100
0001
0100
0001
0100
,
0001
0000
0000
0000
;

//---------------dance-single - ----------------
#NOTES:
     dance-single:
     :
     Medium:
     5:
     0.392,0.487,0.208,0.255,0.040:
0000
0000
0000
0000
,
0000
0000
0000
0000
,
0000
0000
0000
0000
,
0000
0000
0000
0000
,
2000
0000
0000
0000
,
3020
0000
0000
0000
,
0230
0000
0000
0000
,
0302
0000
0000
0000
,
1003
0100
0010
0001
,
1000
0000
0000
0001
0000
0000
1000
0000
0000
0000
0000
0000
0000
0000
0000
0000
,
0001
0010
0100
1000
,
0001
0000
0000
1000
0000
0000
0001
0000
0000
0000
0000
0000
0000
0000
0000
0000
,
1000
0010
0100
0001
,
0010
0001
1000
0100
,
0010
0000
0000
0100
0000
0000
0010
0000
0000
0000
0000
0000
0000
0000
0000
0000
,
0100
0000
0000
0010
0000
0000
0100
0000
0000
0000
0000
0000
0000
0000
0000
0000
,
2002
0000
0000
0000
,
3003
0110
0101
0110
,
1000
0100
1000
0010
,
0100
0000
0000
0001
0000
0000
0100
0000
0000
0000
0000
0000
0000
0000
0000
0000
,
0001
0100
0001
0010
,
0100
0000
0000
1000
0000
0000
0100
0000
0000
0000
0000
0000
0000
0000
0000
0000
,
1000
0010
0100
0010
,
1000
0100
0001
0100
,
1000
0000
0000
0010
0000
0000
1000
0000
0000
0000
0000
0000
0000
0000
0000
0000
,
0001
0000
0000
0100
0000
0000
0001
0000
0000
0000
0000
0000
0000
0000
0000
0000
,
1000
0100
0001
0010
,
0001
0000
0000
0100
0000
0000
0010
0000
0000
0000
0000
0000
0000
0000
0000
0000
,
0001
0100
1000
0010
,
1000
0000
0000
0010
0000
0000
0100
0000
0000
0000
0000
0000
0000
0000
0000
0000
,
1000
0010
0001
0100
,
0001
0010
1000
0100
,
1000
0000
0000
0100
0000
0000
0010
0000
0000
0000
0000
0000
0000
0000
0000
0000
,
0001
0000
0000
0010
0000
0000
0100
0000
0000
0000
0000
0000
0000
0000
0000
0000
,
1000
0010
0100
1001
,
0010
0100
0001
1010
,
0100
0001
1000
0110
,
0001
0100
0010
0101
,
1000
0010
0100
0000
0001
0000
1010
0000
,
0100
0001
1000
0000
0100
0000
0011
0000
,
1000
0010
0100
0000
0001
0000
1010
0000
,
0100
0001
1000
0000
0100
1000
0001
0000
,
2000
0000
3002
0000
0103
0010
1000
0000
,
0002
0000
0203
0000
0310
1000
0100
0000
,
0020
0000
0032
0000
1003
0010
0100
0000
,
0002
0000
0203
0000
0310
1000
0001
0000
,
0020
0000
0032
0000
0103
0010
1000
0000
,
0200
0000
2300
0000
3010
0100
0001
0000
,
2000
0000
3002
0000
0013
0100
1000
0000
,
0002
0000
2003
0000
3001
0010
0100
0000
,
1000
0000
0010
1000
0000
0001
0000
0000
,
0010
0000
0001
1000
0000
0100
0000
0000
,
1000
0000
0010
0100
0000
0001
0100
0000
,
0010
1000
0000
0100
0000
1000
0000
0001
,
0100
0000
0010
0100
0000
0001
0000
0000
,
1000
0000
0100
0010
0000
0001
0000
0000
,
0200
0320
2030
3001
,
0020
0032
0203
0310
,
1000
0000
0001
0100
0000
1001
0000
0000
,
0100
0000
1000
0010
0000
0101
0000
0000
,
1000
0000
0010
0100
0000
0001
0010
0000
,
0100
1000
0000
0101
0000
1100
0000
0001
,
0100
0000
0010
1000
0000
0110
0000
0000
,
0001
0000
1000
0100
0000
1001
0000
0000
,
0020
2030
3002
0013
,
0200
2300
3002
0103
,
0010
0000
0000
1010
0000
0010
0010
0000
,
0100
0000
0000
1100
0000
0100
0100
0000
,
1000
0000
0000
1001
0000
0001
0001
0000
,
0100
0010
0000
0100
0000
0001
0001
0000
,
1000
0000
0000
0101
0000
1000
1000
0000
,
0001
0000
0000
1010
0000
0001
0001
0000
,
2000
0000
0000
0000
,
3002
0000
0000
0000
,
1003
0100
0001
0100
,
1000
0000
0100
0000
0001
0100
1000
0000
,
0001
0010
1000
0010
,
0001
0000
0010
0000
1000
0010
0001
0000
,
1000
0010
0001
0010
,
1000
0000
0010
0000
0001
0010
1000
0000
,
0001
0100
1000
0100
,
1001
0000
0100
0000
1000
0100
0001
0000
,
1010
0000
0100
0000
0001
0010
0100
0000
,
1000
0000
0001
0000
0100
0010
1000
0000
,
0001
0000
0100
0000
0010
1000
0100
0000
,
0010
0000
0001
0000
1000
0010
0100
0000
,
1001
0000
0010
0000
0100
0001
1000
0000
,
0100
0000
1000
0000
0010
0100
0001
0000
,
1010
0000
0100
0000
1000
0010
0100
0000
,
1001
0110
1010
0011
,
2002
0000
0000
3003
;

//---------------dance-single - ----------------
#NOTES:
     dance-single:
     :
     Easy:
     3:
     0.277,0.335,0.154,0.208,0.000: // measure 1
0000
0000
0000
0000
,  // measure 2
0000
0000
0000
0000
,  // measure 3
0000
0000
0000
0000
,  // measure 4
0000
0000
0000
0000
,  // measure 5
2000
0000
0000
0000
,  // measure 6
3020
0000
0000
0000
,  // measure 7
0230
0000
0000
0000
,  // measure 8
0302
0000
0000
0000
,  // measure 9
2003
0000
0000
0000
,  // measure 10
3200
0000
0000
0000
,  // measure 11
0320
0000
0000
0000
,  // measure 12
0032
0000
0000
0000
,  // measure 13
2003
0000
0000
0000
,  // measure 14
3002
0000
0000
0000
,  // measure 15
0203
0000
0000
0000
,  // measure 16
0320
0000
0000
0000
,  // measure 17
2000
0000
0000
0000
,  // measure 18
3030
1001
1001
1001
,  // measure 19
0100
1000
0100
1000
,  // measure 20
0001
0100
0001
0000
,  // measure 21
1000
0010
1000
0010
,  // measure 22
0100
0001
0100
0000
,  // measure 23
0001
0010
0001
0010
,  // measure 24
0100
1000
0100
1000
,  // measure 25
0001
0100
0010
0000
,  // measure 26
1000
0010
0100
0000
,  // measure 27
0001
1000
0001
1000
,  // measure 28
0100
0010
0100
0000
,  // measure 29
0010
0001
0010
0001
,  // measure 30
0100
0010
0100
0000
,  // measure 31
0001
0100
0001
0100
,  // measure 32
0010
1000
0010
1000
,  // measure 33
0001
0010
0100
0000
,  // measure 34
1000
0100
0010
0000
,  // measure 35
0001
0000
1010
0000
,  // measure 36
0001
0000
1010
0000
,  // measure 37
0100
0000
1001
0000
,  // measure 38
0100
0000
1001
0000
,  // measure 39
0010
0000
1100
0000
,  // measure 40
0010
0000
1100
0000
,  // measure 41
0001
0000
0110
0000
,  // measure 42
0001
0000
0110
0100
,  // measure 43
2001
0000
3020
0000
,  // measure 44
0230
0000
0302
0000
,  // measure 45
2003
0000
3200
0000
,  // measure 46
0010
1000
0320
0000
,  // measure 47
0230
0000
2300
0000
,  // measure 48
3002
0000
0203
0000
,  // measure 49
0320
0001
0230
0000
,  // measure 50
1000
0010
2300
0000
,  // measure 51
3001
0000
0100
0010
,  // measure 52
1000
0000
0100
0010
,  // measure 53
0001
0000
1000
0010
,  // measure 54
0100
0000
0001
1000
,  // measure 55
0100
0000
1000
0010
,  // measure 56
0100
0000
0001
0010
,  // measure 57
0100
0000
1000
0010
,  // measure 58
0100
0000
0001
0100
,  // measure 59
1000
0000
0100
0001
,  // measure 60
0010
0000
1000
0010
,  // measure 61
0001
0000
0100
0010
,  // measure 62
1000
0000
0010
0001
,  // measure 63
0010
0000
1000
0100
,  // measure 64
0001
0000
1000
0010
,  // measure 65
0001
0000
1000
0010
,  // measure 66
0100
0000
0001
0100
,  // measure 67
1000
0000
1100
0101
,  // measure 68
1000
0000
0011
1010
,  // measure 69
0001
0000
1100
0101
,  // measure 70
1000
0010
0100
0001
,  // measure 71
1000
0000
0011
1010
,  // measure 72
0001
0000
1100
0101
,  // measure 73
2000
0000
0000
0000
,  // measure 74
3020
0000
0000
0000
,  // measure 75
0130
0001
0100
0010
,  // measure 76
1000
0100
0010
0000
,  // measure 77
0001
0100
0010
1000
,  // measure 78
0100
0010
0001
0000
,  // measure 79
0100
0010
1000
0001
,  // measure 80
0010
0100
1000
0000
,  // measure 81
0100
0010
0001
0100
,  // measure 82
0010
1000
0100
0000
,  // measure 83
1000
0010
0100
0010
,  // measure 84
1000
0100
0010
0000
,  // measure 85
0001
0010
0100
0010
,  // measure 86
0001
0100
0010
0000
,  // measure 87
1000
0100
0001
0100
,  // measure 88
1000
0100
0001
0000
,  // measure 89
1000
0010
0001
0010
,  // measure 90
1000
0100
0001
0010
,  // measure 91
2002
0000
0000
3003
;
