#TITLE:The Moon;
#SUBTITLE:(Starry Sky Mix);
#ARTIST:YUUKICHAN'S PAPA remixed by EBISU;
#TITLETRANSLIT:;
#SUBTITLETRANSLIT:;
#ARTISTTRANSLIT:;
#CREDIT:DMAxel;
#BANNER:The Moon (Starry Sky Mix).png;
#BACKGROUND:The Moon (Starry Sky Mix)-bg.png;
#LYRICSPATH:;
#CDTITLE:DMAxel original simfile.png;
#MUSIC:The Moon (Starry Sky Mix).mp3;
#OFFSET:-6.960;
#SAMPLESTART:41.778;
#SAMPLELENGTH:12.000;
#SELECTABLE:YES;
#BPMS:0.000=138.000;
#STOPS:;
#BGCHANGES:;

//---------------dance-single - ----------------
#NOTES:
     dance-single:
     :
     Easy:
     3:
     0.235,0.248,0.061,0.296,0.000:
0001
0100
0001
0000
,
1000
0010
1000
0000
,
0010
0100
0020
0000
,
0130
0010
0200
0000
,
0301
0010
0200
0000
,
2300
0001
0001
3001
,
1000
0100
0020
0000
,
0000
0000
0000
0031
,
0200
0000
0320
0000
,
0000
0000
0000
1030
,
0002
0000
0000
0103
,
0020
0000
0000
0000
,
1030
0010
1000
0000
,
0001
0100
0001
0000
,
0010
0100
0010
0000
,
0001
0010
0100
1000
,
0010
0100
0020
0000
,
0000
1030
0001
1000
,
0100
0010
0100
2000
,
0000
0001
0001
3001
,
0200
0000
0000
0000
0320
0000
0000
0230
,
0000
0002
0000
0000
0000
0300
0000
0000
,
1003
0100
0010
0001
,
2000
0000
0000
3001
,
0020
0000
0000
0000
0230
0000
0000
0320
,
0000
2000
0000
0000
0000
0030
0000
0000
,
3001
0010
0100
1000
,
0001
0100
0001
1000
,
0100
0000
0010
0000
,
0001
1000
0001
1000
,
0002
0000
0000
0000
,
0023
0000
0000
0000
,
0230
0000
0000
0000
,
2300
0000
0000
0000
,
3001
0100
0001
1000
,
0100
0010
0001
1000
,
0100
1000
0100
1000
,
0001
0010
0100
1000
,
0010
0100
0010
1000
,
0010
0100
0010
1000
,
0100
0010
0001
0100
,
0010
0000
0000
0000
,
1001
0100
0010
0001
,
0100
0010
0100
0001
,
1000
0010
0100
0001
,
0010
0100
1000
0010
,
0110
0000
0000
0000
1001
0000
0000
2002
,
0000
0000
0000
3003
,
1000
0100
0010
0001
,
2000
0000
0000
3000
,
0110
0000
0000
0000
1001
0000
0000
2002
,
0000
0000
0000
3003
,
0002
0000
0000
0000
,
2003
0000
0000
0000
,
3020
0000
0000
0000
,
0230
0000
0000
0000
,
0302
0000
0000
0000
,
0003
0000
0000
0000
;

//---------------dance-single - ----------------
#NOTES:
     dance-single:
     :
     Medium:
     5:
     0.362,0.348,0.087,0.279,0.000:
1000
0100
1000
0100
,
0010
0001
0010
0001
,
1000
0010
1000
0000
0002
0000
1003
0000
,
0001
0100
0001
0000
2000
0000
3001
0000
,
1000
0100
1000
0000
0001
0010
0100
2000
,
0000
0001
0001
3001
,
0100
0000
0010
0200
0000
0000
0000
0000
,
0001
0000
0000
0000
0301
0000
1000
0100
,
0020
0000
0000
0032
0000
0000
0000
0000
,
1000
0000
1003
0001
,
0200
0000
0000
0000
0000
0301
0010
0100
,
2000
0000
0001
0001
,
3001
0100
0002
0000
0000
1003
0100
0010
,
0002
0000
2003
3002
,
1003
0010
1000
0002
0000
0000
0000
0000
,
1000
1003
0010
0110
,
0001
0010
0100
1000
0000
0020
0000
0000
,
0000
1030
0100
0010
0001
0100
0000
0000
,
0110
0000
0000
0110
0000
0000
1001
0000
,
0000
1000
0001
1000
0001
1000
0001
1000
,
0100
0010
0000
0000
0100
0010
0000
1001
,
0000
0001
0100
0001
0000
1000
0010
0000
,
2000
0000
3001
0100
0000
0010
0000
2010
,
0000
0001
0000
3001
,
0100
0010
0000
0000
0100
0010
0000
1002
,
0000
1000
0000
1000
0000
0003
0100
0020
,
0000
0000
1000
0000
1030
0000
0010
0200
,
0000
0000
0001
0000
0301
0000
1000
0001
,
2000
0000
0000
0010
3020
0000
0000
0100
,
0230
0001
0001
0301
,
1002
1000
1000
1003
,
0200
0010
0010
0310
,
0002
1000
1000
1003
,
0200
0010
0010
0310
,
1000
0010
1000
0010
1000
0000
0001
0010
,
0100
0000
1000
0001
0000
1000
0001
1000
,
0001
0100
0001
0100
0001
0000
1000
0100
,
0010
0000
0001
1000
0000
0001
1000
0000
,
0010
0100
0010
0100
0010
0000
1000
0100
,
0010
0000
0001
1000
0000
0001
1000
0001
,
0100
0010
0100
0010
0100
0000
0001
0010
,
0100
0000
0000
0000
,
1000
0010
0100
0010
1000
0000
0100
0010
,
0001
0000
0100
0010
0000
0100
0010
1000
,
0001
0100
0010
0100
0001
0000
0010
0100
,
1000
0000
0010
0100
0000
0010
0100
0000
,
0001
0100
0000
0000
0010
1000
0000
1001
,
0000
0001
0100
0001
0000
1000
0010
0000
,
1000
0000
0010
0100
0000
0002
0000
2000
,
0000
0000
0000
3003
,
1000
0010
0000
0000
0100
0001
0000
2001
,
0000
0001
0000
0001
0000
3001
0010
0200
,
0000
0000
0000
0000
0000
0000
1300
0002
,
0000
0000
0000
0000
,
0103
0001
0010
0100
,
1000
0001
0010
0100
,
2000
0000
0000
0000
,
3000
0000
0000
0000
;

//---------------dance-single - ----------------
#NOTES:
     dance-single:
     :
     Hard:
     7:
     0.491,0.472,0.113,0.131,0.026: // measure 1
0001
0010
0001
0010
0001
1000
0001
0000
,  // measure 2
0001
0010
0100
1000
0010
0100
0001
0000
,  // measure 3
1000
0100
1000
0100
1000
0001
1000
0000
,  // measure 4
1000
0100
0010
0001
0100
0010
1000
0000
,  // measure 5
0001
1000
0001
0000
0010
0100
1000
0001
,  // measure 6
0100
0000
1000
0100
0001
0100
0010
1000
,  // measure 7
0100
0001
0100
1000
0001
0100
0001
0000
,  // measure 8
1000
0100
1000
0001
0000
0010
0100
1000
,  // measure 9
0001
0010
1000
0010
0001
0100
0010
0000
,  // measure 10
1000
0100
1000
0001
0000
0010
0100
1000
,  // measure 11
0001
0100
1000
0100
0001
0010
0100
1000
,  // measure 12
0001
0010
0001
1000
0000
0100
0010
0001
,  // measure 13
0100
1000
0100
0001
0100
0010
0100
0001
,  // measure 14
1000
0100
0001
0100
0000
1000
0001
0100
,  // measure 15
0001
1000
0100
0001
0100
1000
0010
0100
,  // measure 16
0010
1000
0001
1000
0100
0010
0001
0000
,  // measure 17
1000
0010
0100
0001
0100
1000
0100
0001
,  // measure 18
1000
0010
0001
0010
1000
0010
0100
0000
,  // measure 19
1010
0000
0000
0110
0000
0000
0101
0000
,  // measure 20
1000
0000
0100
0000
1000
0000
0100
0000
1000
0000
0001
0000
1000
0001
1000
0001
,  // measure 21
1000
0100
0010
0000
0100
1000
0001
0201
,  // measure 22
0000
0000
0301
0000
0010
0000
0100
0000
0000
0000
1000
0000
0100
0000
1000
0001
,  // measure 23
1000
0100
0010
0100
0000
1010
0000
0102
,  // measure 24
0000
0000
1003
0000
0010
1000
0010
1000
,  // measure 25
0001
0010
0100
0000
0010
0001
1000
2010
,  // measure 26
0000
3010
0000
1001
0000
0001
0100
1000
,  // measure 27
0200
0000
0001
0000
0301
0010
0100
1000
,  // measure 28
0002
0000
0000
0000
0000
1000
1003
0100
,  // measure 29
0020
0000
0000
0001
0001
0000
0000
0100
,  // measure 30
0130
1000
0100
0010
0001
0100
1000
0100
,  // measure 31
0002
0100
1000
0100
,  // measure 32
1003
0000
0010
0100
0000
0010
0100
0000
,  // measure 33
0002
0100
1000
0100
,  // measure 34
1003
0000
0010
0100
0000
0010
0100
0000
,  // measure 35
0001
0100
0010
0100
0001
1000
0100
0001
,  // measure 36
0100
1000
1000
0010
0000
0100
0001
0001
,  // measure 37
1000
0010
0100
0010
1000
0001
0100
1000
,  // measure 38
0100
0001
0010
0100
0001
0100
1000
1000
,  // measure 39
0001
0010
0100
0010
0001
1000
0100
0001
,  // measure 40
0100
1000
0010
0010
0000
0100
0001
0001
,  // measure 41
1000
0100
0010
0100
1000
0001
0100
1000
,  // measure 42
0200
0000
0300
0000
,  // measure 43
0001
0010
0100
0010
0001
0100
1000
0100
,  // measure 44
0001
0001
0010
0100
0000
1000
1000
0001
,  // measure 45
1000
0100
0010
0100
1000
0100
0001
0100
,  // measure 46
1000
0000
1000
0000
0100
0000
0010
0000
0001
0000
0100
0000
0001
1000
0001
1000
,  // measure 47
0001
0010
0100
0000
0010
0001
1000
1020
,  // measure 48
0000
0000
0130
0000
0001
0000
0010
0000
0000
0000
0100
0000
0010
0000
0001
1000
,  // measure 49
0001
0000
0100
0010
0000
1010
0000
1002
,  // measure 50
0000
0000
0103
0000
0010
1000
0010
1000
,  // measure 51
0001
0010
0100
0000
0010
0001
1000
2010
,  // measure 52
0000
3010
0000
1001
0000
1000
0100
0010
,  // measure 53
0200
0000
0000
0000
0000
0300
1000
0002
,  // measure 54
0000
0000
0000
0000
0000
1000
1003
1000
,  // measure 55
0001
0010
0100
1000
0001
0010
0100
1000
,  // measure 56
0100
0001
0100
1000
0000
0100
0010
0001
,  // measure 57
2000
0000
0000
0000
,  // measure 58
3000
0000
0000
0000
;

//---------------dance-single - ----------------
#NOTES:
     dance-single:
     :
     Beginner:
     1:
     0.068,0.098,0.044,0.000,0.000:
1000
0000
0000
0000
,
1000
0000
0000
0000
,
0001
0000
0000
0000
,
0001
0000
0000
0000
,
1001
0000
0000
0000
,
0100
0000
0000
0000
,
0010
0000
0000
0000
,
0001
0000
0000
0000
,
1000
0000
0000
0000
,
0001
0000
0000
0000
,
0010
0000
0000
0000
,
0100
0000
0000
0000
,
1000
0000
0000
0000
,
0001
0000
0000
0000
,
1000
0000
0000
0000
,
0001
0000
0000
0000
,
0010
0000
0000
0000
,
0100
0000
0000
0000
,
1000
0000
0000
0000
,
0001
0000
0000
0000
,
1001
0000
0000
0000
,
0000
0000
0000
0000
,
1000
0000
0000
0000
,
0001
0000
0000
0000
,
1001
0000
0000
0000
,
0000
0000
0000
0000
,
0001
0000
0000
0000
,
1000
0000
0000
0000
,
0010
0000
0000
0000
,
0000
0000
0000
0000
,
0010
0000
0000
0000
,
0000
0000
0000
0000
,
0100
0000
0000
0000
,
0000
0000
0000
0000
,
0010
0000
0000
0000
,
1000
0000
0000
0000
,
0001
0000
0000
0000
,
0010
0000
0000
0000
,
0100
0000
0000
0000
,
1000
0000
0000
0000
,
0001
0000
0000
0000
,
1000
0000
0000
0000
,
1000
0000
0000
0000
,
0001
0000
0000
0000
,
1000
0000
0000
0000
,
0001
0000
0000
0000
,
0110
0000
0000
0000
,
0000
0000
0000
0000
,
0010
0000
0000
0000
,
0100
0000
0000
0000
,
0110
0000
0000
0000
,
0000
0000
0000
0000
,
0100
0000
0000
0000
,
0010
0000
0000
0000
,
1000
0000
0000
0000
,
1000
0000
0000
0000
,
0001
0000
0000
0000
;
