#TITLE:Temporal Despair;
#SUBTITLE:;
#ARTIST:Remix by TheGuitahHeroe;
#TITLETRANSLIT:;
#SUBTITLETRANSLIT:;
#ARTISTTRANSLIT:;
#CREDIT:348;
#BANNER:Temporal Despair Banner.png;
#BACKGROUND:Temporal Despair Background.png;
#LYRICSPATH:;
#CDTITLE:;
#MUSIC:Temporal Despair.mp3;
#OFFSET:-0.046;
#SAMPLESTART:16.026;
#SAMPLELENGTH:15.000;
#SELECTABLE:YES;
#BPMS:0.000=120.000;
#STOPS:;
#BGCHANGES:;

//---------------dance-single - ----------------
#NOTES:
     dance-single:
     :
     Beginner:
     1:
     0.074,0.118,0.000,0.000,0.000:
0000
0000
0000
0000
,
0000
0000
0000
0000
,
0000
0000
0000
0000
,
0000
0000
0000
0000
,
0000
0000
0000
0000
,
0000
0000
0000
0000
,
0000
0000
0000
0000
,
0000
0000
0000
0000
,
1000
0000
0000
0000
,
0001
0000
0000
0000
,
1000
0000
0000
0000
,
0001
0000
0000
0000
,
0100
0000
0000
0000
,
0010
0000
0000
0000
,
0100
0000
0000
0000
,
0010
0000
0000
0000
,
1000
0000
0000
0001
,
0001
0000
0000
1000
,
1000
0000
0000
0010
,
0010
0000
0000
0100
,
0100
0000
0000
0001
,
0010
0000
0000
0010
,
0001
0000
0000
1000
,
0100
0000
0000
0100
,
1000
0000
0000
0000
,
0010
0000
0000
0000
,
0100
0000
0000
0000
,
0001
0000
0000
0000
,
0001
0000
0000
0000
,
0010
0000
0000
0000
,
0100
0000
0000
0000
,
1000
0000
0000
0000
,
0001
0000
0010
0000
,
0001
0000
0000
0000
,
1000
0000
0100
0000
,
1000
0000
0000
0000
,
0010
0000
1000
0000
,
0010
0000
0000
0000
,
0100
0000
0001
0000
,
0100
0000
0000
0000
,
0001
0000
0000
0000
,
0010
0000
0000
0000
,
0100
0000
0000
0000
,
1000
0000
0000
0000
,
1000
0000
0000
0000
,
0010
0000
0000
0000
,
0100
0000
0000
0000
,
0001
0000
0000
0000
,
1000
0000
0000
0000
,
0001
0000
0000
0000
,
0100
0000
0000
0000
,
0010
0000
0000
0000
,
1000
0000
0000
0000
,
0001
0000
0000
0000
,
1000
0000
0000
0000
;

//---------------dance-single - ----------------
#NOTES:
     dance-single:
     :
     Easy:
     4:
     0.195,0.288,0.105,0.237,0.000:
0000
0000
0000
0000
,
0000
0000
0000
0000
,
0000
0000
0000
0000
,
0000
0000
0000
0000
,
0000
0000
0000
0000
,
0000
0000
0000
0000
,
0000
0000
0000
0000
,
0000
0000
0000
0000
,
1000
0000
0100
1000
,
0001
0000
0010
0001
,
1000
0000
0001
1000
,
0001
0010
0100
1000
,
0001
0000
1000
0100
,
1000
0000
0001
0010
,
0100
0000
0010
0100
,
1000
0010
0100
0001
,
2000
0000
3100
0000
,
1000
0001
0020
0030
,
0002
0000
0013
0000
,
0001
1000
0200
0300
,
0020
0000
0031
0000
,
0100
0001
2000
3000
,
0200
0000
1300
0000
,
0010
0100
0002
0003
,
1001
0000
1000
0000
,
0100
0000
1100
0000
,
1001
0000
1000
0000
,
0001
0000
0011
0000
,
2000
0000
3200
0000
,
0320
0000
0031
1000
,
0002
0000
0203
0000
,
0320
0000
1030
0001
,
2001
0000
3001
0100
,
1002
0000
0103
0010
,
0210
0000
0310
1000
,
0120
0000
1030
0001
,
1000
0000
1100
0000
,
0001
0000
0011
0000
,
0100
0000
0101
0000
,
0010
0000
1010
0000
,
2000
0000
3001
0000
,
0002
0000
0103
0001
,
2000
0000
3010
0000
,
0020
0000
0130
0001
,
0200
0000
0310
0000
,
0020
0000
1030
0001
,
0200
0000
0301
0000
,
0002
0000
1003
0100
,
1000
0000
0100
0000
,
0100
0000
1000
0000
,
0001
0000
0010
0000
,
0010
0000
0001
0000
,
1000
0000
1000
0000
,
0001
0000
0001
0000
,
0200
0000
0000
0300
;

//---------------dance-single - ----------------
#NOTES:
     dance-single:
     :
     Medium:
     6:
     0.344,0.432,0.079,0.324,0.000:
0000
0000
0000
0000
,
0000
0000
0000
0000
,
0000
0000
0000
0000
,
0000
0000
0000
0000
,
0000
0000
0000
0000
,
0000
0000
0000
0000
,
0000
0000
0000
0000
,
0000
0000
0000
0000
,
1000
0000
0100
0000
1000
0000
0001
0010
,
0001
0000
0100
0000
0010
0000
0100
0010
,
0100
0000
0010
0000
1000
0000
0001
1000
,
0001
0000
1000
0100
1000
0100
1000
0000
,
0001
0000
1000
0000
0100
0000
0100
1000
,
0100
0000
0010
0000
0001
0000
0001
1000
,
0010
0000
1000
0000
0100
0000
0100
0001
,
0100
0000
1000
0001
1000
0001
1000
0000
,
0000
0002
0000
0013
0000
0100
1000
0100
,
0000
2000
0000
3100
0000
0010
0001
0010
,
0000
0002
0000
1003
0000
0010
0100
0010
,
1000
0100
2000
0000
3001
0010
0002
0000
,
0000
0203
0000
0301
0000
1000
0001
0100
,
0000
0020
0000
1030
0000
0001
0010
0100
,
0000
0020
0000
0130
0000
1000
0100
0010
,
0100
1000
0200
0000
0310
0001
0020
0000
,
0032
0000
0000
0000
1003
0100
1000
0000
,
0020
0000
0000
0000
0130
0001
0100
0000
,
0200
0000
0000
0000
0301
0100
0001
0000
,
2000
0000
0000
0000
3010
1000
0010
0000
,
2002
0000
3003
0000
1000
0100
0010
0100
,
2200
0000
3300
0000
0001
0010
0100
0010
,
0022
0000
0033
0000
1000
0100
1000
0000
,
0001
0110
1000
0110
,
0002
0000
0100
0000
1003
0000
1000
0100
,
2000
0000
0010
0000
3001
0000
0001
0010
,
0002
0000
1003
0001
0100
0001
1000
0000
,
0020
0000
0130
0001
1000
0001
0100
0000
,
0001
0010
0001
0000
2000
0000
3100
0000
,
1000
0010
1000
0000
0020
0000
0130
0000
,
0002
0000
1003
0100
1000
0000
0001
0000
,
0200
0000
0310
1000
0010
0000
0100
0000
,
0001
0000
1000
0000
0010
1000
0010
0100
,
0010
0000
1000
0000
0001
0100
0010
0100
,
0010
0000
0100
0000
0010
1000
0100
1000
,
0001
1100
1000
0011
,
1000
0000
0100
0010
0100
0001
0100
0000
,
0010
0000
0001
0100
0001
1000
0010
0000
,
1000
0000
0001
1000
0001
0100
0001
0000
,
1000
1010
0001
0101
,
2000
0100
0010
3001
,
0002
0010
0100
1003
,
0200
0001
0010
0301
,
0020
1000
0100
1030
,
0200
0301
0002
1003
,
2000
3010
0020
0130
,
0002
0000
0000
0003
;

//---------------dance-single - ----------------
#NOTES:
     dance-single:
     :
     Hard:
     8:
     0.475,0.480,0.289,0.351,0.215:
0000
0000
0000
0000
,
0000
0000
0000
0000
,
0000
0000
0000
0000
,
0000
0000
0000
0000
,
0000
0000
0000
0000
,
0000
0000
0000
0000
,
0000
0000
0000
0000
,
0000
0000
0000
0000
,
1000
0000
0001
0010
0001
0000
0100
0000
1000
0000
0100
0000
0001
0000
2000
0000
,
0000
0000
3100
1000
0100
0000
0001
0000
0100
0000
1000
0000
0001
0000
0200
0000
,
0000
0000
0310
0100
0010
0000
1000
0000
0010
0000
0100
0000
0001
0000
0020
0000
,
0000
0000
0031
1000
0001
0000
1000
0000
0010
0000
0100
0000
0100
0000
0002
0000
,
0000
0000
1003
0010
1000
0000
0001
0000
0100
0000
0010
0000
0100
0000
0002
0000
,
0000
0000
0103
0001
0100
0000
0010
0000
1000
0000
0100
0000
0001
0000
0200
0000
,
0000
0000
1300
0001
1000
0000
0010
0000
0001
0000
0010
0000
1000
0000
0020
0000
,
0000
0000
0130
0010
0100
0000
0001
0000
1000
0000
0010
0000
0010
0000
2000
0000
,
0001
0001
3001
0000
0001
0010
1000
0100
,
0001
1000
0011
0000
1000
0100
0001
0010
,
1000
0001
1100
0000
0001
0010
0100
1000
,
0010
0100
0001
1000
0110
0000
1001
0000
,
0100
0001
0100
0000
0010
1000
0010
0001
,
0010
1000
0101
0000
0100
0001
0100
1000
,
0100
0001
1010
0000
0001
0010
0100
0010
,
0001
1000
0100
0010
1001
0000
0110
0000
,
1000
0000
1000
0000
0100
0020
0000
0000
0031
0000
0100
0000
0010
0000
0100
0000
,
0001
0000
0001
0000
0100
0010
0000
0010
1000
0000
0001
0000
1000
0000
0010
0000
,
1000
0000
0001
0000
0001
0200
0000
0000
0310
0000
1000
0000
0001
0000
0100
0000
,
0001
0000
1000
0000
1000
0100
0000
0100
1000
0000
0100
0000
0010
0000
0100
0000
,
2000
0000
0000
0000
0001
0000
0000
0000
3001
0000
0010
0000
0001
0010
0000
0010
,
0002
0000
0000
0000
1000
0000
0000
0000
0103
0000
0001
0000
1000
0001
0000
0100
,
0020
0000
0000
0000
0100
0000
0000
0000
1030
0000
0001
0000
0100
0010
0000
0010
,
0200
0000
0000
0000
0010
0000
0000
0000
0301
0000
1000
0000
0010
0100
0010
0000
,
1002
0000
0000
0000
0000
0000
1000
0000
1000
0000
0000
0100
0000
0000
0103
0000
,
0201
0000
0000
0000
0000
0000
0001
0000
0001
0000
0000
0010
0000
0000
0310
0000
,
0120
0000
0000
0000
0000
0000
0100
0000
0100
0000
0000
1000
0000
0000
1030
0000
,
2010
0000
0000
0000
0000
0000
0010
0000
0010
0000
0000
0001
0000
0000
3001
0000
,
0001
0000
0000
0110
0000
0000
1000
0000
0002
0000
0000
0100
0000
0000
1003
0000
,
1000
0000
0000
0101
0000
0000
1000
0000
0020
0000
0000
0001
0000
0000
0130
0000
,
0100
0000
0000
1001
0000
0000
0010
0000
2000
0000
0000
0100
0000
0000
3001
0000
,
0001
0000
0000
1010
0000
0000
0001
0000
0020
0000
0000
1000
0000
0000
0130
0000
,
2200
0000
0000
0000
0300
0000
0001
0000
3001
0000
0000
1100
0000
0000
0001
0000
,
0022
0000
0000
0000
0030
0000
1000
0000
1003
0000
0000
0011
0000
0000
1000
0000
,
0202
0000
0000
0000
0003
0000
0010
0000
0310
0000
0000
0101
0000
0000
0010
0000
,
2020
0000
0000
0000
3000
0000
0100
0000
0130
0000
0000
1010
0000
0000
0100
0000
,
0002
0000
0000
0000
1003
0000
0100
0000
0010
0000
0000
1100
0000
0000
0010
0000
,
2000
0000
0000
0000
3001
0000
0010
0000
0100
0000
0000
0011
0000
0000
0100
0000
,
0020
0000
0000
0000
1030
0000
0001
0000
0100
0000
0000
1001
0000
0000
0010
0000
,
0200
0000
0000
0000
0301
0000
0010
0000
1000
0000
0000
0110
0000
0000
0001
0000
,
1000
0000
0001
0000
0200
0000
0000
0000
0001
0000
0000
0010
0000
0000
0001
0000
,
0301
0000
1000
0000
0020
0000
0000
0000
0100
0000
0000
1000
0000
0000
0100
0000
,
0130
0000
0001
0000
2000
0000
0000
0000
0010
0000
0000
0001
0000
0000
0010
0000
,
3010
0000
1000
0000
0002
0000
0000
0000
0100
0000
0000
1000
0000
0000
0100
0000
,
0103
0000
0000
0001
0000
0000
0110
0000
0010
0000
0000
1000
0000
0000
1001
0000
,
0001
0000
0000
0100
0000
0000
1001
0000
1000
0000
0000
0010
0000
0000
0110
0000
,
0220
0000
0000
0330
;

//---------------dance-single - ----------------
#NOTES:
     dance-single:
     :
     Challenge:
     9:
     0.615,0.624,0.333,0.351,0.579: // measure 1
0000
0000
0000
0000
,  // measure 2
0000
0000
0000
0000
,  // measure 3
0000
0000
0000
0000
,  // measure 4
0000
0000
0000
0000
,  // measure 5
0000
0000
0000
0000
,  // measure 6
0000
0000
0000
0000
,  // measure 7
0000
0000
0000
0000
,  // measure 8
0000
0000
0000
0000
,  // measure 9
1000
0000
0001
0010
0001
0100
0001
0010
0001
0000
1000
0100
1000
0100
2000
0000
,  // measure 10
0000
0000
3001
0010
0100
1000
0100
0010
0001
0000
0100
0001
1000
0001
0200
0000
,  // measure 11
0000
0000
0310
1000
0001
0100
0001
1000
0010
0000
1000
0100
0010
0001
0020
0000
,  // measure 12
0000
0000
0031
0010
0001
0100
0010
1000
0002
0000
0100
0000
0010
0000
0100
0000
,  // measure 13
1003
0000
0001
0010
0100
0010
0001
1000
0001
0000
1000
0100
0001
0100
2000
0000
,  // measure 14
0000
0000
3001
0100
0010
0100
0001
0010
0001
0000
1000
0001
0010
0100
0020
0000
,  // measure 15
0000
0000
0031
0010
0001
0010
0100
1000
0100
0000
1000
0010
0100
0001
0200
0000
,  // measure 16
0000
0000
0310
1000
0001
0100
0001
1000
0002
0000
1000
0000
0100
0000
0010
0000
,  // measure 17
0103
0000
0001
0010
1000
0000
0001
0100
1000
0000
0001
0000
0100
0000
2002
0000
,  // measure 18
0000
0003
3100
1000
0010
0000
0100
0001
0010
0000
0001
0000
0010
0000
2100
0000
,  // measure 19
0000
0000
3010
1000
0001
0000
1000
0001
0100
0000
0010
0000
1000
0000
0012
0000
,  // measure 20
0000
0000
1003
0100
0010
0000
0001
0010
0100
0000
1000
0000
0001
0000
1000
0001
,  // measure 21
1000
0000
0001
1000
0100
0000
1000
0001
0010
0000
0001
0000
1000
0000
0220
0000
,  // measure 22
0000
0300
1030
0100
0001
0000
1000
0010
0001
0000
1000
0000
0001
0000
1020
0000
,  // measure 23
0000
0000
0130
0001
1000
0000
0001
1000
0010
0000
1000
0000
0010
0000
0201
0000
,  // measure 24
0000
0000
0301
0010
0001
0000
1000
0100
1000
0000
0001
0000
0010
0000
0100
1000
,  // measure 25
0200
0000
1000
0000
1300
0001
0000
0010
0000
0001
1000
0001
1000
0000
0002
0000
,  // measure 26
0010
0000
0010
0000
0013
0001
0000
1000
0000
0001
0010
0001
0100
0000
0020
0000
,  // measure 27
1000
0000
1000
0000
1030
0100
0000
0100
0000
1000
0100
0010
0001
0000
2000
0000
,  // measure 28
0001
0000
0001
0000
3001
1000
0000
1000
0000
0001
0100
0010
0100
0000
0110
0000
,  // measure 29
0001
1000
0001
0000
1000
0001
0000
0200
0000
0000
0010
0000
0301
0000
0101
0000
,  // measure 30
0001
0010
0001
0000
0100
0010
0000
2000
0000
0000
0001
0000
3010
0000
1010
0000
,  // measure 31
0010
1000
0010
0000
0100
0001
0000
0020
0000
0000
0100
0000
0031
0000
0011
0000
,  // measure 32
0100
0001
0100
0000
0010
1000
0000
0200
0000
0000
0010
0000
1300
0000
1100
0000
,  // measure 33
1002
0000
0000
0000
0000
0000
0013
0001
0010
0000
0000
1010
0000
0000
0110
0000
,  // measure 34
0210
0000
0000
0000
0000
0000
0310
1000
0010
0000
0000
0011
0000
0000
1001
0000
,  // measure 35
2001
0000
0000
0000
0000
0000
3100
1000
0100
0000
0000
0101
0000
0000
0110
0000
,  // measure 36
0120
0000
0000
0000
0000
0000
0130
0001
0100
0000
0000
1100
0000
0000
1001
0000
,  // measure 37
1020
0000
0000
0000
0000
0000
0130
0001
1000
0000
0000
0110
0000
0000
1001
0000
,  // measure 38
0201
0000
0000
0000
0000
0000
0310
1000
0001
0000
0000
0110
0000
0000
1001
0000
,  // measure 39
0012
0000
0000
0000
0000
0000
1003
0010
0100
0000
0000
1001
0000
0000
0110
0000
,  // measure 40
2100
0000
0000
0000
0000
0000
3001
0100
0010
0000
0000
1001
0000
0000
0110
0000
,  // measure 41
0001
0010
0100
0000
0010
0000
0001
0000
2000
0000
0000
0100
0000
0000
3100
0000
,  // measure 42
1000
0010
0100
0000
0010
0000
1000
0000
0002
0000
0000
0010
0000
0000
0013
0000
,  // measure 43
0010
0001
1000
0000
0001
0000
0010
0000
0200
0000
0000
1000
0000
0000
1300
0000
,  // measure 44
0100
1000
0001
0000
1000
0000
0100
0000
0020
0000
0000
0001
0000
0000
0031
0000
,  // measure 45
0001
0010
0100
0000
1000
0000
0001
0000
1000
0000
0000
0101
0000
0000
1000
0000
,  // measure 46
0001
0100
0010
0000
0100
0000
0001
0000
2000
0000
0000
0001
0000
0000
3001
0000
,  // measure 47
1000
0010
0100
0000
0001
0000
1000
0000
0001
0000
0000
1010
0000
0000
0001
0000
,  // measure 48
1000
0100
0010
0000
0100
0000
1000
0000
0020
0000
0000
0100
0000
0000
0130
0000
,  // measure 49
0100
0000
0001
0000
1000
0100
0000
0001
0000
0100
1000
0000
0001
0000
0100
0000
,  // measure 50
0010
0000
1000
0000
0001
0010
0000
1000
0000
0010
0001
0000
1000
0000
0010
0000
,  // measure 51
1000
0100
1000
0000
0001
0010
0000
0100
0000
0010
0001
0000
1000
0000
0001
0000
,  // measure 52
0010
0001
0010
0000
0001
0100
0000
0010
0000
0100
0001
0000
1000
0000
0010
0000
,  // measure 53
1000
0000
0001
0000
1000
0100
0000
0010
0000
0000
0001
0000
1000
0000
0010
0000
,  // measure 54
0100
0000
0010
0000
1000
0010
0000
0100
0000
0000
0001
0000
1000
0000
0001
0000
,  // measure 55
2002
0000
0000
3003
;
