#TITLE:Metro-Cross - A Checkered Future;
#SUBTITLE:;
#ARTIST:Another Toad;
#TITLETRANSLIT:;
#SUBTITLETRANSLIT:;
#ARTISTTRANSLIT:;
#CREDIT:348;
#BANNER:Metro-Cross - A Checkered Future Banner.png;
#BACKGROUND:Metro-Cross - A Checkered Future Background.png;
#LYRICSPATH:;
#CDTITLE:;
#MUSIC:Metro-Cross - A Checkered Future.mp3;
#OFFSET:-2.032;
#SAMPLESTART:20.029;
#SAMPLELENGTH:15.000;
#SELECTABLE:YES;
#BPMS:0.000=160.000;
#STOPS:;
#BGCHANGES:;

//---------------dance-single - ----------------
#NOTES:
     dance-single:
     :
     Beginner:
     1:
     0.085,0.156,0.000,0.000,0.000:
0000
0000
0000
0000
,
0000
0000
0000
0000
,
0000
0000
0000
0000
,
0000
0000
0000
0000
,
0000
0000
0000
0000
,
0000
0000
0000
0000
,
0001
0000
0000
0000
,
1000
0000
0000
0000
,
0001
0000
0000
0000
,
0000
0000
0000
0000
,
0000
0000
0000
0000
,
0000
0000
0000
0000
,
0100
0000
0000
0000
,
0010
0000
0000
0000
,
0100
0000
0000
0000
,
0010
0000
0000
0000
,
1000
0000
0000
0000
,
1000
0000
0000
0000
,
0001
0000
0000
0000
,
0001
0000
0000
0000
,
1000
0000
0000
0000
,
0100
0000
0000
0000
,
0010
0000
0000
0000
,
0001
0000
0000
0000
,
1000
0000
0000
0000
,
0001
0000
0000
0000
,
0100
0000
0000
0000
,
0010
0000
0000
0000
,
1000
0000
0000
0000
,
0001
0000
0000
0000
,
0001
0000
0000
0000
,
1000
0000
0000
0000
,
0010
0000
0000
0000
,
0100
0000
0000
0000
,
0100
0000
0000
0000
,
0010
0000
0000
0000
,
0100
0000
0000
0000
,
0100
0000
0000
0000
,
0010
0000
0000
0000
,
0010
0000
0000
0000
,
1000
0000
1000
0000
,
0001
0000
0001
0000
,
1000
0000
0000
0000
,
0001
0000
0000
0000
,
1000
0000
0000
0000
,
0001
0000
0000
0000
,
0010
0000
0000
0000
,
0100
0000
0000
0000
,
1000
0000
0000
0000
,
0001
0000
0000
0000
,
1000
0000
0000
0000
,
0001
0000
0000
0000
,
1000
0000
0000
0000
,
0010
0000
0010
0000
,
0100
0000
0100
0000
,
0010
0000
0000
0000
,
0100
0000
0000
0000
,
0001
0000
0000
0000
,
1000
0000
0000
0000
,
0010
0000
0000
0000
,
1000
0000
0000
0000
,
0001
0000
0000
0000
,
1000
0000
0000
0000
,
0010
0000
0000
0000
,
0100
0000
0000
0000
,
0001
0000
0000
0000
,
0001
0000
0000
0000
,
0001
0000
0000
0000
,
0001
0000
0000
0000
,
1000
0000
0000
0000
,
1000
0000
0000
0000
,
1000
0000
0000
0000
,
1000
0000
0000
0000
,
0010
0000
0000
0000
,
0100
0000
0100
0000
,
0001
0000
0000
0000
,
1000
0000
1000
0000
,
0001
0000
0000
0000
,
1000
0000
0000
0000
,
0010
0000
0000
0000
,
0100
0000
0000
0000
,
0010
0000
0000
0000
,
1000
0000
0000
0000
,
0000
0000
0000
0000
,
0001
0000
0000
0000
,
1000
0000
0000
0001
,
0000
0000
0000
0000
,
0000
0000
0000
0000
,
1000
0000
0000
0000
;

//---------------dance-single - ----------------
#NOTES:
     dance-single:
     :
     Easy:
     4:
     0.241,0.281,0.149,0.149,0.000:
0000
0000
0000
0000
,
0000
0000
0000
0000
,
0000
0000
0000
0000
,
0000
0000
0000
0000
,
0000
0000
0000
0000
,
0000
0000
0000
0000
,
1000
0000
0001
0000
,
1000
0000
0000
0000
,
0001
0000
0100
0000
,
0002
0000
0003
0000
,
1000
0000
0010
0000
,
2000
0000
3000
0000
,
0001
0000
1000
0010
,
1000
0001
1000
0000
,
0010
0000
0100
0001
,
1000
0001
0100
0000
,
0001
0000
0001
0000
,
1000
0000
1000
0000
,
0020
0000
0000
0030
,
1000
0000
0001
0000
,
1000
0000
0001
0100
,
0010
1000
0001
0000
,
0001
0000
1000
0010
,
0100
0001
1000
0000
,
0100
0000
0100
0000
,
0010
0000
0010
0000
,
0002
0000
0000
0003
,
1000
0000
1001
0000
,
0001
0000
1000
0100
,
0010
0000
0001
0010
,
0100
0000
1000
0010
,
0100
0000
0001
0100
,
0010
0100
0001
0000
,
1000
0010
0100
0000
,
0001
1000
0001
1000
,
0020
0000
0200
0330
,
0001
0000
1000
0000
,
0001
1000
0100
0000
,
0100
1000
0001
0010
,
1000
0010
0001
0000
,
1000
0001
1000
0000
,
0010
0100
0010
0000
,
2000
0000
0000
3000
,
0001
1000
0100
1000
,
0001
0000
0110
0000
,
1000
0100
1000
0100
,
0010
0001
0010
0001
,
1000
0010
1000
0010
,
0100
0001
0100
0001
,
1000
0000
0010
0000
,
1000
0010
0100
0001
,
0001
0000
0100
0000
,
0001
0100
0010
1000
,
0002
0000
0103
0000
,
2000
0000
3010
0000
,
1001
0000
0000
0000
,
2000
0000
3002
0000
,
1003
0100
0010
0001
,
1000
0000
0001
0000
,
0100
1000
0100
0001
,
0100
0000
0010
0000
,
1000
0000
0001
1000
,
0100
0000
0010
0001
,
0200
0000
0000
0300
,
0010
0000
0110
0000
,
1100
0000
0101
0000
,
1010
0000
0011
0000
,
1100
0000
1000
0000
,
0011
0000
0001
0000
,
0101
0000
0100
0000
,
1010
0000
0010
0000
,
2002
0000
0000
3003
,
0220
0000
0000
0330
,
0001
0000
1000
0100
,
1000
0000
0011
0000
,
1000
0000
0001
0010
,
0001
0000
1100
0000
,
0001
1000
0101
0000
,
1000
0001
1010
0000
,
0220
0000
0000
0330
,
1000
0001
1000
0000
,
0010
0000
0100
0000
,
2002
0000
0000
0000
,
3003
0000
0000
0000
,
1000
0000
0001
0000
,
1000
0100
0010
0002
,
0000
0000
0000
0000
,
0000
0000
0003
0000
,
0110
0000
0000
0000
;

//---------------dance-single - ----------------
#NOTES:
     dance-single:
     :
     Medium:
     7:
     0.435,0.437,0.284,0.369,0.206:
0000
0000
0000
0000
,
0000
0000
0000
0000
,
0000
0000
0000
0000
,
0000
0000
0000
0000
,
0000
0000
0000
0000
,
0000
0000
0000
0000
,
1000
0000
0001
1000
0000
0000
0001
0000
0000
0010
0000
0000
,
0001
0000
1000
0001
0000
0000
1000
0000
0000
0100
0000
0000
,
2000
0000
3001
0010
,
0001
0000
1000
0100
0000
0000
0010
0000
0000
0001
0000
0000
,
0200
0000
0310
0100
,
0001
0000
1000
0001
0000
0000
0100
0000
0000
0010
0000
0000
,
0000
0000
1000
0000
0000
0000
0100
0000
0000
0100
0000
0000
,
1000
0000
0001
0100
0000
0100
0000
0000
0100
0001
0000
0000
,
0000
0000
0010
0000
0000
0000
0001
0000
0000
0001
0000
0000
,
1000
0000
0010
1000
0000
1000
0000
0000
1000
0010
0000
0000
,
1000
0000
0100
1000
0000
0000
0002
0000
0000
0013
0000
0000
,
0001
0000
0010
0001
0000
0000
2000
0000
0000
3100
0000
0000
,
2000
0000
0002
3003
,
0001
1000
0010
0110
,
1000
0000
0002
0000
0000
0000
0100
0000
0000
0103
0000
0000
,
0100
0000
0000
0010
0000
0000
1000
0000
0001
0100
0000
0000
,
0001
0000
2000
0000
0000
0000
0010
0000
0000
3010
0000
0000
,
1000
0000
0000
0001
0000
0000
0100
0000
0010
0100
0000
0000
,
0001
0000
0000
1000
0000
0000
0001
0000
0010
0001
0000
0000
,
0100
0000
0000
0010
0000
0000
1000
0000
0010
0100
0000
0000
,
0020
0000
0200
0330
,
1000
0001
2002
3003
,
1000
0001
0010
0011
,
0001
1000
0010
1010
,
0001
1000
0100
1100
,
0001
1000
0010
1010
,
1000
0001
1000
0110
,
0010
0100
0010
1001
,
0002
0010
0100
1003
,
1001
0000
0000
0000
0000
0220
0000
0000
0000
0330
0000
0000
,
1000
0100
0010
1100
,
0001
0000
0010
0001
0000
2000
0000
0000
0000
0001
0000
0000
,
3001
0010
0100
0011
,
1000
0000
0100
1000
0000
0002
0000
0000
0000
1003
0000
0000
,
1000
0000
0001
1000
0000
0000
0100
0000
0000
1100
0000
0000
,
0001
0000
1000
0001
0000
0000
0010
0000
0000
0011
0000
0000
,
2000
0000
0002
3003
,
0200
0001
1000
0301
,
0020
1000
0001
1030
,
0001
0000
1000
0100
0000
0000
2000
0000
0000
3010
0000
0000
,
1000
0000
0010
1000
0000
0000
0001
0000
0000
0011
0000
0000
,
0100
0000
0010
1000
0000
0000
0002
0000
0000
0103
0000
0000
,
0010
0000
0100
0001
0000
0000
1000
0000
0000
1010
0000
0000
,
0002
2003
0100
3001
,
1000
0000
0000
0001
0000
0000
0100
0000
0010
0100
0000
0001
,
0200
0320
1000
0130
,
0010
0000
0000
1000
0000
0000
0001
0000
1000
0100
0000
0010
,
0001
0000
0000
0001
0000
0000
1001
0000
1000
0100
0000
0000
,
0100
0000
0000
0100
0000
0000
0110
0000
0010
0001
0000
0000
,
0002
0000
0200
0303
,
2000
0010
0100
3001
,
0002
1000
1003
1001
,
1000
0000
1000
0100
0000
0100
0000
0000
0100
1000
0000
0000
,
0020
0100
0130
0110
,
0001
0000
0001
0010
0000
0010
0000
0000
0010
0001
0000
0000
,
1000
0000
0100
1000
0000
0000
0100
0000
0000
1010
0000
0000
,
0001
0000
0010
0001
0000
0000
0010
0000
0000
0101
0000
0000
,
2000
0000
0020
3030
,
0010
0100
0220
0330
,
0001
2000
3100
1100
,
0010
0200
0301
0101
,
0100
0020
1030
1010
,
0001
0020
0031
0011
,
1000
0020
0130
1001
,
0100
0002
1003
0110
,
0001
0000
1000
0001
0000
0000
0100
0000
0010
0100
0000
0000
,
0110
0000
0000
0000
0000
2002
0000
0000
0000
3003
0000
0000
,
0001
1000
0001
1001
,
1000
0000
0001
0100
0000
0020
0000
0000
0000
0130
0000
0000
,
0010
0100
0010
0110
,
0100
0000
0010
1000
0000
0002
0000
0000
0000
1003
0000
0000
,
1000
0000
0000
1000
0000
0000
1000
0000
1000
0010
0000
0000
,
0100
0000
0000
0100
0000
0000
0100
0000
0100
0001
0000
0000
,
0020
0031
0002
1003
,
1000
0000
0000
0001
0000
0200
0000
0000
0000
0300
0000
0000
,
0110
0000
0000
0000
0000
1001
0000
0000
0000
0110
0000
0000
,
2002
0000
0000
0000
,
0000
0000
3003
0000
,
1000
0000
0010
0100
0000
0000
0001
0000
0000
1001
0000
0000
,
0100
0000
0010
1000
0000
0000
0110
0000
0000
0200
0000
0000
,
0000
0000
0010
0000
,
0010
0000
0310
0000
,
1001
0000
0000
0000
;

//---------------dance-single - ----------------
#NOTES:
     dance-single:
     :
     Hard:
     8:
     0.541,0.594,0.646,0.476,0.405:
0000
0000
0000
0000
,
0000
0000
0000
0000
,
0000
0000
0000
0000
,
0000
0000
0000
0000
,
0000
0000
0000
0000
,
0000
0000
0000
0000
,
1000
0000
0100
1000
0000
0001
0010
0000
0000
1001
0000
0000
,
0110
0000
0000
0001
0000
1000
0000
0000
0000
1001
0000
0000
,
0200
0010
0001
0310
,
0010
0000
0010
0100
0000
0100
0000
0000
0100
0001
0000
0000
,
0002
1000
0100
1003
,
1000
0000
1000
0010
0000
0010
0000
0000
0010
0100
0000
0000
,
0100
1001
0010
1001
,
1000
0000
0100
1000
0000
0110
0000
0000
0001
0010
0000
0000
,
0001
0110
1000
0110
,
0001
0000
1000
0010
0000
1001
0000
0000
0100
0001
0000
0000
,
1000
0000
0100
1000
0000
0010
0100
0000
0001
0010
0000
0000
,
0001
0000
0010
0001
0000
0100
0010
0000
1000
0100
0000
0000
,
2001
0010
0100
3010
,
1000
0000
0100
1000
0000
0000
0001
0000
0010
0001
0000
0000
,
1000
0001
1100
0011
,
1000
0000
0000
0002
0000
0100
0000
0000
0103
0001
0000
0000
,
0100
0010
1010
0101
,
0001
0000
0000
2000
0000
0010
0000
0000
3010
1000
0000
0000
,
0001
0000
0001
0010
0000
0001
0100
0000
0001
1000
0000
0000
,
1000
0000
1000
0100
0000
1000
0010
0000
1000
0001
0000
0000
,
0012
0100
1000
0103
,
1001
0110
2002
3003
,
1000
0000
0011
0000
0000
1100
0000
0000
2002
0000
0003
0000
,
3001
0000
1010
0000
0000
0101
0000
0000
0002
1000
0000
1003
,
0010
0000
1100
0000
0000
0101
0000
0000
2002
0000
3000
0000
,
0103
0000
1010
0000
0000
0011
0000
0000
2000
0001
0000
3001
,
0100
0000
1001
0000
0000
0110
0000
0000
2002
0000
3003
0000
,
0010
0000
1001
0000
0000
0220
0000
0330
0000
1001
0000
0000
,
0001
1100
1000
0011
,
0120
0000
0000
0000
0000
0230
0000
0000
0000
0310
0000
0000
,
0200
1000
0310
0110
,
0010
0000
0000
0001
0000
1001
0000
0000
1000
0001
0000
0000
,
0002
0100
1003
1001
,
0001
0000
0000
0100
0000
0110
0000
0000
0010
1000
0000
0000
,
0002
0000
0013
0001
0000
0000
0020
0000
0130
0010
0000
0000
,
0200
0000
1300
0100
0000
0000
2000
0000
3001
1000
0000
0000
,
0002
2003
3020
0230
,
0302
1000
1003
0110
,
1000
0000
0000
0001
0000
0100
0000
0000
0010
1000
0000
0000
,
0002
0000
1003
0100
0000
0000
1100
0000
0001
0010
0000
0000
,
0101
0000
1000
0010
0000
0000
2000
0000
3001
0100
0000
0000
,
0020
0000
1030
0100
0000
0000
0011
0000
0001
0010
0000
0000
,
1010
0000
0100
0001
0000
0000
0200
0000
0310
1000
0000
0000
,
0001
0011
0100
1100
,
0002
0000
0000
0003
0000
2001
0000
0000
3001
1000
0000
0000
,
0010
1010
0100
0101
,
0200
0000
0000
0300
0000
0120
0000
0000
0130
0010
0000
0000
,
1000
0000
0010
0100
0000
0000
0101
0000
0000
0011
0000
0000
,
0001
0000
0010
0100
0000
0000
1100
0000
0000
1010
0000
0000
,
0201
0010
1000
0310
,
0100
0000
0001
0100
0000
0000
0010
0000
1000
0010
0000
0000
,
2000
3001
0002
0103
,
0110
0000
0000
0000
0000
1001
0000
0000
0000
0110
0000
0000
,
0200
0310
0020
1030
,
1001
0000
0000
0000
0000
0110
0000
0000
0000
1001
0000
0000
,
1000
0000
1000
0100
0000
0010
0001
0000
0000
0001
0000
0000
,
0100
0000
0100
0001
0000
1000
0010
0000
0000
0010
0000
0000
,
1020
0100
0001
0130
,
0110
1001
0220
0330
,
2000
0000
0000
3000
0000
0011
0000
0000
0101
0000
0000
1000
,
0002
0000
0000
0003
0000
1100
0000
0000
1010
0000
0000
0100
,
0020
0000
0000
0030
0000
0110
0000
0000
1001
0000
0000
0010
,
0200
0000
0301
0100
0000
0000
0001
0000
1000
0010
0000
0000
,
2002
0000
0000
3003
0000
0110
0000
0000
1001
0000
0000
0000
,
0220
0000
0000
0330
0000
1001
0000
0000
0110
0000
0000
0000
,
2001
3001
0120
0130
,
2001
0000
0000
0000
0000
3002
0000
0000
0000
1003
0000
0000
,
0001
0000
0010
0001
0000
0000
0100
0000
0001
0100
0000
0000
,
0001
1100
0011
1000
,
0010
0000
1000
0010
0000
0000
1000
0000
0100
1000
0000
0000
,
0010
1100
0011
0100
,
0001
0000
0000
0001
0000
0000
0001
0000
0001
0100
0000
0000
,
0010
0000
0000
0010
0000
0000
0010
0000
0010
1000
0000
0000
,
0002
0023
0230
2300
,
3001
0000
0000
1000
0000
0010
0000
0000
0100
0001
0000
0000
,
1100
0000
0000
0000
0000
0011
0000
0000
0000
0110
0000
0000
,
2002
0000
0000
0000
,
0000
0000
0000
3003
,
1000
0000
0001
0100
0000
0010
1000
0000
0000
0001
0000
0000
,
0100
0000
0001
1000
0000
0010
0000
0000
0000
0200
0000
0000
,
0000
0000
0010
0301
,
0020
0000
1000
0130
,
0110
0000
0000
0000
;

//---------------dance-single - ----------------
#NOTES:
     dance-single:
     :
     Challenge:
     9:
     0.642,0.625,0.412,0.476,0.810: // measure 1
0000
0000
0000
0000
,  // measure 2
0000
0000
0000
0000
,  // measure 3
0000
0000
0000
0000
,  // measure 4
0000
0000
0000
0000
,  // measure 5
0000
0000
0000
0000
,  // measure 6
0000
0000
0000
0000
,  // measure 7
1001
0000
1000
0100
0000
0010
0001
0000
1000
0010
0000
0100
,  // measure 8
0001
0000
0000
1001
0000
0110
0000
0000
1000
0001
0000
0100
,  // measure 9
0020
0000
0000
1000
0000
0000
0001
0000
0130
0010
0000
0000
,  // measure 10
1100
0000
0001
0010
0000
0001
0100
0000
0001
2000
0000
0000
,  // measure 11
3002
0000
0000
0010
0000
0000
0100
0000
0013
0001
0000
0000
,  // measure 12
0011
0000
1000
0100
0000
1000
0010
0000
1000
0001
0000
0000
,  // measure 13
2010
0000
3001
1000
0000
0000
0102
0000
1003
0001
0000
0000
,  // measure 14
1000
0000
0001
1000
0000
1001
0000
0000
0010
0100
0000
0100
,  // measure 15
0020
0000
1030
0010
0000
0000
0201
0000
0301
0100
0000
0000
,  // measure 16
0001
0000
0100
0010
0000
0110
0000
0000
1000
0001
0000
0001
,  // measure 17
1000
0000
1000
0100
0000
0100
0010
0000
0010
0001
0000
0001
,  // measure 18
1000
0000
1000
0010
0000
0010
0100
0000
0100
0001
0000
0001
,  // measure 19
2000
3010
0102
0013
,  // measure 20
2001
0000
0010
0000
0000
3001
0010
0000
0100
1000
0000
0001
,  // measure 21
2000
0000
3100
1000
0000
0000
0012
0000
0013
0001
0000
0000
,  // measure 22
1000
0000
0100
0001
0000
0200
0000
0000
1300
0001
0000
0001
,  // measure 23
0020
0000
0130
0010
0000
0000
1200
0000
0310
0100
0000
0000
,  // measure 24
1000
0000
0001
0100
0000
0002
0000
0000
1003
0100
0000
0010
,  // measure 25
0001
0000
0001
1000
0000
1000
0010
0000
0010
0100
0000
0100
,  // measure 26
0010
0000
0010
1000
0000
1000
0001
0000
0001
1000
0000
1000
,  // measure 27
0002
0013
2100
3001
,  // measure 28
0110
0000
1000
0001
0000
0002
2000
0000
0003
3001
0000
0000
,  // measure 29
0002
0000
0013
0000
0000
0011
0000
0000
1000
0010
0000
0010
,  // measure 30
2000
0000
3100
0000
0000
1100
0000
0000
0001
0100
0000
0100
,  // measure 31
0002
0000
1003
0000
0000
1001
0000
0000
0010
0100
0000
0100
,  // measure 32
0010
0000
1000
0001
0000
0010
0100
0000
1000
0001
0000
0100
,  // measure 33
0020
0000
1030
0000
0000
1010
0000
0000
0100
0001
0000
0001
,  // measure 34
0200
0000
0301
0000
0000
0101
0000
0000
0010
1000
0000
1000
,  // measure 35
0020
0000
1030
0001
0000
0000
2000
0000
3001
0100
0000
0000
,  // measure 36
0002
0000
0103
0010
0000
2001
0000
0000
3001
1000
0000
1000
,  // measure 37
0002
0103
2010
3001
,  // measure 38
0001
0000
1000
0200
0000
0320
0000
0000
0031
1000
0000
0000
,  // measure 39
0201
0310
0120
1030
,  // measure 40
0010
0000
1000
0002
0000
2003
0000
0000
3001
0100
0000
0000
,  // measure 41
0001
0000
0001
1000
0000
1000
0001
0000
0001
0100
0000
0100
,  // measure 42
0010
0000
0010
0100
0000
0100
0010
0000
0010
1000
0000
1000
,  // measure 43
0020
0130
0210
0301
,  // measure 44
0001
0000
0001
1000
0000
1001
0000
0000
0100
0001
0000
1000
,  // measure 45
0010
0000
0100
0010
0000
0110
0000
0000
1000
0010
0000
0100
,  // measure 46
0001
0000
0001
0100
0000
0100
1000
0000
1000
0100
0000
0100
,  // measure 47
0001
0000
0001
0010
0000
0010
1000
0000
1000
0010
0000
0010
,  // measure 48
0001
0000
1000
0100
0000
0100
0001
0000
0001
0100
0000
0100
,  // measure 49
1000
0000
1000
0010
0000
0010
0001
0000
0001
0010
0000
0010
,  // measure 50
2000
0100
0010
3001
,  // measure 51
1001
0000
1000
0001
0000
0110
0000
0000
0100
0010
0000
1000
,  // measure 52
0002
0100
0010
1003
,  // measure 53
0110
0000
0010
0100
0000
1001
0000
0000
1000
0001
0000
0100
,  // measure 54
0010
0000
0010
1000
0000
1000
0001
0000
0001
0100
0000
0100
,  // measure 55
0001
0000
1000
0010
0000
0010
0100
0000
0100
0001
0000
0001
,  // measure 56
0200
0310
0120
1030
,  // measure 57
0120
0000
0100
0000
0000
0130
0001
0000
1000
0010
0000
0100
,  // measure 58
0010
0210
0001
0310
,  // measure 59
0001
0000
0001
0100
0000
1010
0000
0000
1000
0010
0000
0010
,  // measure 60
1000
0102
1000
0103
,  // measure 61
0100
0000
0001
0010
0000
1100
0000
0000
1000
0010
0000
0100
,  // measure 62
0001
0000
1000
0010
0000
0010
1000
0000
0001
0100
0000
0100
,  // measure 63
0001
0000
1000
0100
0000
0100
1000
0000
0001
0010
0000
0010
,  // measure 64
0002
0103
0210
0301
,  // measure 65
1001
0000
0010
0100
0000
0200
0020
0000
0300
0130
0000
0000
,  // measure 66
1001
0000
0001
0100
0000
0102
0000
0000
1003
0100
0000
0100
,  // measure 67
1000
0000
1000
0010
0000
2010
0000
0000
3001
0010
0000
0010
,  // measure 68
0001
0000
1000
0001
0000
0110
0000
0000
0001
1000
0000
1000
,  // measure 69
0001
0000
0001
0100
0000
0100
0010
0000
0010
1000
0000
1000
,  // measure 70
0001
0000
0001
0010
0000
0012
0000
0000
1003
0010
0000
0010
,  // measure 71
1000
0000
1000
0100
0000
2100
0000
0000
3001
0100
0000
0100
,  // measure 72
0001
0000
1000
0020
0000
0000
0230
0000
0301
1000
0000
0000
,  // measure 73
0001
0000
1000
0010
0000
0120
0000
0000
0130
0010
0000
0010
,  // measure 74
2000
0000
0000
0001
0000
0000
3010
0000
1000
0100
0000
0010
,  // measure 75
0002
0000
0000
0103
0000
0101
0000
0000
1000
0010
0000
0000
,  // measure 76
0120
0000
0000
1000
0000
0000
0130
0000
0010
0100
0000
0001
,  // measure 77
2000
0000
0000
3010
0000
1010
0000
0000
0001
0100
0000
0000
,  // measure 78
0001
0000
0010
0001
0000
0100
0010
0000
1000
0100
0000
1000
,  // measure 79
0010
0000
0100
0001
0000
1000
0001
0000
0001
1000
0000
0010
,  // measure 80
0200
0000
0001
0000
0000
0010
0000
0000
0301
0100
0000
0001
,  // measure 81
1000
0000
0010
2000
0000
0001
0000
0000
0010
0000
0000
3100
,  // measure 82
1000
0000
0000
0000
0000
0110
0000
0000
0000
1001
0000
0000
,  // measure 83
0220
0000
0000
0000
,  // measure 84
0000
0000
0000
0330
,  // measure 85
1000
0000
1000
0100
0000
0100
0010
0000
0011
0000
0000
0001
,  // measure 86
1000
0000
1000
0010
0000
1010
0000
0000
0000
1002
0000
0000
,  // measure 87
0100
0010
0100
1003
,  // measure 88
2010
0001
0010
3100
,  // measure 89
1001
0000
0000
0000
;
