#TITLE:マジックアカデミー組曲;
#SUBTITLE:;
#ARTIST:マジックアカデミー管弦楽部;
#TITLETRANSLIT:MAGIC ACADEMY KUMIKYOKU;
#SUBTITLETRANSLIT:;
#ARTISTTRANSLIT:MAGIC ACADEMY KANGENGAKUBU;
#CREDIT:DMAxel;
#BANNER:MAGIC ACADEMY KUMIKYOKU.png;
#BACKGROUND:MAGIC ACADEMY KUMIKYOKU-bg.png;
#LYRICSPATH:;
#CDTITLE:pop'n music.png;
#MUSIC:MAGIC ACADEMY KUMIKYOKU.mp3;
#OFFSET:-2.340;
#SAMPLESTART:5.534;
#SAMPLELENGTH:12.000;
#SELECTABLE:YES;
#DISPLAYBPM:75.000:170.000;
#BPMS:0.000=75.000,4.000=110.000,22.000=130.000,70.000=170.000,118.000=120.000,130.000=170.000,246.000=130.000,278.000=65.000;
#STOPS:;
#BGCHANGES:;

//---------------dance-single - ----------------
#NOTES:
     dance-single:
     :
     Easy:
     3:
     0.271,0.309,0.080,0.208,0.000:
0000
0000
0000
0000
,
1001
0000
0000
0000
,
1001
0000
0000
0000
,
0200
0000
0000
0000
,
0320
0000
0000
0000
,
0030
0000
1000
0000
,
0001
1000
0001
0000
,
0100
0010
0100
0000
,
0010
1000
0010
0000
,
1000
0001
2000
0000
,
3100
0010
0002
0000
,
0013
0100
2000
0000
,
3001
1000
0002
0000
,
0103
0010
2001
0000
,
3001
0010
0200
0000
,
1300
0010
0200
0000
,
0302
0000
2003
0000
,
3000
0000
0001
1000
,
0001
0000
0100
0001
,
1000
1000
0001
1000
,
0001
0000
0010
0001
,
1000
1000
0010
0100
,
0020
0000
1030
0001
,
2000
0000
3100
0010
,
0002
0000
0103
0010
,
1000
1000
0001
0010
,
0200
0000
1300
0010
,
0100
0001
1000
0001
,
2000
0000
3100
0010
,
0002
0000
1003
0000
,
0000
0000
0000
0000
0000
0001
0000
0000
,
0010
0000
0000
0100
0000
0000
2000
0000
,
0000
0000
0000
0000
,
0000
0000
0000
0000
3001
0000
0000
0100
,
0000
0000
0001
0000
0000
0100
0000
0000
,
0010
0000
1000
0000
0100
0000
0000
1000
,
0000
0000
0100
0000
0000
1000
0000
0000
,
0100
0000
0010
0000
0001
0000
0000
0100
,
0000
0000
0010
0000
0000
0100
0000
0000
,
0001
0000
0010
0000
0100
0000
0000
1000
,
0000
0000
0100
0000
0000
1000
0000
0000
,
0010
0100
0001
0010
,
0100
1000
0100
0010
,
0000
0000
0001
0010
,
0100
1000
0100
0010
,
0000
0000
0001
0010
,
0100
1000
0100
0010
,
0000
0000
0002
0000
,
0000
0000
2003
0000
,
0000
0000
0000
0000
3001
0000
0000
1001
,
0000
0200
0000
0010
,
0010
0000
0310
0000
0110
0000
0000
1001
,
0000
0020
0000
0100
,
0100
0130
0002
1000
,
2003
0001
3002
0010
,
0013
0100
2000
0000
,
0000
3001
0100
0010
,
1000
0000
0100
0000
0010
0000
0000
1001
,
0000
0000
0010
0000
0000
1001
0000
0000
,
0100
0000
0000
1000
0001
0000
0100
0000
,
0001
0000
0100
0000
0010
0000
0000
1000
,
0000
0001
1000
0100
,
0010
0001
1000
0100
,
0010
0001
0100
0010
,
0100
0001
0100
0010
,
0100
0001
0010
0100
,
1000
0001
0010
0100
,
1000
0010
0100
0010
,
1000
0010
0100
0010
,
1000
0001
1001
0100
,
1001
0100
0000
0000
;

//---------------dance-single - ----------------
#NOTES:
     dance-single:
     :
     Medium:
     6:
     0.398,0.423,0.184,0.152,0.000:
0000
0000
0000
0000
,
0101
0000
0000
0000
0000
1000
0000
0000
,
1100
0000
0000
0000
0000
0001
0000
0000
,
2001
0000
0000
0001
0000
0000
0000
0000
,
3002
0000
2000
0000
,
0003
0000
3001
0010
,
0100
1000
0010
0100
,
0010
1000
0100
0010
,
0001
0100
0010
0100
,
0000
0110
0000
0001
2000
0000
0100
0000
,
3100
0010
0002
0010
,
0013
0100
2000
0001
,
3001
0010
0100
1001
,
0000
1000
0001
1000
0002
0000
0010
0000
,
0013
0100
2000
0100
,
3100
0010
0001
0100
,
1000
0100
0001
0010
,
0100
0000
1001
0100
,
0010
0001
1000
0010
,
0100
0001
0100
0001
0100
0000
0001
0000
,
0010
0100
1000
0001
,
0100
0010
0100
0010
0100
0000
0001
0000
,
1000
0100
0001
0100
,
1000
0001
1000
0001
1000
0000
0001
0000
,
0010
1000
0010
0001
,
0100
0010
0100
0010
0100
0000
1001
0000
,
0001
0100
1000
0100
,
0001
1000
0001
1000
0001
0000
1000
0000
,
0010
0001
0010
1000
,
0001
1000
0001
0000
0001
0000
0000
0000
,
0000
0000
0000
0000
0000
1100
0000
0000
,
0110
0000
0000
0011
0000
0000
1002
0000
,
0000
0000
0000
0000
,
0000
0000
0000
0000
1003
0000
0010
1000
,
0000
0010
1000
0000
0010
1000
0000
0010
,
1000
0000
0010
0000
0100
0000
0001
0010
,
0000
0001
0010
0000
0001
0010
0000
0001
,
0010
0000
0001
0000
1000
0000
0001
0100
,
0000
0001
0100
0000
0001
0100
0000
0001
,
0100
0000
0001
0000
1000
0000
0100
1000
,
0000
0100
1000
0000
0100
1000
0000
0100
,
1000
0000
0010
0000
1000
0010
1000
0001
,
0010
0000
0001
0010
0001
1000
0020
0000
,
0000
0000
0000
0000
1030
0010
1000
0001
,
0010
0000
0001
0010
0001
1000
0020
0000
,
0000
0000
0000
0000
1030
0010
1000
0001
,
0010
0000
0001
0010
0001
1000
0020
0000
,
0000
0000
1030
0100
,
0010
0000
0001
0000
0100
0010
0100
0000
,
0000
0001
0010
0100
1000
0000
0000
1100
,
0000
0102
0000
1000
,
1000
0000
1003
0000
0011
0000
0000
0011
,
0000
2010
0000
0001
,
0001
0000
3001
0000
0010
0001
0010
0001
,
0010
0001
0010
0000
0100
1000
0100
1000
,
0100
1000
0100
0000
1000
0001
1000
0001
,
1000
0001
1000
0100
0010
0001
1000
0100
,
0000
0000
0000
0000
1100
0000
0000
0110
,
0000
0000
0011
0000
0000
1001
0000
0000
,
0010
0100
0010
1000
0002
0000
0100
0000
,
0103
0000
0010
0000
1010
0000
0000
0101
,
0000
0000
1001
0000
0001
0100
0010
1000
,
0100
0000
0100
0000
1000
0010
0100
0001
,
0010
0000
0010
0000
0001
0010
0100
1000
,
0010
0000
0010
0000
1000
0100
0010
0001
,
0100
0000
0100
0000
0001
0100
0010
1000
,
0100
0000
0100
0000
1000
0010
0100
0001
,
0010
0000
0010
0000
0001
0010
0100
1000
,
0010
0000
0010
0000
1000
0100
0010
0001
,
0100
0010
0100
0000
0002
0000
0023
0000
,
0230
2300
3000
0000
;

//---------------dance-single - ----------------
#NOTES:
     dance-single:
     :
     Hard:
     8:
     0.583,0.620,0.096,0.208,0.312: // measure 1
0000
0000
0000
0000
,  // measure 2
1001
0000
0000
0000
0000
0000
1000
0100
2000
0000
0000
0001
0000
0000
3001
0000
,  // measure 3
1001
0000
0000
0000
0000
0000
0001
0010
0002
0000
1000
0000
1000
0000
1003
0000
,  // measure 4
0001
0010
0100
1000
0000
0010
0100
0010
,  // measure 5
1000
0100
0010
0001
2000
0000
0000
0000
,  // measure 6
0000
0000
0000
0000
0000
0000
0000
0000
3001
0000
0010
0000
0100
0000
1000
0001
,  // measure 7
0000
0001
0000
0100
0010
0000
1000
0000
0100
0000
0010
0001
0000
0001
0000
0100
,  // measure 8
0010
0000
1000
0000
0100
0000
0000
1000
0001
0000
0100
0010
0000
0010
0000
0100
,  // measure 9
0010
0000
1000
0000
0001
0000
0000
1000
0001
0000
0100
0010
0000
0010
0000
0100
,  // measure 10
0010
0000
1000
0000
0001
0000
0010
0000
0100
0000
1000
0010
0000
1000
0000
0001
,  // measure 11
0000
0010
0000
0001
1000
0000
0100
0000
0010
0000
0001
0100
0000
0001
0000
1000
,  // measure 12
0000
0100
0000
1000
0001
0000
0100
0000
0010
0000
1000
0001
0000
1000
0000
0010
,  // measure 13
0000
0100
0000
0010
1000
0000
0010
0000
0100
0000
0001
1000
0000
0001
0000
0100
,  // measure 14
0000
0000
0010
0000
1000
0000
0100
0000
0010
0000
0001
0100
0000
0100
0000
0010
,  // measure 15
0000
1000
0000
0001
0100
0000
0100
0000
0001
0000
1000
0010
0000
0010
0000
0100
,  // measure 16
0000
0001
0000
1000
0010
0000
0010
0000
0200
0000
0000
0001
0000
0000
0301
0000
,  // measure 17
2000
0000
0000
0010
0000
0000
3010
0000
0100
0000
0001
1000
0000
1000
0000
0001
,  // measure 18
2000
0000
0000
0000
3001
0100
0001
0000
,  // measure 19
1000
0100
1000
0000
0010
0100
0010
0000
,  // measure 20
1000
0100
0010
0001
1000
0010
1000
0010
,  // measure 21
0100
0001
0100
0001
1000
0010
0100
0010
,  // measure 22
1000
0100
0010
0001
1000
0010
0010
0000
,  // measure 23
2000
0000
0000
0001
0000
0000
3001
0000
0000
0000
0100
0000
0010
0000
0000
0000
,  // measure 24
1000
0100
0001
0100
1000
0010
0010
0000
,  // measure 25
2000
0000
0000
0001
0000
0000
3001
0000
0000
0000
0100
0000
0010
0000
0000
0000
,  // measure 26
1000
0100
0001
0100
1000
0000
1001
0000
,  // measure 27
0002
0000
0000
1000
0000
0000
1003
0000
0000
0000
0010
0000
0100
0000
0000
0000
,  // measure 28
0001
0100
1000
0100
0001
1000
1000
0000
,  // measure 29
0002
0000
0000
1000
0000
0000
1003
0000
0010
0100
0000
0001
0000
0000
0000
1000
,  // measure 30
0001
0100
1000
0100
0002
0000
0000
0000
,  // measure 31
0000
0000
0000
0000
0000
0000
0000
0000
1003
0000
0000
1000
0010
0000
0000
0000
,  // measure 32
0010
0000
0000
0010
0100
0000
0000
0000
0100
0000
0000
0100
0002
0000
0000
0000
,  // measure 33
0000
0000
0000
0000
,  // measure 34
0000
0000
0003
0000
1001
0000
0100
1000
,  // measure 35
0000
0001
0100
0000
0001
0100
0010
1000
,  // measure 36
0100
0000
1100
0000
1001
0000
0100
0001
,  // measure 37
0000
1000
0100
0000
1000
0100
0010
0001
,  // measure 38
0100
0000
0101
0000
1001
0000
0100
1000
,  // measure 39
0000
0001
0100
0000
0001
0100
1000
0100
,  // measure 40
0001
0000
0101
0000
1001
0000
0100
0001
,  // measure 41
0000
1000
0100
0000
1000
0100
0001
0100
,  // measure 42
1000
0100
0010
0001
1000
0100
0001
0100
,  // measure 43
0010
0000
0001
0100
1000
0100
0020
0000
,  // measure 44
1000
0000
1030
0000
0001
0100
1000
0100
,  // measure 45
0010
0000
1000
0100
0001
0100
0020
0000
,  // measure 46
0001
0000
0031
0000
1000
0100
0001
0100
,  // measure 47
0010
0000
0001
0100
1000
0100
0020
0000
,  // measure 48
1000
0000
1030
0000
0001
0100
0001
0100
,  // measure 49
0010
1000
0100
0000
1000
0010
1000
0010
,  // measure 50
0100
0001
0100
1000
0100
0001
0010
0100
,  // measure 51
1000
0010
0200
0000
0000
0001
0001
0000
,  // measure 52
0301
1000
0100
0010
0001
0100
1000
0100
,  // measure 53
0001
0010
0200
0000
0000
1000
0000
1000
,  // measure 54
1300
0001
0100
0000
0001
0010
0100
1000
,  // measure 55
0010
0100
0010
1000
0100
0010
0001
0100
,  // measure 56
0010
0100
0001
0010
0100
1000
0010
0100
,  // measure 57
0010
1000
0100
0001
0100
1000
0001
0200
,  // measure 58
0000
0001
0301
1000
0010
0010
0100
0001
,  // measure 59
0001
1000
0100
0100
0010
0001
0001
0100
,  // measure 60
0010
0010
1000
0001
0100
0010
0100
0001
,  // measure 61
0010
0100
1000
0000
0101
0000
0000
1100
,  // measure 62
0000
0000
1000
0000
0001
0000
0000
0000
0100
0000
1000
0000
0100
0000
0001
1000
,  // measure 63
0001
1000
0001
0000
0010
0000
0100
0000
0001
0000
0100
0000
1000
0000
0100
0000
,  // measure 64
0001
0000
0100
0020
0000
0000
1000
0000
1030
0000
0100
0000
0001
0000
0100
0000
,  // measure 65
1000
0010
1000
0000
0001
0000
0100
0002
0000
0000
1003
0100
0000
0000
1000
0000
,  // measure 66
0000
0010
0100
0000
0001
1000
0001
1000
0001
0000
0010
0000
0100
0000
1000
0001
,  // measure 67
1000
0001
1000
0000
0001
0000
0100
0000
1000
0000
0100
0000
0010
0000
1000
0000
,  // measure 68
0001
0000
0100
0020
0000
0000
1000
0000
1030
0000
0010
0000
0100
0000
0001
0000
,  // measure 69
0010
0100
0010
0000
0001
0000
0100
0002
0000
0000
1003
0100
0000
0000
1000
0000
,  // measure 70
0000
0010
0100
0000
0001
1000
0001
1000
0002
0000
0000
0000
0023
0000
0000
0000
,  // measure 71
0230
2300
3000
0000
;

//---------------dance-single - ----------------
#NOTES:
     dance-single:
     :
     Beginner:
     1:
     0.067,0.111,0.032,0.000,0.000:
0000
0000
0000
0000
,
0000
0000
0000
0000
,
0000
0000
0000
0000
,
0000
0000
0000
0000
,
0000
0000
0000
0000
,
0000
0000
1000
0000
,
0000
0000
0001
0000
,
0000
0000
1000
0000
,
0000
0000
0001
0000
,
0000
0000
0100
0000
,
0000
0000
0010
0000
,
0000
0000
0100
0000
,
0000
0000
0010
0000
,
0000
0000
1000
0000
,
0000
0000
0001
0000
,
0000
0000
1000
0000
,
0100
0000
0010
0000
,
0001
0000
1000
0000
,
0000
0000
0000
0000
,
0000
0000
1000
0000
,
0000
0000
0000
0000
,
0000
0000
0001
0000
,
0000
0000
0001
0000
,
0000
0000
1000
0000
,
0000
0000
1000
0000
,
0000
0000
0001
0000
,
0000
0000
0001
0000
,
0000
0000
1000
0000
,
0000
0000
1000
0000
,
0000
0000
0001
0000
,
0000
0000
0000
0000
,
0000
0000
0000
0000
,
0000
0000
0000
0000
,
0000
0000
1001
0000
,
0000
0000
0000
0000
,
0001
0000
1000
0000
,
0000
0000
0001
0000
,
0000
0000
0100
0000
,
0000
0000
0000
0000
,
0000
0000
0010
0000
,
0000
0000
0000
0000
,
0000
0000
0100
0000
,
0000
0001
0000
0000
,
0000
0000
1000
0000
,
0000
0010
0000
0000
,
0000
0000
1000
0000
,
0000
0001
0000
0000
,
0000
0000
0100
0000
,
0000
0000
0100
0000
,
0000
0000
0110
0000
,
0000
0000
0000
0000
,
0000
0000
1001
0000
,
0000
0000
0000
0000
,
0000
0000
0001
0000
,
0000
0000
0000
0000
,
0000
0000
1000
0000
,
0000
0000
0000
0000
,
0000
0000
1001
0000
,
0000
0000
0000
0000
,
0000
0000
0100
0000
,
0000
0000
0010
0000
,
0000
0000
0100
0000
,
0000
0000
0001
0000
,
0000
0000
0100
0000
,
0000
0000
0010
0000
,
0000
0000
1000
0000
,
0000
0000
0001
0000
,
0000
0000
1000
0000
,
0000
0000
0010
0000
,
0000
0000
0010
0000
;
