#TITLE:Flowering Night;
#SUBTITLE:-Night Of Nights-;
#ARTIST:COOL&CREATE;
#TITLETRANSLIT:;
#SUBTITLETRANSLIT:;
#ARTISTTRANSLIT:;
#CREDIT:;
#BANNER:bn.PNG;
#BACKGROUND:bg.PNG;
#LYRICSPATH:;
#CDTITLE:;
#MUSIC:Night of Nights.ogg;
#OFFSET:-0.500;
#SAMPLESTART:21.820;
#SAMPLELENGTH:16.420;
#SELECTABLE:YES;
#BPMS:0.000=180.000;
#STOPS:;
#BGCHANGES:;

//---------------dance-single - ----------------
#NOTES:
     dance-single:
     :
     Challenge:
     12:
     1.000,1.000,0.199,0.976,0.868:
0000
0000
0000
0000
,
0000
0000
0000
0000
,
0000
0000
0000
0000
,
0000
0000
0000
0000
,
1000
0000
0001
0000
0010
0001
0000
0100
0000
0010
0000
1000
0100
0010
0001
1000
,
0000
0010
1000
0000
0001
0010
0000
0001
0000
0100
0000
0010
2000
0000
3001
0000
,
0020
0000
0031
0000
0100
0010
0000
1000
0000
0100
0000
1000
0100
0010
0001
1000
,
0000
0010
1000
0000
0001
0010
0000
0001
0000
1000
0001
1000
0100
0010
0001
0010
,
0100
0000
0010
0000
0001
0010
0000
0001
0000
0100
0000
0010
1000
0100
1000
0010
,
0000
0100
0001
0000
0010
0001
0000
1000
0000
0100
0000
1000
0020
0000
0130
0000
,
0002
0000
1003
0000
0100
1000
0000
0010
0000
0100
0000
0001
0010
1000
0010
0001
,
0000
0100
0001
0000
1000
0100
0000
1000
0000
0010
0000
0100
0002
0000
1003
0000
,
0002
0000
0013
0000
0100
1000
0000
0100
0000
0010
0000
0001
0100
0010
1000
0010
,
0000
0100
0001
0000
0010
0100
0000
1000
0000
0001
0000
0100
0020
0000
1030
0000
,
0200
0000
1300
0000
0010
0100
0000
0001
0000
0010
0000
0001
0100
0010
1000
0100
,
0000
1000
0010
0000
0100
0001
0000
0010
0000
0100
0000
1000
0001
0100
0001
0000
,
1000
0000
0100
0000
1000
0010
1000
0000
0010
0000
0100
0000
0001
0010
0001
0010
,
0001
0000
0010
0000
0100
1000
0100
1000
0200
0000
0320
0000
0032
0000
0203
0000
,
0310
0000
1000
0000
0100
1000
0100
0000
1000
0000
0010
0000
0100
0001
0100
0001
,
0100
0000
0001
0000
0010
0001
0010
0001
0020
0000
0230
0000
2300
0000
3002
0000
,
0103
0000
0010
0000
1000
0100
1000
0000
0010
0000
0100
0000
0001
0010
0001
0010
,
0001
0000
0000
0000
0000
0000
0010
0000
0000
0000
0000
0000
0100
0000
0000
1000
0000
0000
0100
0000
0000
1000
0000
0000
0100
0000
0000
0000
0000
0000
1000
0000
0010
0000
1000
0000
0010
0000
0000
0000
0000
0000
0100
0000
0000
0000
0000
0000
,
0110
0000
0000
1001
0000
0000
1000
0000
1010
0000
0000
0101
0000
0000
0001
0000
,
1001
0000
0001
0100
0010
0000
1000
0000
0110
0000
0010
0000
1000
0000
0001
0000
,
0011
0000
0100
0000
0010
1000
0100
0000
1000
0000
0010
0000
0100
0001
0010
0001
,
0100
0000
0010
0000
1000
0001
0100
0001
2000
0000
3200
0000
0320
0000
0032
0000
,
0103
0000
0010
0000
1000
0100
0010
0000
0001
0000
0100
0000
0010
1000
0001
0100
,
0001
0000
0010
0000
0100
1000
0010
0100
0002
0000
2003
0000
3200
0000
2300
0000
,
3010
0000
0100
0000
0001
0010
1000
0000
0010
0000
0001
0000
0100
1000
0100
0001
,
0100
0000
0000
0000
0000
0000
0001
0000
0000
0000
0000
0000
0010
0000
0000
0100
0000
0000
1000
0000
0000
0100
0000
0000
0010
0000
0000
0000
0000
0000
0001
0000
1000
0000
0001
0000
1000
0000
0000
0000
0000
0000
0010
0000
0000
0000
0000
0000
,
1010
0000
0000
0000
0000
0000
0000
0000
0000
0101
0000
0000
0000
0000
0000
0000
0000
0000
0100
0000
0000
0000
0000
0000
0110
0000
0000
0000
0000
0000
0010
0000
1000
0000
0001
0000
0010
0000
0000
0000
0000
0000
0100
0000
0000
0000
0000
0000
,
2010
0000
0001
0000
0010
0000
0001
3000
,
1000
0000
0001
0000
0010
0001
0010
0000
0001
0000
0100
0000
0010
1000
0010
1000
,
0010
0000
0100
0000
0001
1000
0001
1000
0001
0000
0010
0000
0100
0000
1000
0000
,
0010
0000
1000
0000
0100
1000
0100
0000
0010
0000
0001
0000
0100
0001
0100
0001
,
0100
0000
0000
0000
0000
0000
0010
0000
0000
0000
0000
0000
0100
0000
0000
0010
0000
0000
0100
0000
0000
0010
0000
0000
0100
0000
0000
0000
0000
0000
0001
0000
0010
0000
0001
0000
0010
0000
0000
0000
0000
0000
0100
0000
0000
0000
0000
0000
,
1000
0000
0001
0010
0001
0000
0100
0000
0010
1000
0100
1000
0010
0000
0100
0000
,
0001
0010
0100
1000
0010
1000
0001
0010
,
0001
0000
0100
0000
0010
1000
0010
0000
0100
0000
0001
0000
0010
0001
0010
0001
,
0010
0000
0000
0000
0000
0000
0001
0000
0000
0000
0000
0000
0100
0000
0000
0010
0000
0000
0100
0000
0000
0010
0000
0000
0100
0000
0000
0000
0000
0000
0010
0000
1000
0000
0010
0000
1000
0000
0000
0000
0000
0000
0010
0000
0000
0000
0000
0000
,
0100
0000
0001
0000
1000
0100
0010
0000
0001
0000
0100
0000
0010
1000
0001
0100
,
0001
0000
0010
0000
0100
1000
0010
1000
0001
0000
0010
0000
0001
0000
0100
0000
,
0010
0000
1000
0000
0100
0001
0100
0000
1000
0000
0010
0000
0100
0001
0010
0001
,
0100
0000
0000
0000
0000
0000
0010
0000
0000
0000
0000
0000
1000
0000
0000
0100
0000
0000
0010
0000
0000
0001
0000
0000
1000
0000
0000
0000
0000
0000
0001
0000
1000
0000
0001
0000
1000
0000
0000
0000
0000
0000
0001
0000
0000
0000
0000
0000
,
0010
0000
0100
1000
0001
0000
0010
0000
0001
1000
0100
0010
0001
0000
1000
0000
,
0001
0100
0010
1000
0001
0010
0100
1000
,
0010
0000
1000
0000
0100
1000
0010
0000
1000
0000
0100
0000
1000
0001
0100
0010
,
1000
0000
0001
0000
0010
0100
1000
0010
0100
0000
0001
0000
0020
0000
0030
0000
,
0002
0013
2000
3010
0002
0103
2000
3200
,
0000
0301
0020
0130
2000
3010
0200
0301
,
0020
0130
2000
3001
0200
0310
2000
3200
,
0000
0301
0200
1300
0020
0130
0002
2003
,
3200
1300
0020
0130
0002
0013
0200
2300
,
0000
3100
0020
0031
0200
0310
2000
3001
,
0200
0301
0020
0130
2000
3001
0200
0320
,
0000
1030
0200
1300
0020
0130
0002
2003
,
3200
1300
0020
0031
0020
1030
0200
0320
,
0000
0031
2000
3100
2000
3010
0200
0301
,
0200
1300
0200
0301
0020
0230
1300
0002
,
0000
0103
0020
1030
0020
0031
0020
1030
,
0020
0130
0002
0013
0200
1300
0002
2003
,
0000
3100
0020
0031
0200
0310
2000
3200
,
2300
3001
0010
0002
0203
0310
1000
0200
,
0000
0000
0310
0000
0001
0000
1000
0100
0010
0000
0001
0000
0010
0100
1000
0010
,
0100
0000
0010
0000
1000
0010
1000
0000
0010
0000
0100
0000
0001
0010
0001
0010
,
0001
0000
0010
0000
0100
1000
0100
1000
0200
0000
0320
0000
0032
0000
0203
0000
,
0310
0000
1000
0000
0100
1000
0100
0000
1000
0000
0010
0000
0100
0001
0100
0001
,
0100
0000
0001
0000
0010
0001
0010
0001
0020
0000
0230
0000
2300
0000
3002
0000
,
0103
0000
0010
0000
1000
0100
1000
0000
0010
0000
0100
0000
0001
0010
0001
0010
,
0001
0000
0000
0000
0000
0000
0010
0000
0000
0000
0000
0000
0100
0000
0000
1000
0000
0000
0100
0000
0000
1000
0000
0000
0100
0000
0000
0000
0000
0000
1000
0000
0010
0000
1000
0000
0010
0000
0000
0000
0000
0000
1000
0000
0000
0000
0000
0000
,
1010
0000
0000
0110
0000
0000
0001
0000
0011
0000
0000
0110
0000
0000
1000
0000
,
1001
0000
1000
0010
0100
0000
0001
0000
0110
0000
0100
0000
0001
0000
1000
0000
,
1010
0000
0010
0000
0100
0001
0010
0000
0001
0000
0100
0000
0010
1000
0100
1000
,
0010
0000
0100
0000
0001
1000
0010
1000
0002
0000
0023
0000
0230
0000
2300
0000
,
3010
0000
0100
0000
0001
0010
0100
0000
1000
0000
0010
0000
0100
0001
1000
0010
,
1000
0000
0100
0000
0010
0001
0100
0010
2000
0000
3002
0000
0023
0000
0032
0000
,
0203
0000
0000
0000
0310
0000
1000
0100
0010
0000
0001
0000
0100
0000
0002
0000
,
0000
0000
1003
0000
0001
0000
1000
0100
0010
0001
0100
0001
0010
0000
0100
0000
,
1100
0000
0000
1000
0000
0000
0010
0000
0110
0000
0100
0000
0001
0000
1000
0000
,
1100
0000
1000
0000
1010
0000
0010
0100
0001
0010
1000
0010
0001
0000
1000
0000
,
0002
0000
0000
0000
,
0000
0000
0000
0000
,
0000
0000
0003
0000
;

//---------------dance-single - ----------------
#NOTES:
     dance-single:
     :
     Hard:
     9:
     0.664,0.633,0.081,0.271,0.172:
0000
0000
0000
0000
,
0000
0000
0000
0000
,
0000
0000
0000
0000
,
0000
0000
0000
0000
,
1000
0000
0001
0000
0010
0000
0000
0001
0000
0010
0000
0000
0100
0000
0000
1000
,
0000
0000
0010
0000
0100
0000
0000
0001
0000
0010
0000
0000
0100
0000
1000
0000
,
0001
0000
0010
0000
0001
0000
0000
0100
0000
0010
0000
0000
1000
0000
0000
0100
,
0000
0000
0010
0000
0001
0000
0000
1000
0000
0010
0000
0000
1000
0000
0001
0000
,
1000
0000
0010
0000
0100
0000
0000
0001
0000
0100
0000
0000
0010
0000
0000
1000
,
0000
0000
0100
0000
0010
0000
0000
0001
0000
0100
0000
0000
0010
0000
1000
0000
,
0001
0000
0010
0000
0001
0000
0000
0100
0000
0010
0000
0000
1000
0000
0000
0100
,
0000
0000
0010
0000
0001
0000
0000
0100
0000
0010
0000
0000
1000
0000
0001
0000
,
1000
0000
0010
0000
0100
0000
0000
0001
0000
0010
0000
0000
0100
0000
0000
1000
,
0000
0000
0010
0000
0100
0000
0000
0001
0000
0010
0000
0000
0001
0000
0100
0000
,
0010
0000
1000
0000
0100
0000
0000
0001
0000
0100
0000
0000
1000
0000
0000
0010
,
0000
0000
0100
0000
0001
0000
0000
0010
0000
0100
0000
0000
1000
0000
0001
0000
,
1000
0000
0010
1000
0001
0000
0010
0001
,
0100
0000
0010
1000
0100
0001
0100
1000
,
0010
0000
0100
0001
0010
0000
0100
1000
,
0010
0000
0100
0001
0010
0001
0100
0010
,
1000
0000
0100
1000
0001
0000
0010
0001
,
0100
0000
0010
1000
0100
0001
0100
1000
,
0010
0000
0000
1000
0000
0000
0100
0000
0010
0000
0000
0001
0000
0000
0100
0000
,
0010
1000
0001
0100
0020
0000
0130
0000
,
0010
0000
1000
0001
0010
0000
0001
0100
,
0010
0000
1000
0100
0001
0100
1000
0010
,
0001
0000
0010
1000
0100
0000
0010
0001
,
1000
0000
0100
1000
0001
0010
0001
0100
,
0010
0000
1000
0100
0001
0000
0100
1000
,
0010
0000
0001
0010
1000
0100
0010
0001
,
0100
0000
0000
0010
0000
0000
1000
0000
0100
0000
0010
0000
0001
0000
0100
0000
,
0020
1000
0100
1000
,
0130
0000
0010
1000
0100
0000
0010
0001
,
0100
0000
0010
1000
0001
0100
0001
0010
,
0100
0000
1000
0010
0100
0000
0001
1000
,
0010
0000
1000
0001
0010
0001
0100
0010
,
1000
0000
0000
1000
0000
0000
0001
0000
0010
0000
0001
0000
1000
0000
0010
0000
,
1000
0000
0100
0010
0001
0010
0100
1000
,
0010
0000
0100
0001
0010
0000
0100
1000
,
0001
0000
0010
0001
0100
0010
1000
0100
,
0001
0000
0100
1000
0010
0000
0001
0010
,
1000
0000
0100
1000
0010
0100
0001
0010
,
0100
0000
1000
0001
0100
0000
0001
0010
,
0100
0000
1000
0010
0100
0001
1000
0100
,
1000
0000
0000
1000
0000
0000
0100
0000
0010
0000
0001
0000
0100
0000
0001
0000
,
0010
0000
0100
1000
0001
0100
0001
1000
,
0100
0000
1000
0010
0100
0000
0001
0010
,
0100
0000
1000
0001
0100
0001
2000
0000
,
3100
1000
0020
0000
0230
0000
0301
0020
,
0000
0031
0200
0000
0320
0000
2030
0000
,
3100
1000
0020
0000
0230
0000
0301
0020
,
0000
0130
2000
0000
3002
0000
0103
0001
,
1000
0001
0020
0000
0230
0000
1300
0020
,
0000
1030
0002
0000
0023
0000
0032
0000
,
0103
0010
2000
0000
3020
0000
0130
0002
,
0000
0013
0200
0000
2300
0000
3010
1000
,
0001
0010
0001
0000
0100
0010
0100
0010
,
0000
0100
0010
0000
1000
0000
1010
0000
,
1000
0100
0001
0000
0100
1000
0010
0100
,
0000
0001
0010
0000
0100
0000
1100
0000
,
1000
0010
0100
0000
0001
0010
0100
1000
,
0000
0001
0010
0000
0001
0000
0101
0000
,
0100
0010
1000
0010
0100
0001
0010
0100
,
0000
1000
0010
0100
0001
0000
1001
0000
,
1000
0000
0010
1000
0001
0000
0010
0001
,
0100
0000
0010
1000
0100
0001
0100
1000
,
0010
0000
0100
0001
0010
0000
0100
1000
,
0010
0000
0100
0001
0010
0001
0100
0010
,
1000
0000
0100
1000
0001
0000
0010
0001
,
0100
0000
0010
1000
0100
0001
0100
1000
,
0010
0000
0000
1000
0000
0000
0100
0000
0010
0000
0000
0001
0000
0000
0100
0000
,
0010
1000
0001
0100
0020
0000
0130
0000
,
0010
0000
1000
0001
0010
0000
0001
0100
,
0010
0000
1000
0100
0001
0100
1000
0010
,
0001
0000
0010
1000
0100
0000
0010
0001
,
0100
0000
0010
1000
0001
0100
0010
1000
,
0200
0000
0310
0001
1000
0010
1000
0002
,
0000
0013
0001
0100
0010
1000
0100
0010
,
0001
0000
0000
1000
0000
0000
0010
0000
0100
0000
0001
0000
0010
0000
0001
0000
,
0101
0110
1010
1100
,
2002
0000
0000
0000
,
0000
0000
0000
0000
,
0000
0000
0000
3003
0000
0000
0000
0000
;

//---------------dance-single - ----------------
#NOTES:
     dance-single:
     :
     Beginner:
     3:
     0.167,0.362,0.118,0.000,0.000:
0000
0000
0000
0000
,
0000
0000
0000
0000
,
0000
0000
0000
0000
,
0000
0000
0000
0000
,
1000
0000
0000
0000
,
0001
0000
0000
0000
,
0010
0000
0000
0000
,
0001
0000
0001
0000
,
0001
0000
0000
0000
,
1000
0000
0000
0000
,
0010
0000
0000
0000
,
0100
0000
0000
0000
,
0001
0000
0000
0000
,
1000
0000
0000
0000
,
0010
0000
0000
0000
,
0100
0000
0100
0000
,
0100
0000
0000
0000
,
0001
0000
0001
0000
,
0001
0000
0000
0000
,
0010
0000
0010
0000
,
0010
0000
0000
0000
,
0100
0000
0100
0000
,
0100
0000
0000
0000
,
1000
0000
1000
0000
,
1001
0000
0000
0000
,
0001
0000
0010
0000
,
0001
0000
0000
0000
,
1000
0000
0100
0000
,
1000
0000
0000
0000
,
0001
0000
0100
0000
,
0001
0000
0000
0000
,
1000
0000
0001
0000
,
1001
0000
0000
0000
,
0001
0000
0001
0000
,
0010
0000
0000
0000
,
0100
0000
0100
0000
,
1000
0000
0000
0000
,
0010
0000
0000
0000
,
0100
0000
0000
0000
,
0001
0000
0001
0000
,
1001
0000
0000
0000
,
1000
0000
0010
0000
,
1000
0000
0000
0000
,
0001
0000
0010
0000
,
0001
0000
0000
0000
,
1000
0000
0100
0000
,
1000
0000
0000
0000
,
0001
0000
0010
0010
,
0010
0000
0000
0000
,
0001
0000
0001
0000
,
0001
0000
0000
0000
,
1000
0000
1000
0000
,
1000
0000
0000
0000
,
0100
0000
0100
0000
,
0100
0000
0000
0000
,
0010
0000
0010
0000
,
0010
0000
0000
0000
,
0001
0000
0001
0000
,
0011
0000
0000
0000
,
0001
0000
0001
0000
,
0101
0000
0000
0000
,
0100
0000
0100
0000
,
0110
0000
0000
0000
,
1001
0000
1001
0000
,
1001
0000
0000
0000
,
1000
0000
0100
0000
,
0001
0000
0000
0000
,
1000
0000
0010
0000
,
0001
0000
0000
0000
,
1000
0000
0010
0000
,
0100
0000
0000
0000
,
0001
0000
0100
0000
,
0101
0000
0000
0000
,
0100
0000
0010
0000
,
1000
0000
0000
0000
,
0100
0000
0010
0000
,
0001
0000
1000
1000
,
0000
0001
0001
0000
,
1001
0000
0110
0000
,
1000
1000
1000
1000
,
1001
0000
0000
0000
;

//---------------dance-single - ----------------
#NOTES:
     dance-single:
     :
     Easy:
     5:
     0.408,0.506,0.253,0.027,0.000:
0000
0000
0000
0000
,
0000
0000
0000
0000
,
0000
0000
0000
0000
,
0000
0000
0000
0000
,
1000
0100
1000
0000
,
0001
0100
0001
0000
,
1000
0010
1000
0000
,
0001
0010
0001
0100
,
0010
0010
1000
1000
,
0001
0001
0010
0010
,
0001
0001
0100
0100
,
0010
0010
1000
1000
,
0100
0100
0010
0010
,
0001
0001
1000
1000
,
0010
0010
0100
0100
,
0001
0001
0010
0010
,
0001
1000
0100
1000
,
0001
0010
0001
1000
,
0010
1000
0100
0001
,
0100
1000
0010
0001
,
0010
1000
0100
0010
,
0001
1000
0010
0100
,
0101
0000
1010
0000
,
1001
1001
1001
0000
,
0001
0010
1000
0010
,
0001
0100
1000
0100
,
0001
0010
0100
1000
,
0010
0100
0001
1000
,
0010
1000
0100
0010
,
0001
0100
0010
1000
,
1010
0000
0101
0011
,
0102
0100
0100
0103
,
0010
1000
0100
1000
,
0010
0100
0001
0100
,
0010
1000
0001
0010
,
0001
0100
0010
1000
,
0100
0100
0010
0001
,
1000
1000
0010
0100
,
0001
0100
0010
1000
,
0100
0010
0001
1000
,
1001
0001
0010
1000
,
0010
0001
0100
1000
,
0100
0001
0010
0100
,
1000
0010
0100
0001
,
1000
1000
0001
0010
,
0001
0001
0100
0010
,
1000
0100
0001
0100
,
1000
0010
0001
0011
,
0001
0010
1000
0000
,
0010
0100
0001
0100
,
0010
1000
0100
0000
,
0010
0001
1000
0010
,
1000
0001
0010
0000
,
0001
0100
0010
1000
,
0100
0001
0100
0000
,
1000
0010
0100
0001
,
0010
0010
0010
0010
,
0001
0001
0001
0001
,
1000
1000
1000
1000
,
0100
0100
0100
0100
,
0010
0001
0100
0001
,
0010
0100
1000
0100
,
0011
0000
0101
0000
,
0110
1010
0110
0010
,
0100
0001
0010
0001
,
0100
0010
1000
0010
,
0100
0001
0010
1000
,
0010
0001
0100
1000
,
0100
0001
0010
0100
,
1000
0010
0100
0001
,
1001
0000
0110
0000
,
1001
1010
0110
0000
,
0100
0001
0010
0001
,
0100
0010
1000
0100
,
0010
0001
1000
0010
,
0100
0001
0010
0001
,
2000
3000
0001
0002
,
0003
0010
0001
0100
,
0110
0000
1001
0000
,
1010
0101
0011
1100
,
1001
0000
0000
0000
;

//---------------dance-single - ----------------
#NOTES:
     dance-single:
     :
     Medium:
     7:
     0.620,0.615,0.009,0.805,0.027: // measure 1
0000
0000
0000
0000
,  // measure 2
0000
0000
0000
0000
,  // measure 3
0000
0000
0000
0000
,  // measure 4
0000
0000
0000
0000
,  // measure 5
1000
0000
0100
0000
0010
0000
0001
0010
,  // measure 6
0001
0000
1000
0000
0010
0000
0100
0001
,  // measure 7
0100
0000
0010
0000
1000
0000
0001
0010
,  // measure 8
0001
0000
1000
0000
0010
0100
0010
0100
,  // measure 9
0010
0000
0100
0000
0001
0000
0010
0001
,  // measure 10
0010
0000
0001
0000
1000
0010
1000
0010
,  // measure 11
1000
0000
0010
0000
0100
0000
0001
0100
,  // measure 12
0001
0000
0010
0000
0001
0010
0001
0010
,  // measure 13
0001
0000
0100
0000
0010
0000
1000
0100
,  // measure 14
1000
0000
0010
0000
0100
0001
0100
0001
,  // measure 15
0100
0000
0010
0000
1000
0000
0001
0010
,  // measure 16
0001
0000
1000
0000
0010
0100
0010
0100
,  // measure 17
0010
0000
0100
0001
0100
0000
0001
0010
,  // measure 18
0001
0000
1000
0010
2000
0000
3020
0000
,  // measure 19
0130
0000
0001
0010
0001
0000
1000
0100
,  // measure 20
1000
0000
0010
0100
0020
0000
0230
0000
,  // measure 21
0301
0000
0010
0001
0010
0000
0100
1000
,  // measure 22
0100
0000
0010
0001
0020
0000
0032
0000
,  // measure 23
0103
0000
0000
0100
0000
0000
0000
0000
0010
0000
0000
0010
0000
0000
0000
0000
,  // measure 24
1000
0010
0100
0001
0020
0000
0031
0000
,  // measure 25
0010
0000
0001
0100
0001
0000
1000
0100
,  // measure 26
1000
0000
0010
1000
0020
0000
0230
0000
,  // measure 27
0301
0000
0010
0001
0010
0000
0100
1000
,  // measure 28
0100
0000
0010
0001
0020
0000
0032
0000
,  // measure 29
0103
0000
0010
1000
0010
0000
0100
0001
,  // measure 30
0100
0000
0010
0100
0020
0000
2030
0000
,  // measure 31
3001
0000
0000
0001
0000
0000
0000
0000
0010
0000
0100
0000
1000
0000
0010
0000
,  // measure 32
0200
0010
0001
0310
,  // measure 33
0001
0000
0100
0001
0100
0000
0010
0000
,  // measure 34
1000
0000
0100
1000
0100
0000
0010
0000
,  // measure 35
0001
0000
0100
0001
0100
0000
0010
0000
,  // measure 36
1000
0000
0001
1000
0001
0000
0010
0000
,  // measure 37
0001
0100
0001
0000
0100
0000
0010
0000
,  // measure 38
1000
0010
1000
0000
0010
0000
1000
0000
,  // measure 39
0100
1000
0100
0000
0010
0001
0010
0000
,  // measure 40
0001
0100
0001
0000
1000
0000
0010
1000
,  // measure 41
0010
0000
0100
0000
0001
0000
0010
0001
,  // measure 42
0010
0000
0001
0000
0100
0000
0010
1000
,  // measure 43
0010
0000
1000
0000
0100
0000
0001
0100
,  // measure 44
0001
0000
0100
0000
1000
0000
0010
0100
,  // measure 45
0010
0000
0100
0000
0001
0010
0001
0000
,  // measure 46
0100
0000
0010
0000
1000
0001
1000
0000
,  // measure 47
0001
0010
0001
0000
1000
0010
1000
0000
,  // measure 48
0001
0100
0010
1000
0100
0010
0001
0000
,  // measure 49
2000
3200
0302
0203
,  // measure 50
2300
3020
0032
0023
,  // measure 51
2030
3020
0230
0302
,  // measure 52
0023
0032
0203
0320
,  // measure 53
2030
3200
0302
0203
,  // measure 54
2300
3020
0230
0302
,  // measure 55
0023
0032
0203
0320
,  // measure 56
2030
0000
3200
0000
0302
0000
0103
0001
,  // measure 57
0200
2300
3020
0230
,  // measure 58
0302
0023
0032
0203
,  // measure 59
0320
2030
3200
0320
,  // measure 60
0032
2003
3020
0230
,  // measure 61
0302
0023
0032
0203
,  // measure 62
0320
2030
3200
0320
,  // measure 63
0032
0203
0320
2030
,  // measure 64
3001
0100
0010
1000
0001
0000
1001
0000
,  // measure 65
0010
0000
0100
0001
0100
0000
0001
0010
,  // measure 66
0001
0000
1000
0010
2000
0000
3020
0000
,  // measure 67
0130
0000
0001
0010
0001
0000
1000
0100
,  // measure 68
1000
0000
0010
0100
0020
0000
0230
0000
,  // measure 69
0301
0000
0010
0001
0010
0000
0100
1000
,  // measure 70
0100
0000
0010
0001
0020
0000
0032
0000
,  // measure 71
0103
0000
0000
0100
0000
0000
0000
0000
0010
0000
0000
0010
0000
0000
0000
0000
,  // measure 72
1000
0010
0100
0001
0020
0000
0031
0000
,  // measure 73
0010
0000
0001
0100
0001
0000
1000
0100
,  // measure 74
1000
0000
0010
1000
0020
0000
0230
0000
,  // measure 75
0301
0000
0010
0001
0010
0000
0100
1000
,  // measure 76
0100
0000
0010
0001
0020
0000
0032
0000
,  // measure 77
0203
0000
0300
0010
1000
0000
0001
0010
,  // measure 78
0000
0001
0100
0000
0010
1000
0010
0000
,  // measure 79
0100
0000
0000
0001
0000
0000
0010
0000
0001
0000
0100
0000
0010
0000
1000
0000
,  // measure 80
0200
0320
0032
2003
,  // measure 81
3001
0000
0000
0000
;
