#TITLE:symptom;
#SUBTITLE:;
#ARTIST:kobo vs kr:ague;
#TITLETRANSLIT:;
#SUBTITLETRANSLIT:;
#ARTISTTRANSLIT:;
#CREDIT:;
#BANNER:bn.png;
#BACKGROUND:bg.png;
#LYRICSPATH:;
#CDTITLE:;
#MUSIC:symptom.mp3;
#OFFSET:-0.400;
#SAMPLESTART:17.340;
#SAMPLELENGTH:12.000;
#SELECTABLE:YES;
#BPMS:0.000=85.000,16.000=170.000;
#STOPS:113.000=0.706
;
#BGCHANGES:;

//---------------dance-single - ----------------
#NOTES:
     dance-single:
     :
     Hard:
     9:
     0.565,0.527,0.260,0.160,0.000:
0000
0000
0000
0000
,
0000
0000
0000
0000
,
0001
1000
0020
0030
,
0100
0000
0010
0000
1001
0011
0110
1100
,
1000
0010
0000
0100
0001
0000
1000
0001
,
0010
0100
0000
0010
0001
0000
0001
1000
,
0100
0010
0000
0100
0010
0000
0100
1000
,
0100
0010
0000
0100
1000
1000
0001
0100
,
0010
0000
0100
0001
0000
0001
1000
0000
,
1000
0001
0000
0001
0020
0000
0130
0000
,
1000
0000
0001
0100
0000
0010
0000
0100
,
0020
1030
0200
0310
,
1100
0000
0001
0010
0000
0100
1000
0000
,
0001
0100
0000
0010
2000
0000
3100
0000
,
1100
0000
0010
0001
0000
1100
0000
0010
,
0200
0310
0020
0130
,
0110
0000
0010
0001
0000
0100
0001
0000
,
0001
0010
0000
0010
0200
0000
0320
0000
,
0031
1000
0001
0100
0000
0100
0000
0100
,
0010
1000
0100
1001
,
0010
1000
0001
0100
0010
1000
0001
0100
,
0010
1000
0001
0100
0010
1000
0001
1000
,
0010
1000
0001
0100
0010
1000
0001
0100
,
0010
1000
0001
0100
0010
1000
0001
1000
,
1000
0100
0010
0001
1000
0100
0010
0001
,
1000
0100
0010
0001
1000
0100
0010
0100
,
1000
0100
0010
0001
1000
0100
0010
0001
,
1000
0100
0010
0001
1000
0100
0010
0100
,
1000
0000
0011
0000
0001
1000
0001
0010
,
0001
0100
0010
1000
0200
0000
0000
0000
,
1000
0000
0010
0000
,
1300
0000
0000
0000
0000
0000
0001
0001
,
0100
0010
1000
0000
0101
0000
0101
0000
,
1100
1100
1001
1001
,
0110
0000
0110
0000
0010
1000
0100
0010
,
0100
1000
0001
0010
0100
1000
0000
0100
,
1000
0000
0100
1000
0010
0100
0000
0010
,
1000
0001
0010
0100
0020
0000
0000
0000
,
0001
0000
0100
0000
,
0031
0000
0000
0000
0000
0000
0001
0100
,
1000
0100
0010
0000
0110
0000
0101
0000
,
0110
0101
1010
1100
,
1010
0000
1100
0000
1000
0001
0010
0100
,
0010
0001
0100
0020
2000
0000
0000
0000
,
0000
0000
3030
0000
0001
0001
0010
0000
,
0001
0010
0100
0010
0001
1000
0001
0000
,
0101
0000
0010
1000
0001
0010
0100
0000
,
0100
1000
0010
0100
0001
0010
1000
0010
,
0001
0100
0110
0000
0010
0100
0001
0010
,
0100
0010
0001
1000
0100
1000
0010
1000
,
0100
0010
0001
0010
0100
0100
1000
0010
,
0100
0100
0001
1000
0010
0100
0002
0000
,
2003
0000
3200
0000
1300
0000
0001
0010
,
0000
0100
0010
0000
0001
0100
0000
0010
,
1000
0001
0101
0000
0110
0000
0100
0001
,
0000
0001
0010
0000
0010
0001
0000
0001
,
1000
0010
1010
0000
0100
0000
0010
1000
,
0000
0100
1000
0000
0100
0010
0000
0100
,
0010
0100
1100
0000
1001
0000
0001
0100
,
0000
0010
1000
0000
0100
1000
0000
0100
,
1000
0010
0110
0000
0100
0010
1000
0000
,
0010
0100
0000
0010
1000
0000
0100
0010
,
0000
0100
0010
0000
0100
1000
0100
0000
,
1000
0001
0000
0100
0010
0000
0010
1000
,
0000
0010
1000
0000
0000
0001
0010
0100
,
0010
0001
0100
0010
1000
0100
0010
0100
,
1000
0100
0010
0000
0000
0010
0001
0010
,
0100
0010
0001
0010
0100
1000
0200
0000
,
0320
0000
0230
0000
0310
0001
1000
0010
,
0100
0001
1000
0010
0100
0001
1000
0010
,
0100
0001
1000
0001
0100
0001
1000
0010
,
0100
0001
1000
0010
0100
0001
1000
0010
,
0100
0001
1000
0001
0001
0010
0100
1000
,
0001
0010
0100
1000
0001
0010
0100
1000
,
0001
0010
0100
0010
0001
0010
0100
1000
,
0001
0010
0100
1000
0001
0010
0100
1000
,
0001
0010
0100
0010
0001
0000
0100
0100
,
0000
0010
0010
0000
1000
0000
0000
0010
,
0000
0100
0001
0000
0100
0000
0010
0010
,
0000
1000
1000
0000
0001
0010
0000
0100
,
1000
0100
2000
0020
0000
0000
0000
0000
,
0000
3030
0000
0000
;

//---------------dance-single - ----------------
#NOTES:
     dance-single:
     :
     Medium:
     7:
     0.424,0.402,0.130,0.107,0.000:
0000
0000
0000
0000
,
0000
0000
0000
0000
,
0001
1000
0020
0000
,
0130
0000
0001
0000
2002
0000
0000
3003
,
0001
1000
0000
1000
0001
0000
1001
0000
,
0010
0100
0000
0100
0010
0000
0110
0000
,
0001
0100
0000
0100
0001
0000
0101
0000
,
0001
1000
0100
0010
,
0001
0000
0000
0100
0000
0000
1000
0000
,
0000
0100
0000
0010
1000
0000
0101
0000
,
0001
0000
0000
1000
0000
0100
0000
1000
,
0100
0010
0100
1000
,
1001
0000
0000
0001
0000
0000
0100
0000
,
0000
0010
0000
1000
0010
0000
0101
0000
,
0001
0000
1000
0100
0000
1000
0000
0010
,
0100
0100
0010
0010
,
0100
0000
0001
0100
0000
0010
1000
0000
,
0000
1000
0000
0001
0100
0000
0010
0000
,
1000
0001
0100
0001
0000
0100
0000
0001
,
0010
0100
1000
0100
,
0010
0001
0000
0010
0001
0000
0010
0001
,
0000
0010
0001
0000
0010
0001
0100
0010
,
1000
0010
0000
1000
0010
0000
1000
0010
,
0000
1000
0010
0000
1000
0010
0100
0001
,
1000
0001
0000
1000
0001
0000
1000
0001
,
0000
1000
0001
0000
0001
0100
0010
1000
,
0100
1000
0000
0100
1000
0000
0100
1000
,
0000
0100
1000
0000
0100
1000
0010
0100
,
0001
1010
0100
0010
,
1000
0000
0001
0010
0001
0000
0100
0000
,
0010
1000
0100
0010
,
0100
1000
0001
0100
,
0010
0100
0010
0000
0200
0000
0301
0000
,
0200
0310
0200
0301
,
0200
0310
0010
1000
,
0001
0000
0010
0000
0100
1000
0000
0100
,
0010
0000
0010
0001
1000
0000
0001
0000
,
0100
0000
0010
1000
0100
0000
0010
0000
,
0001
0010
1000
0010
,
0001
0100
1000
0100
,
0001
0010
0100
0000
2000
0000
3100
0000
,
2000
3010
2000
3001
,
2000
3100
1000
0001
,
0100
0010
2002
0000
,
0000
0000
3003
0000
0001
1000
0100
0000
,
1000
0100
1000
0000
1000
0010
0100
0000
,
0001
0000
1000
0000
0100
1000
0100
0000
,
0100
0010
0100
0000
0010
0001
0100
0000
,
0010
0000
1001
0000
1000
0001
0100
0000
,
0001
0000
0100
0000
0010
1000
0100
0000
,
1000
0100
0010
0000
0100
0000
0010
0000
,
0001
0000
1000
0000
0001
0010
0001
0100
,
0010
1000
0100
0010
0100
0000
0000
1000
,
0000
0000
0100
0000
0000
0010
0000
0001
,
0100
0000
1010
0000
0010
0000
0000
0100
,
0000
0000
0010
0000
0000
1000
0000
0001
,
0100
0000
1010
0000
1000
0000
0000
0100
,
0000
0000
1000
0000
0000
0010
0000
0100
,
0001
0000
1010
0000
0110
0000
0000
1001
,
0000
0000
0101
0000
0000
1010
0000
0100
,
0100
0000
0010
0000
0000
1000
0000
0000
,
0001
0000
0000
0010
0000
0000
0100
0000
,
0000
1000
1000
0000
0000
0010
0000
0000
,
0100
0000
0000
0001
0000
0000
1000
0000
,
0000
0100
0100
0000
0000
1000
0100
0000
,
0010
0001
0000
0001
0100
0000
0010
1000
,
0000
0010
0100
0000
0000
0010
1000
0000
,
0001
0100
0000
0010
1000
0000
0001
0000
,
1000
0000
0100
0000
1000
0100
0000
1000
,
0100
0000
1000
0100
0000
1000
0100
0000
,
1000
0100
0010
0001
0010
0100
0000
0010
,
0100
0000
0010
0100
0000
0010
0100
0000
,
0010
0001
0100
0010
1000
0001
0000
1000
,
0001
0000
1000
0001
0000
1000
0001
0000
,
1000
0001
0100
0010
0100
0001
0000
0100
,
0001
0000
0100
0001
0000
0100
0001
0000
,
0100
0001
0010
0100
1000
0000
0000
0100
,
0000
0000
1000
0000
0010
0000
0000
0100
,
0000
0000
0001
0000
1000
0000
0000
0100
,
0000
0000
0001
0000
0100
0000
0000
1000
,
0000
0010
1000
0200
0000
0000
0000
0000
,
0300
0000
0000
0000
;

//---------------dance-single - ----------------
#NOTES:
     dance-single:
     :
     Easy:
     4:
     0.249,0.307,0.076,0.084,0.000: // measure 1
0000
0000
0000
0000
,  // measure 2
0000
0000
0000
0000
,  // measure 3
0000
0000
0000
0000
,  // measure 4
0000
0000
0000
0000
,  // measure 5
0001
0000
0100
0000
,  // measure 6
0010
0000
1000
0000
,  // measure 7
0010
0000
0100
0000
,  // measure 8
0001
0000
0001
1000
,  // measure 9
0100
0000
0000
1000
0000
0000
0010
0000
,  // measure 10
0000
0100
0000
0000
0001
0000
1000
0000
,  // measure 11
0100
0000
0000
1000
0000
1000
0000
0000
,  // measure 12
1000
0001
0010
0010
,  // measure 13
0100
0000
0000
0010
0000
0000
0001
0000
,  // measure 14
0000
0100
0000
0000
0010
0000
0010
0000
,  // measure 15
1000
0000
0000
0001
0000
0001
0000
0000
,  // measure 16
1000
0001
0100
0001
,  // measure 17
0010
0000
0000
0100
0000
0000
0010
0000
,  // measure 18
0000
0001
0000
0000
0100
0000
0010
0000
,  // measure 19
1000
0000
0000
0010
0000
0010
0000
0000
,  // measure 20
1000
0010
0100
0001
,  // measure 21
1001
0000
0000
0101
,  // measure 22
0000
0000
0010
1000
,  // measure 23
1010
0000
0000
0110
,  // measure 24
0000
0000
0001
1000
,  // measure 25
1100
0000
0000
0110
,  // measure 26
0000
0000
0001
0010
,  // measure 27
1100
0000
0000
1001
,  // measure 28
0000
0000
0010
0100
,  // measure 29
0002
0003
0001
0000
,  // measure 30
0000
0000
1000
0000
,  // measure 31
0010
0000
0200
0000
,  // measure 32
0000
0000
0000
0000
,  // measure 33
0000
0300
0010
1000
,  // measure 34
0010
1000
0100
1000
,  // measure 35
0100
1000
0200
0000
,  // measure 36
0000
0000
0020
0000
,  // measure 37
0000
0330
0010
0000
,  // measure 38
0001
0000
0202
0000
,  // measure 39
0000
0000
0000
0000
,  // measure 40
0000
0000
0000
0000
,  // measure 41
0303
0000
0001
0001
,  // measure 42
1000
1000
0001
0001
,  // measure 43
1000
1000
0010
0100
,  // measure 44
0001
1000
0200
0000
,  // measure 45
0000
0300
1000
0010
,  // measure 46
0100
0001
0010
0010
,  // measure 47
0110
0100
1000
0100
,  // measure 48
0010
0100
1000
0001
,  // measure 49
0100
0001
1000
1000
,  // measure 50
1000
1000
0001
0001
,  // measure 51
0001
0001
0100
0010
,  // measure 52
1000
0100
0010
0100
,  // measure 53
1000
0000
0010
0000
0100
0000
0000
0001
,  // measure 54
0000
0000
1000
0000
0000
0100
0000
0000
,  // measure 55
0010
0000
0010
0000
0001
0000
0000
0100
,  // measure 56
0000
0000
0010
0000
0000
1000
0000
0000
,  // measure 57
0100
0000
1000
0000
0010
0000
0000
0100
,  // measure 58
0000
0000
0010
0000
0000
0100
0000
0000
,  // measure 59
0001
0000
0001
0000
1000
0000
0000
0100
,  // measure 60
0000
0000
0010
0000
0000
0001
0000
0000
,  // measure 61
0010
0000
0001
0000
0000
0001
0000
0000
,  // measure 62
1000
0000
0000
0001
0000
0000
1000
0000
,  // measure 63
0000
0000
0001
0000
0000
0100
0000
0000
,  // measure 64
0010
0000
0000
1000
0000
0000
0010
0000
,  // measure 65
0000
0000
0100
0000
0000
0001
0000
0000
,  // measure 66
0100
0000
0000
0010
0000
0000
1000
0000
,  // measure 67
0000
0000
0100
0000
0000
0100
0000
0000
,  // measure 68
1000
0000
0000
0010
0000
0000
0100
0000
,  // measure 69
0000
0001
1000
1000
,  // measure 70
1000
0001
0001
0001
,  // measure 71
0100
0100
0010
0010
,  // measure 72
0010
1000
1000
1000
,  // measure 73
0100
0100
0010
0010
,  // measure 74
0010
0001
0001
0001
,  // measure 75
0100
0100
0010
0010
,  // measure 76
0010
1000
1000
1000
,  // measure 77
0001
0001
0002
0000
,  // measure 78
0000
0003
0200
0000
,  // measure 79
0000
0300
0020
0000
,  // measure 80
0000
0030
2000
0000
,  // measure 81
0000
0000
0000
0000
0000
0000
0000
0000
0000
0000
0000
0000
0000
0000
0000
0000
0000
0000
0000
0000
0000
0000
0000
0000
0000
0000
0000
0000
0000
0000
0000
0000
0000
0000
0000
0000
0000
0000
0000
0000
0000
0000
0000
0000
0000
0000
0000
0000
0000
0000
0000
0000
0000
0000
0000
0000
0000
0000
0000
0000
0000
0000
0000
0000
0000
0000
0000
0000
0000
0000
0000
0000
0000
3000
0000
0000
0000
0000
0000
0000
0000
0000
0000
0000
0000
0000
0000
0000
0000
0000
0000
0000
0000
0000
0000
0000
0000
0000
0000
0000
0000
0000
0000
0000
0000
0000
0000
0000
0000
0000
0000
0000
0000
0000
0000
0000
0000
0000
0000
0000
0000
0000
0000
0000
0000
0000
0000
0000
0000
0000
0000
0000
0000
0000
0000
0000
0000
0000
0000
0000
0000
0000
0000
0000
0000
0000
0000
0000
0000
0000
0000
0000
0000
0000
0000
0000
0000
0000
0000
0000
0000
0000
0000
0000
0000
0000
0000
0000
0000
0000
0000
0000
0000
0000
0000
0000
0000
0000
0000
0000
0000
0000
0000
0000
0000
0000
0000
0000
0000
0000
0000
0000
;

//---------------dance-single - ----------------
#NOTES:
     dance-single:
     :
     Beginner:
     1:
     0.075,0.152,0.038,0.000,0.000:
0000
0000
0000
0000
,
0000
0000
0000
0000
,
0000
0000
0000
0000
,
0000
0000
0000
0000
,
0100
0000
0000
0000
,
0010
0000
0000
0000
,
1000
0000
0000
0000
,
0001
0000
0000
0000
,
0100
0000
0000
0000
,
0000
0000
0010
0000
,
0010
0000
0000
0000
,
1000
0000
1000
0000
,
0001
0000
0000
0000
,
0000
0000
0000
0000
,
0100
0000
0000
0000
,
0010
0000
0010
0000
,
0100
0000
0000
0000
,
0001
0000
0000
0000
,
1000
0000
0000
0000
,
0010
0000
0100
0000
,
1001
0000
0000
0000
,
0000
0000
0000
0000
,
0110
0000
0000
0000
,
0000
0000
0000
0000
,
1001
0000
0000
0000
,
0000
0000
0000
0000
,
0110
0000
0000
0000
,
0000
0000
0000
0000
,
0000
1000
0001
0000
,
0000
0000
0100
0000
,
0000
0000
0010
0000
,
0000
0000
1000
0000
,
0000
0000
0001
0000
,
0001
0000
1000
0000
,
1000
0000
0010
0000
,
0000
0000
0000
0000
,
0000
0000
0100
0000
,
0000
0000
0110
0000
,
0000
0000
0010
0000
,
0000
0000
1000
0000
,
0000
0000
0001
0000
,
0001
0000
0100
0000
,
0010
0000
1000
0000
,
0000
0000
0100
0000
,
0000
0000
0010
0000
,
0000
0000
0000
0000
,
0000
0000
0100
0000
,
0000
0000
0000
0000
,
0000
0000
0001
0000
,
0000
0000
0000
0000
,
0000
0000
1000
0000
,
1000
0000
1000
0000
,
0000
0000
0001
0000
,
0000
0000
0000
0000
,
0000
0000
0100
0000
,
0000
0000
0000
0000
,
0000
0000
0010
0000
,
0000
0000
0000
0000
,
0000
0000
1000
0000
,
0000
0000
0000
0000
,
0000
0000
0001
0000
,
0000
0000
0000
0000
,
0000
0000
1000
0000
,
0000
0000
0000
0000
,
0000
0000
0010
0000
,
0000
0000
0000
0000
,
0000
0000
0100
0000
,
0000
0000
0100
0000
,
0000
0000
0010
0000
,
0000
0000
0000
0000
,
0000
0000
1000
0000
,
0000
0000
0000
0000
,
0000
0000
0001
0000
,
0000
0000
0000
0000
,
0000
0000
0100
0000
,
0000
0000
0000
0000
,
0000
0000
0010
0000
,
0000
0000
0000
0000
,
0000
0000
1000
0000
,
0000
0000
0001
0000
;
