#TITLE:Total Eclipse;
#SUBTITLE:;
#ARTIST:Shinya;
#TITLETRANSLIT:;
#SUBTITLETRANSLIT:;
#ARTISTTRANSLIT:;
#GENRE:;
#CREDIT:Meseki;
#MENUCOLOR:;
#BANNER:Total Eclipse-bn.png;
#BACKGROUND:Total Eclipse-bg.png;
#LYRICSPATH:;
#CDTITLE:cdtitle.png;
#MUSIC:Total Eclipse.mp3;
#OFFSET:-1.227;
#SAMPLESTART:53.727;
#SAMPLELENGTH:19.500;
#SELECTABLE:YES;
#LISTSORT:;
#BPMS:0.000=200.000;
#STOPS:287.500=0.600
;
#TICKCOUNT:0.000=2;
#BGCHANGES:;
#KEYSOUNDS:;
#ATTACKS:;

//---------------dance-single - ----------------
#NOTES:
     dance-single:
     :
     Medium:
     7:
     0.406,0.495,0.154,0.216,0.005: // measure 1
0000
0000
0000
0000
,  // measure 2
0000
0000
0000
0000
,  // measure 3
0000
0000
0000
0000
,  // measure 4
0000
0000
0000
0000
,  // measure 5
0000
0000
0000
0000
,  // measure 6
0000
0000
0000
0000
,  // measure 7
0000
0000
0000
0000
,  // measure 8
0000
0000
0000
0000
,  // measure 9
1000
0000
0000
0010
0000
0000
0100
0000
,  // measure 10
0000
0001
0000
0000
0010
0000
0100
0000
,  // measure 11
0010
0000
0000
1000
0000
0000
0001
0000
,  // measure 12
0000
0010
0000
0000
1000
0000
0010
0000
,  // measure 13
0001
0000
0000
0100
0000
0000
0010
0000
,  // measure 14
0000
1000
0000
0000
0001
0000
0010
0000
,  // measure 15
0100
0000
0000
0001
0000
0000
0100
0000
,  // measure 16
0000
1000
0000
0000
0010
0000
0001
0000
,  // measure 17
0010
0000
0010
0000
0010
0000
1000
0010
,  // measure 18
1000
0000
0000
0000
1000
0000
0000
0001
1000
0000
0001
0000
1000
0000
0001
0000
,  // measure 19
0100
0000
0100
0000
0100
0000
0001
0100
,  // measure 20
0001
0000
0001
0000
0001
0010
0001
0000
,  // measure 21
1000
0000
1000
0000
1000
0000
0001
0100
,  // measure 22
0001
0000
0100
0000
0010
1000
0010
1000
,  // measure 23
0010
0000
1000
0000
1000
0000
1000
0001
,  // measure 24
1000
0000
1000
0000
0001
1000
0001
1000
,  // measure 25
0002
0000
0000
0000
,  // measure 26
0000
0000
0003
0000
,  // measure 27
1000
0000
0000
0010
0000
0000
0001
0000
,  // measure 28
0010
0000
1000
0000
,  // measure 29
0100
0000
0000
0010
0000
0000
0001
0000
,  // measure 30
0010
0000
0000
0100
1000
0000
0000
0000
,  // measure 31
1000
0000
0000
0100
0000
0000
0010
0000
,  // measure 32
0100
0000
0000
0010
0000
0000
0001
0000
,  // measure 33
1000
0000
0000
0000
0000
0000
0100
0010
,  // measure 34
0001
0000
0000
0100
0000
0000
0010
0000
,  // measure 35
1000
0000
0001
0000
1000
0100
0001
0000
,  // measure 36
0100
0000
1000
0000
0010
1000
0001
0000
,  // measure 37
0010
0000
0001
0000
1000
0010
1000
0000
,  // measure 38
0100
0000
0010
0000
0100
1000
0010
1000
,  // measure 39
0001
0000
0100
0000
0001
0100
0010
0000
,  // measure 40
1000
0000
0001
0000
1000
0001
0010
0000
,  // measure 41
0100
0000
1000
0000
0010
1000
0010
0000
,  // measure 42
0100
0000
0001
0100
0001
0010
0001
1000
,  // measure 43
0020
0000
0000
0030
,  // measure 44
0000
0000
0000
2000
,  // measure 45
3020
0000
0000
0000
0000
0000
0000
0030
,  // measure 46
0000
0200
0000
0302
,  // measure 47
0023
0000
0030
0200
0000
0300
2000
0000
,  // measure 48
3010
0000
0010
1000
0000
0001
0010
0000
,  // measure 49
0200
0000
0000
0310
0000
0100
0000
1000
,  // measure 50
0002
0000
0000
0013
0000
1000
0000
0010
,  // measure 51
0001
0010
0100
1000
,  // measure 52
0010
0000
0100
0000
0002
0003
0002
0003
,  // measure 53
1001
0000
0002
0000
0013
1000
0000
0020
,  // measure 54
0000
0030
0001
0000
0100
0010
0000
0010
,  // measure 55
0000
0000
2000
0000
3001
0100
0000
1000
,  // measure 56
0000
0100
0001
0100
0001
0010
0100
0000
,  // measure 57
1000
0001
0010
0100
,  // measure 58
1000
0010
0001
0001
,  // measure 59
0010
1000
0001
0010
,  // measure 60
0100
0010
0001
1000
,  // measure 61
1002
0100
0100
0100
,  // measure 62
0100
0100
0100
0100
,  // measure 63
2003
0100
0100
0100
,  // measure 64
0100
0100
3020
0100
,  // measure 65
0130
0000
0000
1100
0000
0000
0110
0000
,  // measure 66
0000
0101
0000
0000
0011
0000
0100
0000
,  // measure 67
1100
0000
0000
1010
0000
0000
1001
0000
,  // measure 68
0000
0101
0000
0000
0011
0000
1000
0000
,  // measure 69
0110
0000
0000
1000
0000
0000
0100
0000
,  // measure 70
0000
0001
0000
0000
0100
0000
1000
0000
,  // measure 71
0010
0000
0000
0001
0000
0000
0010
0000
,  // measure 72
0000
1000
0000
0000
1001
0000
0110
0000
,  // measure 73
2002
0000
0000
0000
,  // measure 74
0000
0000
0000
0000
,  // measure 75
3003
0000
0000
0000
;

//---------------dance-single - ----------------
#NOTES:
     dance-single:
     :
     Easy:
     5:
     0.218,0.305,0.031,0.226,0.000: // measure 1
0000
0000
0000
0000
,  // measure 2
0000
0000
0000
0000
,  // measure 3
0000
0000
0000
0000
,  // measure 4
0000
0000
0000
0000
,  // measure 5
0000
0000
0000
0000
,  // measure 6
0000
0000
0000
0000
,  // measure 7
0000
0000
0000
0000
,  // measure 8
0000
0000
0000
0000
,  // measure 9
1000
0000
0000
0010
,  // measure 10
0000
0000
0001
0000
,  // measure 11
0010
0000
0000
0100
,  // measure 12
0000
0000
0001
0000
,  // measure 13
1000
0000
0000
0100
,  // measure 14
0000
0000
0010
0000
,  // measure 15
1000
0000
0000
0010
,  // measure 16
0000
0000
0001
0000
,  // measure 17
1000
0000
1000
0000
,  // measure 18
1000
0000
0001
0001
,  // measure 19
0010
0000
0010
0000
,  // measure 20
0010
0000
0100
0100
,  // measure 21
1000
1000
1000
0000
,  // measure 22
0100
0100
0001
0001
,  // measure 23
0100
0100
0100
0000
,  // measure 24
1000
0000
1000
1000
,  // measure 25
0002
0000
0000
0000
,  // measure 26
0000
0000
0003
0000
,  // measure 27
1000
0000
0000
0100
0000
0000
0000
0000
,  // measure 28
0010
0000
0100
0000
,  // measure 29
1000
0000
0000
0010
0000
0000
0000
0000
,  // measure 30
0100
0000
0001
0000
,  // measure 31
1000
0000
0000
0001
0000
0000
0000
0000
,  // measure 32
0100
0000
0000
0010
0000
0000
0000
0000
,  // measure 33
0001
0000
0000
0010
,  // measure 34
1000
0000
0000
0000
,  // measure 35
0001
0000
0010
0100
,  // measure 36
0020
0030
0002
0003
,  // measure 37
0200
0300
2000
3000
,  // measure 38
0200
0000
0000
0300
,  // measure 39
0001
0000
0200
0300
,  // measure 40
0020
0030
2000
3000
,  // measure 41
0200
0000
0300
0000
,  // measure 42
0002
0000
0003
0000
,  // measure 43
0020
0000
0000
0030
,  // measure 44
0000
0000
0000
1000
,  // measure 45
0020
0000
0000
0000
0000
0000
0000
0030
,  // measure 46
0000
0200
0300
0001
,  // measure 47
0002
0000
0003
1000
,  // measure 48
1000
0000
0000
0001
0000
0000
0010
0000
,  // measure 49
0100
0000
0000
0000
,  // measure 50
1001
0000
0000
0000
,  // measure 51
0001
0000
0010
0000
,  // measure 52
0100
0000
0000
0000
2000
0000
0002
3003
,  // measure 53
0000
0000
0100
0000
0001
0000
0000
0010
,  // measure 54
0000
0000
0100
0000
0010
0000
0000
0001
,  // measure 55
0000
0000
1000
0000
0001
0000
0000
0100
,  // measure 56
0000
0100
0001
0001
,  // measure 57
1000
0000
0010
0000
,  // measure 58
0100
0000
0010
0000
,  // measure 59
0001
0000
0010
0000
,  // measure 60
1000
0000
1000
0000
,  // measure 61
0002
0000
0000
0000
,  // measure 62
0000
0000
0000
0000
,  // measure 63
2003
0000
0000
0000
,  // measure 64
0000
0000
3020
0000
,  // measure 65
1030
0000
0000
0010
0000
0000
1000
0000
,  // measure 66
0000
0001
0000
0000
0010
0000
0000
0000
,  // measure 67
0100
0000
0000
0010
0000
0000
0001
0000
,  // measure 68
0000
0010
0000
0000
0100
0000
0000
0000
,  // measure 69
1001
0000
0000
0010
,  // measure 70
0000
0000
0001
0000
,  // measure 71
0100
0000
0000
0010
,  // measure 72
0000
0000
1000
0001
,  // measure 73
2002
0000
0000
0000
,  // measure 74
0000
0000
0000
0000
,  // measure 75
3003
0000
0000
0000
;

//---------------dance-single - ----------------
#NOTES:
     dance-single:
     :
     Hard:
     9:
     0.499,0.838,0.278,0.247,0.077:
0000
0000
0000
0000
,
0000
0000
0000
0000
,
0000
0000
0000
0000
,
0000
0000
0000
0000
,
0000
0000
0000
0000
,
0000
0000
0000
0000
,
0000
0000
0000
0000
,
0000
0000
0000
0000
,
1000
0000
0100
0010
0100
0000
1000
0000
,
0001
0010
0001
0000
0011
0000
1100
0000
,
1000
0010
0100
0001
0000
0000
0010
0000
,
0100
1000
0100
0000
1010
0000
0101
0000
,
0001
0000
0100
0010
0100
0000
0001
0000
,
1000
0010
1000
0000
0110
0000
0101
0000
,
0001
0100
0010
1000
0000
0000
0100
0000
,
0010
0001
0010
0000
0011
0000
0110
0000
,
1001
0000
0001
0000
0001
0000
0001
0010
,
0100
0000
0000
0000
0100
0000
0000
0100
1000
0000
0010
0000
0100
0000
0010
0000
,
1000
0000
1000
0000
1000
0000
1000
0010
,
0001
0000
0100
0000
0001
0010
1000
0000
,
0001
0000
0001
0000
0001
0000
0001
0100
,
0010
0000
0010
0000
0010
0001
0010
1000
,
0100
0000
0100
0000
0100
0000
1000
0100
,
0001
0000
0100
0000
1000
0010
0100
0001
,
0020
0000
0000
0000
,
0000
0000
0030
0000
,
0100
0000
0000
1000
0000
0000
0010
0000
,
0100
0000
0001
0000
,
1000
0000
1000
0100
0000
0000
0010
0000
,
0001
0000
0000
0000
0000
0000
0010
0001
0010
0000
0000
0000
0000
0000
0000
0000
,
1000
0000
1000
0010
0000
0010
0001
0000
,
1000
0000
1000
0010
0000
0010
0001
0000
,
0110
0000
0000
0000
0000
0000
0100
0010
,
1000
0000
0000
0100
0000
0000
0010
0000
,
1001
0000
0001
0000
1000
0100
0001
0000
,
0100
0000
1000
0000
0001
0010
1000
0000
,
0010
0000
0001
0000
1000
0010
0001
0000
,
0010
0000
0100
0000
0001
0100
1000
0100
,
0001
0000
0010
0000
0100
0001
0100
0000
,
1000
0000
0010
0000
0100
1000
0100
0000
,
0001
0000
0100
0000
0010
0001
0010
0000
,
0100
0000
0000
0000
0001
0000
0100
0000
0010
0000
0000
1000
0100
0000
1000
0000
,
0020
0000
0000
0030
,
0000
0000
0000
0200
,
0302
0000
0000
0000
0000
0000
0000
0003
,
0000
0020
0000
2030
,
3020
0000
0000
0032
0000
0000
0203
0000
,
1300
0000
0100
0001
0000
0010
0100
0000
,
2000
0000
0000
3001
0000
0010
0000
0001
,
0200
0000
0000
0310
0000
1000
0000
0001
,
0010
0000
0001
0010
0001
0000
0010
0100
0010
0000
0100
1000
0100
0000
1000
0010
,
1000
0010
0100
0010
2000
3000
2000
3000
,
1100
0000
0200
0000
0301
0100
0000
2000
,
0000
3000
0010
0000
0100
0002
0003
0001
,
0000
0000
2000
0000
3001
0100
0000
1000
,
0000
0100
0001
0010
1000
0010
0001
0000
,
0010
0000
0010
0100
0000
0100
1000
0010
1000
0010
0000
0000
,
0100
0000
0100
0001
0000
0001
0010
0100
0010
0100
0000
0000
,
1000
0010
0100
0010
1000
0100
0010
0100
,
1000
0001
0100
0010
1000
0100
0010
0001
,
0012
1000
0010
1000
,
0010
1000
0010
0100
,
2003
0100
0001
0100
,
0001
0010
3200
0001
,
1300
0000
0000
1100
0000
0000
0110
0000
,
0000
0101
0000
0000
0011
0000
0110
0000
,
1100
0000
0000
1010
0000
0000
0110
0000
,
0000
0101
0000
0000
1001
0000
0110
0000
,
2100
0000
0000
0010
0000
0000
0100
0000
,
0000
0001
0000
0000
3010
0000
0100
0000
,
0002
0000
0000
1000
0000
0000
0010
0000
,
0000
0100
0000
0000
0013
0000
0110
0000
,
2002
0000
0000
0000
,
0000
0000
0000
0000
,
3003
0000
0000
0000
;

//---------------dance-single - ----------------
#NOTES:
     dance-single:
     :
     Beginner:
     3:
     0.160,0.267,0.031,0.268,0.000: // measure 1
0000
0000
0000
0000
,  // measure 2
0000
0000
0000
0000
,  // measure 3
0000
0000
0000
0000
,  // measure 4
0000
0000
0000
0000
,  // measure 5
0000
0000
0000
0000
,  // measure 6
0000
0000
0000
0000
,  // measure 7
0000
0000
0000
0000
,  // measure 8
0000
0000
0000
0000
,  // measure 9
1000
0000
0000
0000
,  // measure 10
0000
0000
0001
0000
,  // measure 11
0001
0000
0000
0000
,  // measure 12
0000
0000
0100
0000
,  // measure 13
0100
0000
0000
0000
,  // measure 14
0000
0000
0010
0000
,  // measure 15
0010
0000
0000
0000
,  // measure 16
0000
0000
1000
0000
,  // measure 17
1000
0000
0000
0000
,  // measure 18
0001
0000
0001
0000
,  // measure 19
0010
0000
0000
0000
,  // measure 20
0100
0000
0100
0000
,  // measure 21
1000
0000
0000
0000
,  // measure 22
0010
0000
0100
0000
,  // measure 23
0001
0000
0000
0000
,  // measure 24
0001
0000
1000
0000
,  // measure 25
0002
0000
0000
0000
,  // measure 26
0000
0000
0003
0000
,  // measure 27
1000
0000
0000
0000
,  // measure 28
0010
0000
0100
0000
,  // measure 29
0010
0000
0000
0000
,  // measure 30
1000
0000
0100
0000
,  // measure 31
1000
0000
0000
0000
,  // measure 32
0100
0000
0000
0000
,  // measure 33
0010
0000
0000
0000
,  // measure 34
0001
0000
0000
0000
,  // measure 35
1000
0000
0000
1000
,  // measure 36
0200
0300
0020
0030
,  // measure 37
0002
0003
0020
0030
,  // measure 38
0200
0000
0000
0300
,  // measure 39
0000
0000
2000
3000
,  // measure 40
0002
0003
0020
0030
,  // measure 41
0200
0000
0300
0000
,  // measure 42
2000
0000
3000
0000
,  // measure 43
0020
0030
0000
0000
,  // measure 44
0000
0000
0000
1000
,  // measure 45
0020
0000
0000
0000
0000
0000
0000
0030
,  // measure 46
0000
2000
3000
0000
,  // measure 47
0002
0000
0003
0000
,  // measure 48
0100
0000
0000
0000
,  // measure 49
0110
0000
0000
0000
,  // measure 50
1001
0000
0000
0000
,  // measure 51
0001
0000
0010
0000
,  // measure 52
0100
0000
0000
0000
1000
0000
2000
3000
,  // measure 53
0000
0010
0000
0000
,  // measure 54
0000
1000
0000
0000
,  // measure 55
0000
0100
0000
0000
,  // measure 56
0000
0010
0010
0010
,  // measure 57
0200
0000
0300
0000
,  // measure 58
2000
0000
3000
0000
,  // measure 59
0002
0000
0003
0000
,  // measure 60
0200
0000
0300
0000
,  // measure 61
0020
0000
0000
0000
,  // measure 62
0000
0000
0000
0030
,  // measure 63
2000
0000
0000
0000
,  // measure 64
0000
3000
0200
0300
,  // measure 65
2000
0000
0000
0000
,  // measure 66
0000
0000
0000
3000
,  // measure 67
0001
0000
0000
0010
,  // measure 68
0000
0000
0100
0000
,  // measure 69
0100
0000
0000
1000
,  // measure 70
0000
0000
0010
0000
,  // measure 71
0010
0000
0000
0100
,  // measure 72
0000
0000
0001
0000
,  // measure 73
2002
0000
0000
0000
,  // measure 74
0000
0000
0000
0000
,  // measure 75
3003
0000
0000
0000
;
