#TITLE:Super Goseiger;
#SUBTITLE:;
#ARTIST:Psychic Lover;
#TITLETRANSLIT:;
#SUBTITLETRANSLIT:;
#ARTISTTRANSLIT:;
#CREDIT:;
#BANNER:bn.PNG;
#BACKGROUND:bg.PNG;
#LYRICSPATH:;
#CDTITLE:;
#MUSIC:Super Goseiger.ogg;
#OFFSET:-0.688;
#SAMPLESTART:49.960;
#SAMPLELENGTH:15.620;
#SELECTABLE:YES;
#BPMS:0.000=180.020;
#STOPS:;
#BGCHANGES:;

//---------------dance-single - ----------------
#NOTES:
     dance-single:
     :
     Hard:
     8:
     0.584,0.551,0.220,0.294,0.012: // measure 1
0000
0000
0000
0000
,  // measure 2
0000
0000
0000
0000
,  // measure 3
0000
0000
0000
0000
,  // measure 4
0000
0000
0000
0000
1000
0100
0010
0002
,  // measure 5
0000
0003
0011
0000
0010
0000
0100
2000
,  // measure 6
0000
0000
3010
0000
0100
0001
0010
0001
,  // measure 7
0000
0100
0000
0010
1000
0100
0000
0010
,  // measure 8
0000
0001
0000
1000
0100
1000
0001
0020
,  // measure 9
0000
0030
0001
0000
0010
0100
1000
0002
,  // measure 10
0000
0003
0010
0000
0001
0100
0010
2000
,  // measure 11
0000
3001
0000
0010
0001
0000
0100
0010
,  // measure 12
0000
1000
0000
0100
0020
0000
0032
0000
,  // measure 13
1003
0000
0001
0000
0010
0001
0000
0100
,  // measure 14
0010
1000
0100
0001
,  // measure 15
0100
0000
0000
1000
0000
0000
0010
0000
,  // measure 16
0100
0001
0010
0001
0010
0000
1000
0000
,  // measure 17
0010
0000
0001
0000
1000
0001
0000
0100
,  // measure 18
0001
1000
0100
1000
,  // measure 19
0010
0000
0100
0002
0000
0000
1003
0000
,  // measure 20
0100
0000
1000
0010
0100
0001
0000
0101
,  // measure 21
0000
0100
0010
1000
0100
1000
0000
0010
,  // measure 22
0000
0100
0001
0010
1000
0010
0000
0001
,  // measure 23
0000
0100
0001
1000
0100
1000
0000
1100
,  // measure 24
0000
0110
0000
0011
0000
0101
0000
0110
,  // measure 25
0000
0100
0010
1000
0100
0001
0000
0100
,  // measure 26
0000
1000
0010
0100
0001
0010
0100
0000
,  // measure 27
1000
1100
0100
0110
,  // measure 28
0010
0001
0100
0001
1000
0100
1000
0010
,  // measure 29
0200
0000
0001
0000
0310
0000
0001
0100
,  // measure 30
0020
0000
1000
0000
0130
0000
1000
0010
,  // measure 31
0200
0000
0001
0000
0310
0000
1000
0001
,  // measure 32
0200
0302
2003
3200
,  // measure 33
1300
0010
1000
0000
0001
0010
0001
0100
,  // measure 34
0001
0200
0320
2030
,  // measure 35
3100
0010
0001
0000
1000
0100
0001
0000
,  // measure 36
0100
1000
0010
0200
0000
0000
0301
0000
,  // measure 37
0100
0000
0000
0010
0000
0000
0000
0000
0000
0000
0000
0000
1000
0000
0000
0000
0100
0000
0000
0000
0010
0000
0000
0000
,  // measure 38
0001
0000
1000
0001
0100
0001
0000
1000
,  // measure 39
0100
0000
1100
0000
0100
0010
0001
2000
,  // measure 40
0000
0000
3100
0000
1000
0010
0000
0100
,  // measure 41
0001
0000
0010
0000
0100
1000
0001
0000
,  // measure 42
1001
0000
1000
0000
0100
1000
0000
0010
,  // measure 43
1000
0100
0010
0001
,  // measure 44
0101
0000
0100
0010
0000
1000
0100
0010
,  // measure 45
0000
0001
0100
0001
1000
0200
0000
0000
,  // measure 46
1300
0000
0100
0000
0010
0001
0000
1000
,  // measure 47
0100
0000
1000
0000
0010
0100
0001
0200
,  // measure 48
0000
0000
0310
0000
1000
0100
0000
0010
,  // measure 49
0001
0000
1000
0000
0100
1000
0010
0000
,  // measure 50
0110
0000
0100
0001
0100
0001
0000
0101
,  // measure 51
0000
0000
0100
0000
0010
1000
0100
0000
,  // measure 52
1100
0000
0100
0010
0100
0010
0000
0110
,  // measure 53
0000
0010
0001
0100
,  // measure 54
0010
1000
0100
1000
0010
0100
0001
0010
,  // measure 55
0110
0000
0000
0000
0010
0001
0100
0010
,  // measure 56
0000
0100
0001
0000
0010
0100
0000
1000
,  // measure 57
0000
0100
0010
0001
0100
0010
1000
0000
,  // measure 58
0001
0100
0010
1000
0010
0100
0001
0010
,  // measure 59
0100
1000
0100
0010
0001
0100
0010
2002
,  // measure 60
0000
0000
0000
0000
,  // measure 61
3003
0000
0000
0000
;

//---------------dance-single - ----------------
#NOTES:
     dance-single:
     :
     Beginner:
     1:
     0.128,0.181,0.012,0.000,0.000:
0000
0000
0000
0000
,
0000
0000
0000
0000
,
0000
0000
0000
0000
,
0000
0000
0000
0000
,
1000
0000
0000
0000
,
0001
0000
0000
0000
,
0010
0000
0000
0000
,
0001
0000
0000
0000
,
0100
0000
0000
0000
,
0010
0000
0000
0000
,
1000
0000
0000
0000
,
0100
0000
0100
0000
,
0100
0000
0000
0000
,
0010
0000
0000
0000
,
0001
0000
0000
0000
,
1000
0000
1000
0000
,
1000
0000
0000
0000
,
0010
0000
0000
0000
,
0100
0000
0000
0000
,
0001
0000
0001
0000
,
0001
0000
0000
0000
,
0010
0000
0000
0000
,
0001
0000
0000
0000
,
1000
0000
1000
0000
,
1000
0000
0000
0000
,
0010
0000
0000
0000
,
0100
0000
0100
0000
,
0100
0000
0100
0000
,
0100
0000
0000
0000
,
0001
0000
0000
0000
,
0010
0000
0000
0000
,
0100
0000
0000
0000
,
1000
0000
0000
0000
,
0010
0000
0010
0000
,
0010
0000
0000
0000
,
0100
0000
0100
0000
,
0100
0000
0000
0000
,
0001
0000
0000
0000
,
1000
0000
0000
0000
,
0010
0000
0010
0000
,
0010
0000
0000
0000
,
0100
0000
0000
0000
,
0001
0000
0000
0000
,
0010
0000
0010
0000
,
0010
0000
0000
0000
,
0001
0000
0000
0000
,
0100
0000
0000
0000
,
0010
0000
0010
0000
,
0010
0000
0000
0000
,
1000
0000
1000
0000
,
1000
0000
0000
0000
,
0001
0000
0001
0000
,
0001
0000
0000
0000
,
0010
0000
0000
0000
,
0001
0000
0001
0000
,
0001
0000
0000
0000
,
1000
0000
0000
0000
,
0010
0000
0010
0000
,
0100
0000
0100
0000
,
0110
0000
0000
0000
;

//---------------dance-single - ----------------
#NOTES:
     dance-single:
     :
     Easy:
     4:
     0.276,0.289,0.012,0.024,0.000:
0000
0000
0000
0000
,
0000
0000
0000
0000
,
0000
0000
0000
0000
,
0000
0000
1000
0100
,
2000
0000
0000
3000
,
0002
0003
1000
0010
,
0100
0001
0000
0010
,
0000
0001
0100
0010
,
1000
0000
0100
1000
,
0100
0000
0010
0100
,
0010
0000
0001
0000
,
0100
0010
0100
0010
,
0100
0000
0010
0000
,
1000
0000
0100
0000
,
0010
0000
0001
0000
,
1000
0001
1000
0000
,
0010
0000
1000
0000
,
0100
0000
0010
0000
,
0001
0000
0100
0000
,
0001
0100
0001
0000
,
0100
0000
0010
0000
,
1000
0010
1000
0000
,
0010
0000
1000
0000
,
0100
1000
0100
1000
,
0100
0000
0010
0000
,
0001
0010
0001
0000
,
0100
0000
0010
0000
,
1000
0001
1000
0001
,
1000
0000
0010
1000
,
0010
0000
0100
0001
,
0100
0000
0001
0010
,
0001
1000
0010
1000
,
0001
0000
0010
0000
,
0001
0100
0001
0100
,
0001
0000
0100
0000
,
0010
1000
0010
1000
,
0010
0000
1000
0100
,
1000
0000
0001
0000
,
0010
0000
0001
0000
,
0100
0010
0100
0010
,
0100
0000
0010
0000
,
1000
0000
0100
0000
,
0001
0000
0100
0000
,
1000
0010
1000
0010
,
1000
0000
0010
0000
,
0100
0000
0001
0000
,
0010
0000
0001
0000
,
0100
0001
0100
0001
,
0100
0000
0010
0000
,
1000
0100
1000
0100
,
1000
0000
0010
0000
,
0100
0001
0100
0001
,
0010
0001
0010
0001
,
1000
0001
1000
0000
,
0010
0000
0100
0001
,
0100
0000
0010
0000
,
1000
0000
0100
0000
,
0010
0001
1000
0010
,
1000
0001
0010
0001
,
1001
0000
0000
0000
;

//---------------dance-single - ----------------
#NOTES:
     dance-single:
     :
     Medium:
     6:
     0.392,0.367,0.012,0.012,0.000:
0000
0000
0000
0000
,
0000
0000
0000
0000
,
0000
0000
0000
0000
,
0000
0000
0000
0000
1000
0100
1000
0100
,
0000
0000
0010
0000
0001
0000
0000
0100
,
0000
0000
0010
0000
1000
0001
1000
0001
,
0000
1000
0000
0000
0010
1000
0000
0010
,
0000
0100
0000
0000
0001
0010
0000
0100
,
0000
0000
1000
0000
0010
0000
0000
0100
,
0000
0000
0001
0000
0010
0000
0000
0100
,
0000
1000
0000
0000
0010
0000
0000
0100
,
0000
0001
0000
0000
0010
0000
0100
0000
,
1000
0000
0010
0000
1000
0010
0000
0100
,
0000
0001
0010
0100
,
1000
0000
0000
0010
0000
0000
1000
0000
,
0001
0000
0010
0001
0000
0000
0010
0000
,
0100
0000
1000
0000
0001
0010
0000
0001
,
0000
0100
0010
1000
,
0001
0000
0000
0010
0000
0000
0001
0000
,
0100
0000
0010
1000
0000
0000
0100
1000
,
0000
0010
0000
0000
1000
0001
0000
0010
,
0000
0000
0001
0100
0000
0010
0000
1000
,
0000
0100
0000
0000
0010
0001
0000
1000
,
0000
0010
0000
1000
0000
0001
0000
0010
,
0000
0000
0001
0000
0100
0010
0000
1000
,
0000
0100
0000
0010
0000
0000
0001
0000
,
1000
0000
0000
0010
0000
0000
1000
0000
,
0001
0000
0010
0001
0000
0000
0010
0000
,
0100
1000
0100
1000
,
0010
1000
0010
1000
,
0010
0100
0010
0100
,
0001
0010
0100
1000
,
0010
1000
0010
0000
0100
0000
0001
0000
,
0010
0001
0100
0010
,
1000
0100
0001
0100
,
1000
0010
1000
0010
0000
0000
0100
0000
,
0001
0010
0000
0000
0100
0000
1000
0000
,
1100
0100
0010
0001
,
1000
0000
0000
0000
0010
0000
1000
0010
,
1000
0010
0100
0001
,
0010
0000
0001
0000
,
0100
0010
1000
0100
,
0001
0100
1000
0010
,
0100
0000
0001
0000
0010
0001
0010
0001
,
0000
0000
1000
0000
0001
1000
0000
0000
,
0010
1000
0100
0010
,
0001
0000
0100
0000
0001
0100
0001
0100
,
0000
0010
1000
0100
,
0010
0001
1000
0010
,
1000
0000
0001
0010
0001
0010
0000
0001
,
0000
0010
0100
1000
,
0010
0000
0100
0010
0100
0010
0000
0100
,
0000
0001
0010
0100
,
1000
0000
0010
0100
0000
0000
0001
0000
,
1000
0000
0000
0000
0010
1000
0010
1000
,
0000
0010
0100
0000
0000
0001
0000
0010
,
0000
0000
0100
1000
0000
0010
0100
0000
,
0000
0001
0000
0000
0010
0000
0000
0100
,
0000
1000
0000
0000
0010
0100
0001
0200
,
0000
0000
0000
0000
,
0300
0000
0000
0000
;
