#TITLE:So Many Wonders;
#SUBTITLE:(EuroSky Mix);
#ARTIST:Eurobeat Brony feat. Fluttershy;
#TITLETRANSLIT:;
#SUBTITLETRANSLIT:;
#ARTISTTRANSLIT:;
#CREDIT:348 with Timer Rabbit;
#BANNER:So Many Wonders Banner.png;
#BACKGROUND:So Many Wonders Background.png;
#LYRICSPATH:So Many Wonders.lrc;
#CDTITLE:;
#MUSIC:So Many Wonders (EuroSky Mix).mp3;
#OFFSET:-0.244;
#SAMPLESTART:39.162;
#SAMPLELENGTH:15.000;
#SELECTABLE:YES;
#BPMS:0.000=148.000,232.000=143.143,233.000=142.151,234.000=117.694,235.000=109.724,236.000=103.594,237.000=95.420,238.000=74.238,239.000=68.340,240.000=49.645;
#STOPS:;
#BGCHANGES:;

//---------------dance-single - ----------------
#NOTES:
     dance-single:
     :
     Beginner:
     1:
     0.084,0.140,0.000,0.000,0.000: // measure 1
0000
0000
0000
0000
,  // measure 2
0000
0000
0000
0000
,  // measure 3
0000
0000
0000
0000
,  // measure 4
0000
0000
0000
0000
,  // measure 5
0000
0000
0000
0000
,  // measure 6
0000
0000
0000
0000
,  // measure 7
0000
0000
0000
0000
,  // measure 8
0000
0000
0000
0000
,  // measure 9
1000
0000
0000
0000
,  // measure 10
0010
0000
0000
0000
,  // measure 11
0100
0000
0000
0000
,  // measure 12
0001
0000
0000
0000
,  // measure 13
1000
0000
0000
0000
,  // measure 14
0010
0000
0000
0000
,  // measure 15
0100
0000
0000
0000
,  // measure 16
0001
0000
0000
0000
,  // measure 17
1000
0000
0000
0000
,  // measure 18
1000
0000
1000
0000
,  // measure 19
0100
0000
0000
0000
,  // measure 20
0100
0000
0100
0000
,  // measure 21
0010
0000
0000
0000
,  // measure 22
0010
0000
0010
0000
,  // measure 23
0001
0000
0000
0000
,  // measure 24
0001
0000
0001
0000
,  // measure 25
1000
0000
0000
0000
,  // measure 26
0100
0000
0000
0000
,  // measure 27
1000
0000
0000
0000
,  // measure 28
0100
0000
0000
0000
,  // measure 29
0010
0000
0000
0000
,  // measure 30
0001
0000
0000
0000
,  // measure 31
0010
0000
0000
0000
,  // measure 32
0001
0000
0000
0000
,  // measure 33
1000
0000
0000
0000
,  // measure 34
0001
0000
0000
0000
,  // measure 35
0100
0000
0000
0000
,  // measure 36
0001
0000
0001
0000
,  // measure 37
1000
0000
0000
0000
,  // measure 38
0010
0000
0010
0000
,  // measure 39
1000
0000
1000
0000
,  // measure 40
0100
0000
0100
0000
,  // measure 41
0010
0000
0000
0000
,  // measure 42
0100
0000
0000
0000
,  // measure 43
1000
0000
0001
0000
,  // measure 44
0100
0000
0010
0000
,  // measure 45
1000
0000
0000
0000
,  // measure 46
0001
0000
0000
0000
,  // measure 47
1000
0000
0000
0000
,  // measure 48
0001
0000
0000
0000
,  // measure 49
0100
0000
0000
0000
,  // measure 50
0010
0000
0000
0000
,  // measure 51
0100
0000
0000
0000
,  // measure 52
0010
0000
0000
0000
,  // measure 53
1000
0000
0000
0000
,  // measure 54
0001
0000
0000
0000
,  // measure 55
0100
0000
0000
0000
,  // measure 56
0010
0000
0000
0000
,  // measure 57
0100
0000
0000
0000
,  // measure 58
0010
0000
0000
0000
,  // measure 59
1000
0000
0000
0000
,  // measure 60
0001
0000
0000
0000
,  // measure 61
1000
0000
0000
0000
;

//---------------dance-single - ----------------
#NOTES:
     dance-single:
     :
     Easy:
     3:
     0.189,0.284,0.047,0.168,0.000: // measure 1
0000
0000
0000
0000
,  // measure 2
0000
0000
0000
0000
,  // measure 3
0000
0000
0000
0000
,  // measure 4
0000
0000
0000
0000
,  // measure 5
0000
0000
0000
0000
,  // measure 6
0000
0000
0000
0000
,  // measure 7
0000
0000
0000
0000
,  // measure 8
0000
0000
0000
0000
,  // measure 9
1000
0000
0100
0000
,  // measure 10
1000
0000
0100
0000
,  // measure 11
0010
0000
0001
0000
,  // measure 12
0010
0000
0001
0000
,  // measure 13
1000
0000
0001
0000
,  // measure 14
1000
0000
0001
0000
,  // measure 15
0100
0000
0010
0000
,  // measure 16
0100
0000
0010
0000
,  // measure 17
2000
0000
0000
3001
,  // measure 18
0002
0000
0000
0103
,  // measure 19
0200
0000
0000
0310
,  // measure 20
0020
0000
0000
0130
,  // measure 21
0100
0000
0001
0000
,  // measure 22
1000
0000
0010
0000
,  // measure 23
1100
0000
0000
0000
,  // measure 24
0011
0000
0000
0000
,  // measure 25
1000
0000
1000
0000
,  // measure 26
0100
0000
1000
0100
,  // measure 27
0010
0000
0010
0000
,  // measure 28
0001
0000
0010
0001
,  // measure 29
0100
0000
0001
0000
,  // measure 30
1000
0000
0010
1000
,  // measure 31
0001
0000
1000
0000
,  // measure 32
0010
0000
0100
0001
,  // measure 33
2000
0000
0000
3000
,  // measure 34
0002
0000
0000
0003
,  // measure 35
1000
0100
0010
0000
,  // measure 36
0100
0000
1000
0000
,  // measure 37
0001
0010
0100
0000
,  // measure 38
0010
0000
0001
0000
,  // measure 39
1000
0001
1000
0000
,  // measure 40
0010
0100
0010
0000
,  // measure 41
1000
0001
0100
0000
,  // measure 42
0010
1000
0001
0000
,  // measure 43
2000
3000
0200
0300
,  // measure 44
0020
0030
0002
0003
,  // measure 45
2002
0000
0000
3003
,  // measure 46
0001
1000
0010
0000
,  // measure 47
0200
0000
0310
0000
,  // measure 48
1000
0001
0100
0000
,  // measure 49
0001
0000
1001
0000
,  // measure 50
1000
0000
1001
0000
,  // measure 51
1000
0000
0001
0100
,  // measure 52
0001
0000
1000
0000
,  // measure 53
0010
1000
0001
1000
,  // measure 54
0000
0001
0100
0000
,  // measure 55
0001
1000
0010
0100
,  // measure 56
0000
0001
1000
0000
,  // measure 57
0001
0010
0100
0000
,  // measure 58
1000
0100
0010
0000
,  // measure 59
0002
0003
0020
0030
,  // measure 60
0200
0300
2000
3000
,  // measure 61
0002
0000
0000
0000
,  // measure 62
0003
0000
0000
0000
;

//---------------dance-single - ----------------
#NOTES:
     dance-single:
     :
     Medium:
     4:
     0.266,0.426,0.158,0.168,0.000: // measure 1
0000
0000
0000
0000
,  // measure 2
0000
0000
0000
0000
,  // measure 3
0000
0000
0000
0000
,  // measure 4
0000
0000
0000
0000
,  // measure 5
0000
0000
0000
0000
,  // measure 6
0000
0000
0000
0000
,  // measure 7
0000
0000
0000
0000
,  // measure 8
0000
0000
0000
0000
,  // measure 9
2000
0000
3100
0000
,  // measure 10
1000
0001
0100
0000
,  // measure 11
0002
0000
0013
0000
,  // measure 12
0001
1000
0010
0000
,  // measure 13
0200
0000
0320
0000
,  // measure 14
1030
0100
0010
0001
,  // measure 15
1100
0000
0011
0000
,  // measure 16
1000
0001
0100
0010
,  // measure 17
1000
0100
0000
0100
,  // measure 18
1000
0010
0000
0010
,  // measure 19
1000
0001
0000
0001
,  // measure 20
1000
0001
0100
0110
,  // measure 21
0001
0010
0000
0010
,  // measure 22
0001
0100
0000
0100
,  // measure 23
0001
1000
0000
1000
,  // measure 24
0220
0000
0000
0330
,  // measure 25
0001
0000
0010
0001
,  // measure 26
0010
1000
0100
0001
,  // measure 27
1000
0000
0100
1000
,  // measure 28
0010
0001
0100
1000
,  // measure 29
0001
0010
0100
0000
,  // measure 30
0100
0010
0001
0000
,  // measure 31
1000
0010
0100
0000
,  // measure 32
0100
0010
1000
0000
,  // measure 33
0202
0303
2200
3300
,  // measure 34
0001
1000
0011
1010
,  // measure 35
0002
0000
0100
0103
,  // measure 36
0001
0100
0010
1000
,  // measure 37
0010
1000
0001
0100
,  // measure 38
0020
0000
1000
1030
,  // measure 39
0001
1000
0100
1100
,  // measure 40
1000
0001
0010
0011
,  // measure 41
1000
0100
0002
0003
,  // measure 42
0001
0100
2000
3000
,  // measure 43
0011
0000
1010
0000
,  // measure 44
1100
0000
0101
0000
,  // measure 45
2002
0000
0000
0000
,  // measure 46
3003
0100
0010
0110
,  // measure 47
0001
1000
0100
0010
,  // measure 48
0100
1000
0002
0000
,  // measure 49
1003
0010
0001
0000
,  // measure 50
1000
0100
0001
0000
,  // measure 51
1000
0100
0001
0100
,  // measure 52
1000
0000
1001
0000
,  // measure 53
0001
0010
0001
0100
,  // measure 54
0010
1000
0100
1000
,  // measure 55
0010
1000
0100
0001
,  // measure 56
0100
1000
0010
0100
,  // measure 57
0001
1000
0010
0100
,  // measure 58
0001
0010
0100
1000
,  // measure 59
0001
1000
1000
0001
,  // measure 60
0100
0010
0010
0100
,  // measure 61
0020
0000
0000
0000
,  // measure 62
0030
0000
0000
0000
;

//---------------dance-single - ----------------
#NOTES:
     dance-single:
     :
     Hard:
     7:
     0.439,0.511,0.484,0.168,0.019: // measure 1
0000
0000
0000
0000
,  // measure 2
0000
0000
0000
0000
,  // measure 3
0000
0000
0000
0000
,  // measure 4
0000
0000
0000
0000
,  // measure 5
0000
0000
0000
0000
,  // measure 6
0000
0000
0000
0000
,  // measure 7
0000
0000
0000
0000
,  // measure 8
0000
0000
0000
0000
,  // measure 9
1000
0100
1000
0011
,  // measure 10
0001
1000
0010
1010
,  // measure 11
0001
0000
1000
0000
0010
0100
0001
0000
,  // measure 12
2000
3100
0020
0031
,  // measure 13
1000
0001
0100
0101
,  // measure 14
0001
1000
0001
1100
,  // measure 15
0010
0000
1000
0000
0001
0100
0001
0000
,  // measure 16
2000
0100
0010
3001
,  // measure 17
1001
0000
0000
0100
0000
0001
1000
0000
,  // measure 18
0110
0000
0000
0001
0000
1000
0100
0010
,  // measure 19
0100
0000
0000
1000
0000
0001
0010
0000
,  // measure 20
0100
1000
0100
0000
0010
0001
0010
0000
,  // measure 21
1100
0000
0000
0001
0000
1000
0100
0010
,  // measure 22
0001
0000
0000
0100
0000
0001
1000
0000
,  // measure 23
0011
1000
1010
0001
,  // measure 24
2002
0000
0000
3003
,  // measure 25
0001
0000
0000
0010
0000
0000
0100
0000
0020
0000
0000
0000
0031
0000
0000
0000
,  // measure 26
1000
0000
0000
0001
0000
0000
0100
0000
0010
0000
0000
0000
0110
0000
0000
0000
,  // measure 27
0001
0000
0000
0100
0000
0000
1000
0000
0200
0000
0000
0000
0301
0000
0000
0000
,  // measure 28
1000
0000
0000
0010
0000
0000
0100
0000
0001
0000
0000
0000
1001
0000
0000
0000
,  // measure 29
0011
0000
1000
0100
1000
0000
0001
0010
,  // measure 30
0100
1000
0010
0100
0001
0000
1100
0000
,  // measure 31
0101
0000
1000
0100
1000
0000
0001
1000
,  // measure 32
0100
0010
0100
1000
0001
0000
1010
0000
,  // measure 33
1001
0110
0110
1001
,  // measure 34
1000
0001
0200
0000
0301
1000
0020
0000
,  // measure 35
2030
3001
1100
1010
,  // measure 36
0001
0010
0001
0100
0000
1000
0100
0000
,  // measure 37
0020
0130
0011
0101
,  // measure 38
1000
0001
0100
0010
0000
1000
0001
0000
,  // measure 39
1000
0100
0010
0000
1001
0000
0110
0000
,  // measure 40
0002
0000
1003
0100
0000
0010
0001
1000
,  // measure 41
0001
0000
0110
0000
1000
0002
0000
0103
,  // measure 42
0010
0100
0001
2000
0000
0001
3001
0000
,  // measure 43
0001
0011
1000
1100
,  // measure 44
0010
1010
0100
0101
,  // measure 45
1001
0000
0110
0000
0001
0010
1000
0010
,  // measure 46
0000
0001
0002
0000
1003
0000
0110
0000
,  // measure 47
0011
0000
1010
0000
0001
0100
1000
0020
,  // measure 48
0000
0031
1000
0010
1100
0000
0101
0000
,  // measure 49
1001
0000
1000
0100
0010
0100
0001
0100
,  // measure 50
0000
1000
0001
1000
0000
0010
0100
0000
,  // measure 51
0011
0110
1100
0110
,  // measure 52
1001
0000
0100
0001
0000
1000
0010
0000
,  // measure 53
1001
0000
1000
0001
0100
0001
0010
0001
,  // measure 54
0000
0010
1000
0010
0001
0000
0110
0000
,  // measure 55
1010
0000
1100
0000
0010
1000
0100
0001
,  // measure 56
0000
0010
1000
0000
0010
0100
0010
0000
,  // measure 57
0101
0000
0011
0000
1001
0000
1000
0010
,  // measure 58
0000
0100
0001
0100
0000
0010
1000
0010
,  // measure 59
1000
0000
0001
0000
1000
0100
0010
0000
,  // measure 60
0001
0010
0100
1000
0010
0100
0001
0000
,  // measure 61
0220
0000
0000
0000
,  // measure 62
0330
0000
0000
0000
;

//---------------dance-single - ----------------
#NOTES:
     dance-single:
     :
     Challenge:
     9:
     0.556,0.568,0.335,0.168,0.149: // measure 1
0000
0000
0000
0000
,  // measure 2
0000
0000
0000
0000
,  // measure 3
0000
0000
0000
0000
,  // measure 4
0000
0000
0000
0000
,  // measure 5
0000
0000
0000
0000
,  // measure 6
0000
0000
0000
0000
,  // measure 7
0000
0000
0000
0000
,  // measure 8
0000
0000
0000
0000
,  // measure 9
1001
0000
0001
0010
0001
0100
1000
0100
,  // measure 10
0001
0000
1000
0010
0001
0010
1000
0100
,  // measure 11
0010
0000
0001
1000
0001
0100
0010
0100
,  // measure 12
0010
1100
0101
1001
,  // measure 13
0110
0000
0001
1000
0100
1000
0001
0010
,  // measure 14
0001
0000
1000
0100
0010
0100
0001
0100
,  // measure 15
1000
0000
0010
0100
0010
0100
0001
1000
,  // measure 16
0002
0010
0013
0000
0200
1000
1300
0000
,  // measure 17
0011
0000
0000
1000
0100
0000
0000
0000
1100
0000
0000
0010
0001
0000
0000
0001
,  // measure 18
1000
0100
0010
0001
0100
0010
1000
0001
,  // measure 19
1010
0000
0000
0001
0100
0000
0000
0000
0101
0000
0000
1000
0010
0000
0000
0010
,  // measure 20
0100
0001
1000
0010
1000
0001
0100
0010
,  // measure 21
1001
1010
0011
0110
,  // measure 22
1001
0000
0000
0100
0010
0000
0100
0000
0001
0000
1000
0000
0001
0000
0100
0000
,  // measure 23
0000
0010
1000
0010
0000
0100
0002
0200
,  // measure 24
0000
0303
1001
0000
0110
0000
1001
0000
,  // measure 25
1000
0000
0000
0100
1000
0000
0100
0000
0010
0000
0000
0000
1001
0000
0000
0000
,  // measure 26
0001
0000
0000
0100
0010
0000
0100
0000
0001
0000
1000
0000
1100
0000
0000
0000
,  // measure 27
0010
0000
0000
0100
0001
0000
0100
0000
0010
0000
0000
0000
0110
0000
0000
0000
,  // measure 28
0100
0000
0000
0001
1000
0000
0100
0000
0010
0000
0001
0000
0011
0000
0000
0000
,  // measure 29
0101
0000
0000
1000
0100
0000
0001
0000
0100
0000
1000
0000
0001
0000
1000
0000
,  // measure 30
1010
0000
0000
0001
0010
0000
1000
0000
0010
0000
0001
0000
0100
0000
0010
0000
,  // measure 31
2000
0000
0000
3001
0100
0000
0001
0000
0001
0000
0000
1000
0010
0000
0100
0000
,  // measure 32
0002
0000
0000
0103
0010
0000
0100
0000
0001
0000
0100
0000
0110
0000
0000
0000
,  // measure 33
0001
1000
0011
0000
0100
0010
1100
0000
,  // measure 34
0002
0010
0100
1003
2000
0100
0010
3001
,  // measure 35
1001
0000
0000
0001
0100
0000
0000
0000
1010
0000
0000
0001
0010
0000
0000
0010
,  // measure 36
0001
0100
0010
0100
0000
0001
1000
0000
,  // measure 37
0110
0000
0000
0010
1000
0000
0000
0000
0011
0000
0000
0100
1000
0000
0000
1000
,  // measure 38
0001
0010
1000
0010
0000
0001
1000
0000
,  // measure 39
0110
0000
0000
1000
0001
0000
0000
0001
0100
0000
0000
0100
0010
0000
0000
0010
,  // measure 40
1000
0100
0001
0010
0000
1000
0001
0100
,  // measure 41
0010
0000
0100
0001
1000
0010
0000
1000
,  // measure 42
0001
0010
1000
0010
0000
0001
1000
0000
,  // measure 43
0020
1000
0130
0000
0200
0001
0310
0000
,  // measure 44
0010
1000
0100
0001
0010
1000
0100
0001
,  // measure 45
0020
0000
0000
0031
1000
0000
0100
0000
0001
0000
0100
0000
1000
0000
0010
0000
,  // measure 46
0001
0010
1000
0001
1100
0000
0011
0000
,  // measure 47
2000
0000
0000
3001
0010
0000
1000
0000
0100
0000
0001
0000
1000
0000
0100
0000
,  // measure 48
1000
0010
0100
0001
1010
0000
0101
0000
,  // measure 49
2000
0000
0000
3001
0010
0000
0100
0000
1000
0000
0001
0000
0100
0000
0020
0000
,  // measure 50
0000
1030
0100
0001
0010
1000
0001
1000
,  // measure 51
0000
0010
0100
0010
0000
1000
0002
2000
,  // measure 52
0003
0000
3001
0000
0010
0000
0100
0000
1000
0010
0000
0100
0001
0000
1000
0001
,  // measure 53
1000
0100
0010
0100
1000
0100
0001
0100
,  // measure 54
1000
0100
0010
0001
0100
0010
0100
0001
,  // measure 55
0010
1000
0010
0001
0010
0100
0010
0001
,  // measure 56
1000
0100
0010
1000
0010
0001
1000
0001
,  // measure 57
1000
0100
0001
0010
1000
0010
0001
0100
,  // measure 58
1000
0010
0001
1000
0100
0001
0100
0010
,  // measure 59
1000
0100
0010
1000
0100
0010
1000
0001
,  // measure 60
0010
0001
0100
0010
1000
0100
1000
0001
,  // measure 61
2002
0000
0000
0000
,  // measure 62
3003
0000
0000
0000
;
