#TITLE:Sing A Well;
#SUBTITLE:;
#ARTIST:Highway61;
#TITLETRANSLIT:;
#SUBTITLETRANSLIT:;
#ARTISTTRANSLIT:;
#CREDIT:;
#BANNER:bn.PNG;
#BACKGROUND:bg.PNG;
#LYRICSPATH:;
#CDTITLE:;
#MUSIC:Sing A Well.ogg;
#OFFSET:-0.320;
#SAMPLESTART:1.820;
#SAMPLELENGTH:14.820;
#SELECTABLE:YES;
#BPMS:0.000=150.500,100.000=149.000,132.000=150.250;
#STOPS:;
#BGCHANGES:;

//---------------dance-single - ----------------
#NOTES:
     dance-single:
     :
     Hard:
     8:
     0.589,0.524,0.012,0.112,0.012:
0000
0000
0000
0000
,
1000
0001
0010
0000
0001
1000
0010
0000
,
1000
0100
0010
0002
0000
0100
0103
0000
,
0010
1000
0000
0100
0000
0010
0001
1000
,
0010
1000
0100
0010
0001
0001
1000
1000
,
0010
1000
0001
0000
0010
0001
0100
0000
,
0010
1000
0100
0020
0000
0001
0031
0000
,
1000
0100
0000
0010
0000
0001
0100
0010
,
1000
1000
0001
0001
0010
0001
0100
0010
,
1000
0100
0000
0010
0001
0010
0100
0000
,
1000
0010
0100
0001
0000
0010
0001
0000
,
1000
0100
0000
0001
0100
0000
1000
0010
,
0100
0001
0000
0010
0001
0000
0100
0000
,
0010
1000
0100
0010
0001
0000
0010
0100
,
1000
0001
0010
0001
0100
0000
0010
0000
,
1000
0100
0000
0001
0000
0100
1000
0010
,
0100
0100
0001
0001
0010
0001
0100
0010
,
1000
0100
0001
0000
1000
0010
0001
0000
,
1000
0010
0100
0002
0000
0010
0013
0000
,
0100
1000
0000
0010
0000
1000
0001
0010
,
0001
0100
0001
0100
1000
1000
0100
0100
,
0001
0100
0010
0000
1000
0100
0010
0000
,
0001
1000
0010
2000
0000
0010
3010
0000
,
0100
0000
0001
0000
0000
0000
0010
0000
0000
0000
0100
0000
1000
0000
0001
0010
,
0001
0000
0010
0000
0100
0000
1000
0000
0010
0000
0100
0000
0001
0000
0000
1000
,
0100
1000
0010
1000
0001
0010
0001
0100
,
0010
1000
0100
0010
0000
0001
0010
0000
,
0001
0010
0100
1000
0010
1000
0001
0010
,
0001
1000
0100
2000
0000
0010
3010
0000
,
0100
0001
0010
0100
1000
0010
1000
0001
,
0010
0001
0100
0001
0000
1000
0100
0010
,
0001
1000
0010
1000
0001
0010
0001
0100
,
0010
0010
1000
1000
0001
0010
0001
0100
,
0010
1000
0100
0000
0010
0001
0100
0000
,
0010
1000
0001
0020
0000
0001
0031
0000
,
0010
0100
0000
1000
0000
0010
1000
0001
,
0010
0001
0010
0001
0100
0100
0001
0001
,
0100
0010
1000
0000
0100
0010
0001
0000
,
1000
0010
1000
0002
0000
0010
0013
0000
,
0001
0010
0000
0100
0000
1000
0010
0100
,
0001
1000
0010
0000
1000
0100
0001
0000
,
0100
1000
0010
0200
0000
0010
0310
0000
,
0100
0001
0000
0010
0000
0001
0100
0010
,
1000
0100
0010
0001
1000
1000
0001
0001
,
1000
0100
0010
0000
0001
0100
0010
0000
,
1000
0001
0010
0002
0000
0100
0103
0000
,
0010
1000
0000
0100
0000
0010
0001
1000
,
0010
1000
0100
0010
0001
0001
1000
1000
,
0010
1000
0000
0001
0000
0010
0001
0100
,
0010
1000
0100
0010
1001
0000
0000
0000
;

//---------------dance-single - ----------------
#NOTES:
     dance-single:
     :
     Easy:
     4:
     0.292,0.266,0.012,0.000,0.000:
0000
0000
0000
0000
,
1000
0100
0010
0001
,
1000
0010
0000
1000
,
0010
0100
0001
0010
,
0100
0000
1000
0000
,
0010
1000
0001
0010
,
0001
0100
0000
0010
,
1000
0001
0010
0001
,
0100
0000
0010
0000
,
1000
0100
1000
0100
,
0010
0001
0010
0000
,
0001
0100
0001
0100
,
0010
1000
0010
0000
,
1000
0100
0010
0001
,
1000
0010
0100
0000
,
0001
0010
0100
1000
,
0001
0001
1000
1000
,
0001
0010
0100
1000
,
0100
0010
0000
0001
,
0100
0010
1000
0010
,
0100
0000
0001
0000
,
1000
0100
0010
0001
,
1000
0010
0000
0100
,
0001
0010
0100
1000
,
0010
0010
0100
0100
,
0001
1000
0010
1000
,
0001
0010
0001
0000
,
0100
0010
1000
0100
,
0010
0001
1000
0000
,
0010
1000
0001
0010
,
0001
0100
0010
0000
,
1000
0100
0010
0001
,
1000
1000
0001
0001
,
1000
0010
1000
0001
,
0010
0001
0000
0100
,
0010
1000
0100
0010
,
0001
0000
1000
0000
,
0010
1000
0001
0010
,
0001
0100
0000
0010
,
1000
0100
0010
0001
,
0010
0001
0010
0100
,
1000
0010
0000
0100
,
0001
0010
1000
0010
,
0001
0000
0100
0000
,
0010
1000
0100
0010
,
0001
1000
0000
0010
,
1000
0010
0100
0001
,
1000
0001
1001
0000
;

//---------------dance-single - ----------------
#NOTES:
     dance-single:
     :
     Beginner:
     1:
     0.087,0.118,0.012,0.000,0.000:
0000
0000
0000
0000
,
1000
0000
0000
0000
,
0001
0000
0000
0000
,
0010
0000
0000
0000
,
0100
0000
0000
0000
,
1000
0000
0000
0000
,
0010
0000
0000
0000
,
0100
0000
0000
0000
,
0001
0000
0000
0000
,
0010
0000
0000
0000
,
0001
0000
0000
0000
,
0100
0000
0000
0000
,
0010
0000
0000
0000
,
1000
0000
0000
0000
,
0100
0000
0000
0000
,
0010
0000
0000
0000
,
0001
0000
0000
0000
,
1000
0000
0000
0000
,
0010
0000
0000
0000
,
1000
0000
0000
0000
,
0100
0000
0000
0000
,
0010
0000
0000
0000
,
0001
0000
0000
0000
,
1000
0000
0000
0000
,
0010
0000
0000
0000
,
1000
0000
0000
0000
,
0100
0000
0000
0000
,
0010
0000
0000
0000
,
0001
0000
0000
0000
,
1000
0000
0000
0000
,
0001
0000
0000
0000
,
0010
0000
0000
0000
,
0001
0000
0000
0000
,
0100
0000
0000
0000
,
0010
0000
0000
0000
,
1000
0000
0000
0000
,
0100
0000
0000
0000
,
0010
0000
0000
0000
,
0001
0000
0000
0000
,
1000
0000
0000
0000
,
0010
0000
0000
0000
,
0100
0000
0000
0000
,
0001
0000
0000
0000
,
0010
0000
0000
0000
,
0100
0000
0000
0000
,
1000
0000
0000
0000
,
0010
0000
0000
0000
,
0100
0000
0110
0000
;

//---------------dance-single - ----------------
#NOTES:
     dance-single:
     :
     Medium:
     6:
     0.418,0.400,0.012,0.000,0.000: // measure 1
0000
0000
0000
0000
,  // measure 2
1000
0100
1000
0000
0001
0100
0001
0000
,  // measure 3
1000
0100
1000
0000
0000
0000
0010
0000
,  // measure 4
0100
0000
0000
0001
0000
0000
0010
0000
,  // measure 5
0100
1000
0010
0100
,  // measure 6
0001
0010
0001
0000
1000
0010
1000
0000
,  // measure 7
0001
0010
0001
0000
0000
0000
1000
0000
,  // measure 8
0010
0000
0000
1000
0000
0000
0100
0000
,  // measure 9
0010
0001
1000
0010
,  // measure 10
1000
0010
0000
1000
0010
0000
0100
0000
,  // measure 11
0001
0010
0100
0000
,  // measure 12
1000
0001
0000
1000
0000
0000
0001
0000
,  // measure 13
0010
0001
0000
0010
0000
0000
0100
0000
,  // measure 14
1000
0000
0010
1000
0000
0000
0001
0000
,  // measure 15
0010
0001
0000
0010
0000
0000
0100
0000
,  // measure 16
1000
0010
0000
1000
0000
0001
0010
0000
,  // measure 17
0001
0000
1000
0000
0001
1000
0001
1000
,  // measure 18
0001
0010
0001
0000
1000
0010
1000
0000
,  // measure 19
0001
0010
0001
0000
0000
0000
1000
0000
,  // measure 20
0010
0000
0000
1000
0000
0000
0100
0000
,  // measure 21
0010
0001
1000
0010
,  // measure 22
0100
0001
0100
0000
0010
1000
0010
0000
,  // measure 23
0100
0001
0100
0000
0000
0000
0010
0000
,  // measure 24
1000
0100
0000
0010
0000
0001
1000
0000
,  // measure 25
0001
1000
0001
1000
0001
1000
0001
1000
,  // measure 26
0001
0010
0001
0100
,  // measure 27
0010
1000
0010
1000
0000
0000
0100
0000
,  // measure 28
0010
0001
0100
0010
,  // measure 29
0100
0010
0100
0010
0000
0000
1000
0000
,  // measure 30
0100
0010
0001
1000
,  // measure 31
0010
1000
0010
1000
0000
0000
0010
0000
,  // measure 32
0100
0000
0001
0000
0010
0000
0100
1000
,  // measure 33
0100
0000
0010
0000
0001
1000
0001
1000
,  // measure 34
0001
0010
0001
0000
1000
0010
1000
0000
,  // measure 35
0001
0100
0001
0100
0000
0000
0010
0000
,  // measure 36
1000
0100
0000
0010
0000
0001
1000
0000
,  // measure 37
0010
1000
0001
0010
,  // measure 38
0001
0100
0001
0000
1000
0010
1000
0000
,  // measure 39
0001
0010
0001
0010
0000
0000
0100
0000
,  // measure 40
1000
0010
0000
1000
0000
0001
0010
0000
,  // measure 41
0001
0100
0001
0000
1000
0010
1000
0000
,  // measure 42
0001
0010
0001
0010
0000
0000
1000
0000
,  // measure 43
0010
0100
0000
0001
0000
1000
0010
0000
,  // measure 44
1000
0100
0010
0001
,  // measure 45
0100
0001
0100
0000
0010
1000
0010
0000
,  // measure 46
1000
0100
1000
0100
0000
0000
0010
0000
,  // measure 47
0001
1000
0000
0010
0000
1000
0001
0000
,  // measure 48
0010
0000
0001
0000
1000
0001
1000
0001
,  // measure 49
1000
0010
0000
1000
0000
0100
0010
0000
,  // measure 50
0001
1000
0001
0000
1001
0000
0000
0000
;
