#TITLE:Session 1 -Genesis-;
#SUBTITLE:;
#ARTIST:Prastik Dancefloor;
#TITLETRANSLIT:;
#SUBTITLETRANSLIT:;
#ARTISTTRANSLIT:;
#GENRE:;
#CREDIT:;
#MENUCOLOR:;
#METERTYPE:DDR;
#BANNER:Session 1 -Genesis-.png;
#BACKGROUND:Session 1 -Genesis--bg.png;
#LYRICSPATH:;
#CDTITLE:;
#MUSIC:Session 1 -Genesis-.mp3;
#OFFSET:1.230;
#SAMPLESTART:49.250;
#SAMPLELENGTH:12.000;
#SELECTABLE:YES;
#LISTSORT:;
#BPMS:0.000=78.500,36.000=178.000;
#STOPS:36.000=0.674
,262.000=0.169
,263.000=0.169
;
#BGCHANGES:;
#ATTACKS:;

//---------------dance-single - ----------------
#NOTES:
     dance-single:
     :
     Hard:
     9:
     0.685,0.684,0.306,0.324,0.223: // measure 1
0000
0000
0000
0000
,  // measure 2
2010
0000
0000
0000
0000
0000
0000
0000
0200
0000
0000
3000
0020
0000
0000
0300
,  // measure 3
0002
0000
0000
0030
0200
0000
0000
0003
2000
0000
0000
0300
0200
0000
0000
3000
,  // measure 4
0002
0000
0000
0300
0020
0003
0200
0030
0020
0000
0000
0300
0002
0000
0000
0030
,  // measure 5
0200
0000
0000
0000
0000
0000
0000
0003
0020
0000
0000
0000
0000
0000
0000
0330
,  // measure 6
0201
0000
0000
0000
0020
0000
0000
0000
0000
0000
0000
0300
2000
0000
0000
0030
,  // measure 7
0200
0000
0000
3000
0020
0000
0000
0300
0002
0000
0000
0030
0200
0000
0000
0003
,  // measure 8
0020
0000
0000
0000
0000
0000
0000
0300
0200
0030
0002
0300
2000
0003
0200
3000
,  // measure 9
0020
0000
0000
0000
0000
0000
0000
0300
0002
0000
0000
0000
0000
0000
0000
0000
,  // measure 10
0033
0000
1020
0000
1030
0100
0010
0100
,  // measure 11
0001
0100
0010
0001
0100
1000
0100
0001
,  // measure 12
1000
0100
0010
0001
0010
0100
0010
0001
,  // measure 13
0100
1000
0100
0001
1000
0010
0100
0001
,  // measure 14
2000
0010
0010
0000
3001
0100
1000
0100
,  // measure 15
0001
0010
0100
0010
0100
0001
0100
0010
,  // measure 16
0001
0100
1000
0100
0001
1000
0100
0010
,  // measure 17
0001
0010
0100
0010
0001
0100
1000
0100
,  // measure 18
0001
0010
0100
0010
0001
0010
0100
0000
0110
0000
0010
0000
0001
0000
0100
0000
,  // measure 19
1000
0100
0001
1000
0100
0010
0100
0001
,  // measure 20
0100
0110
0010
0011
0001
0010
1000
0010
,  // measure 21
0001
0010
0100
1000
0001
1000
0010
0100
,  // measure 22
0001
1000
0010
1000
0100
0010
0100
0000
1100
0000
1000
0000
0010
0000
0001
0000
,  // measure 23
0010
0100
0001
0010
0100
0010
0001
0100
,  // measure 24
0010
1010
1000
1001
0001
0100
0010
1000
,  // measure 25
0100
0000
0010
0000
0100
0000
1000
0000
0001
0010
0001
0010
0100
0010
0100
0010
,  // measure 26
0100
1000
0100
1000
0001
1000
0001
1000
0001
0000
0000
0000
0100
0000
0010
0000
,  // measure 27
0000
0000
1000
0000
0100
0000
0010
0100
0010
0000
0100
0000
1000
0000
0010
0000
,  // measure 28
0100
0000
0010
1000
0001
0100
0010
1000
,  // measure 29
0100
0000
0010
0000
0000
0000
0100
0010
0100
0000
1000
0000
0000
0000
0001
0100
,  // measure 30
0001
0000
1000
0000
0000
0000
0001
0010
0001
0000
0100
0000
0010
0000
0000
0000
,  // measure 31
0100
0000
0010
0000
0000
0000
1000
0100
1000
0000
0100
0000
0010
0000
0000
0000
,  // measure 32
0001
0000
0100
0000
0000
0000
0010
1000
0010
0000
0100
0000
0010
0000
1000
0000
,  // measure 33
0001
0000
0010
0000
0000
0000
0100
1000
0100
0000
0000
0000
0110
0000
0100
0000
,  // measure 34
0010
0001
1001
1000
1100
1000
0010
0100
,  // measure 35
0001
0000
0010
0000
0000
0000
0100
0010
0100
0000
1000
0000
0000
0000
0001
0100
,  // measure 36
0001
0000
0010
0000
0000
0000
0001
0010
0001
0000
1000
0000
0000
0000
0001
0100
,  // measure 37
0001
0000
0010
0000
0000
0000
0100
1000
0100
0000
0010
0000
0000
0000
0001
0100
,  // measure 38
0001
0000
1000
0000
0000
0000
0010
0100
0010
0000
1000
0000
0100
0000
0010
0000
,  // measure 39
0001
0000
0100
0000
0000
0000
0010
1000
0010
0000
0100
0000
0010
0000
1000
0000
,  // measure 40
0001
0010
0100
1000
0100
0010
0000
0100
,  // measure 41
0010
0000
0001
0000
0000
0000
1000
0010
1000
0000
0010
0000
0000
0000
0001
1000
,  // measure 42
0001
0000
1000
0100
0010
0001
1000
0000
1001
0000
0000
0001
0100
0000
0000
0010
,  // measure 43
0100
0000
0000
0100
0001
0000
0012
0000
0000
0000
0100
0000
0100
0000
0100
0000
,  // measure 44
0100
0000
0100
0000
0100
0000
0103
0000
0110
0000
0000
0010
1000
0000
0000
1000
,  // measure 45
0100
0000
0000
0010
0001
0000
0102
0000
0000
0000
1000
0000
1000
0000
1000
0000
,  // measure 46
1000
0000
1000
0000
1000
0000
1003
0000
1010
0000
0000
0010
0100
0000
0000
0100
,  // measure 47
0001
0000
0000
1000
0100
0000
0120
0000
0000
0000
0001
0000
0001
0000
0001
0000
,  // measure 48
0001
0000
0001
0000
0001
0000
0031
0000
1001
0000
0000
0001
0010
0000
0000
0001
,  // measure 49
0100
0000
0000
0100
0010
0000
2010
0000
0000
0000
0001
0000
0001
0000
0001
0000
,  // measure 50
3001
1000
0001
1000
0001
0010
0100
1000
0001
0000
0000
0000
0100
0000
0010
0000
,  // measure 51
0000
1000
0001
0100
0010
0000
1000
0100
,  // measure 52
0000
0010
0100
1000
0010
0000
0100
0010
,  // measure 53
0000
1000
0001
0010
0100
0000
1000
0001
,  // measure 54
0000
0010
0001
1000
1001
0000
1010
0000
,  // measure 55
0110
0011
1100
0110
,  // measure 56
0101
0000
0011
0000
1100
1000
1010
0010
,  // measure 57
0110
0100
0101
0001
1000
0100
0010
0001
,  // measure 58
0010
0000
0100
0000
0010
0100
0010
0100
0010
0000
0100
0000
1000
0000
0001
0000
,  // measure 59
0010
0100
1000
0100
0001
0100
0010
0100
,  // measure 60
1000
0100
0010
0100
1000
0010
0001
0010
,  // measure 61
1000
0001
0010
0100
1000
0100
0010
0100
,  // measure 62
2000
0010
0010
0000
3001
0100
0010
1000
,  // measure 63
0010
0001
0010
1000
0001
0010
0100
0010
,  // measure 64
1000
0010
0100
1000
0010
0001
0010
1000
,  // measure 65
0001
0010
0100
1000
0010
1000
0100
0010
,  // measure 66
0001
0100
0010
1000
1001
0001
0101
0100
,  // measure 67
0220
0000
0000
0000
,  // measure 68
0000
0000
0000
0000
,  // measure 69
0330
0000
0000
0000
;

//---------------dance-single - ----------------
#NOTES:
     dance-single:
     :
     Medium:
     7:
     0.537,0.535,0.236,0.306,0.000: // measure 1
0000
0000
0000
0000
,  // measure 2
1002
0000
0000
0000
0200
0003
0020
0300
,  // measure 3
2000
0030
0200
3000
0020
0300
0200
0030
,  // measure 4
2000
0300
3002
0203
0020
0300
0230
0000
,  // measure 5
0002
0000
0000
0300
0020
0000
0000
0033
,  // measure 6
0210
0000
2000
0000
0000
0300
0002
3000
,  // measure 7
0200
0003
0020
0300
0200
0030
0002
0300
,  // measure 8
2000
0000
0000
0003
3002
0023
0230
2300
,  // measure 9
0020
0000
0000
3000
0200
0000
0000
0000
,  // measure 10
0330
2001
3010
0100
,  // measure 11
0010
1000
0001
0000
0010
0000
0100
1000
,  // measure 12
0100
0010
0100
0000
1000
0010
0100
0000
,  // measure 13
0010
1000
0001
0000
0010
0001
1000
0100
,  // measure 14
0020
0002
0030
0000
0103
0000
0010
0000
,  // measure 15
1000
0100
0010
0000
0100
0000
1000
0010
,  // measure 16
0100
0010
1000
0000
0001
0010
0100
0000
,  // measure 17
0010
0100
1000
0000
0010
0100
0001
1000
,  // measure 18
0010
0100
0010
1000
0001
0000
0100
0010
,  // measure 19
1000
0000
0001
0010
0100
0010
0100
0010
,  // measure 20
0000
1010
0000
0110
0000
1000
0010
0000
,  // measure 21
0100
0010
1000
0100
0010
0000
0001
0010
,  // measure 22
0100
1000
0100
0010
0001
0000
1000
0010
,  // measure 23
0100
0000
0010
1000
0100
0010
0100
0010
,  // measure 24
0000
0101
0000
1001
0000
1000
0010
0000
,  // measure 25
0100
0010
1000
0000
0001
0010
0100
1000
,  // measure 26
0001
0010
0100
1000
0010
0000
0100
0010
,  // measure 27
0000
1000
0001
0010
0100
0000
0010
0100
,  // measure 28
1000
0000
0010
0100
0010
1000
0001
0100
,  // measure 29
0001
0000
1000
0100
0010
0100
0000
1000
,  // measure 30
0010
0100
0000
0010
1000
0001
0100
0000
,  // measure 31
0010
1000
0000
0100
0010
0100
1000
0000
,  // measure 32
0010
0100
0000
0001
0010
0100
1000
0100
,  // measure 33
0010
0100
0000
1000
0010
0000
0100
0001
,  // measure 34
1000
0100
0010
0000
0001
0100
0010
1000
,  // measure 35
0100
0010
0000
0100
1000
0010
0000
0100
,  // measure 36
0010
1000
0000
0001
0010
0100
0000
0010
,  // measure 37
0100
1000
0000
0010
0100
0010
0000
1000
,  // measure 38
0001
0100
0000
0001
0010
0100
1000
0100
,  // measure 39
0010
0100
0000
1000
0010
0000
0100
0000
,  // measure 40
0010
0000
1000
0000
0001
0010
0100
1000
,  // measure 41
0100
0010
0000
0100
1000
0000
0010
0100
,  // measure 42
0010
1000
0001
0010
0110
0000
0010
0000
,  // measure 43
0001
0000
1000
1100
0000
1000
0001
1000
,  // measure 44
0001
1000
0001
1000
1010
0000
0010
0000
,  // measure 45
0100
0000
0001
0101
0000
0001
0010
0001
,  // measure 46
0010
0001
0010
0001
1001
0000
1000
0000
,  // measure 47
0010
0000
0100
0101
0000
0001
1000
0001
,  // measure 48
1000
0001
1000
0001
0011
0000
0001
0000
,  // measure 49
0100
0000
0010
1010
0000
1000
0100
1000
,  // measure 50
0100
1000
0001
0010
0100
0000
0010
0100
,  // measure 51
0000
1000
0000
0001
0010
0000
0100
1000
,  // measure 52
0000
0100
0000
0010
0100
0000
1000
0010
,  // measure 53
0000
0100
0000
0010
1000
0000
0001
0010
,  // measure 54
0000
0001
0000
1000
1001
0000
0011
0000
,  // measure 55
0110
1100
0110
1001
,  // measure 56
0101
1001
1010
0110
,  // measure 57
1100
0000
0011
0000
0001
0010
0100
1000
,  // measure 58
0001
0010
0100
1000
0010
0000
0100
0000
,  // measure 59
0010
1000
0001
0000
0100
0000
0010
1000
,  // measure 60
0100
0010
0100
0000
1000
0010
0100
0000
,  // measure 61
0010
1000
0001
0000
0010
0100
1000
0100
,  // measure 62
0020
0002
0030
0000
1003
0000
0010
0000
,  // measure 63
0100
0001
0010
0000
0100
0000
0010
0001
,  // measure 64
0100
0010
0100
0000
0001
1000
0100
0000
,  // measure 65
0010
0100
1000
0000
0001
0100
0010
0100
,  // measure 66
0001
1000
0010
0100
0001
0010
0001
0200
,  // measure 67
0020
0000
0000
0000
,  // measure 68
0000
0000
0000
0000
,  // measure 69
0330
0000
0000
0000
;

//---------------dance-single - ----------------
#NOTES:
     dance-single:
     :
     Easy:
     4:
     0.371,0.535,0.280,0.350,0.000: // measure 1
0000
0000
0000
0000
,  // measure 2
2001
0000
3020
0230
,  // measure 3
0302
0023
0230
0320
,  // measure 4
0032
0203
0320
2030
,  // measure 5
0200
3000
0020
0330
,  // measure 6
0021
0002
0030
0203
,  // measure 7
0320
2030
3002
0203
,  // measure 8
0020
0300
2030
3002
,  // measure 9
0200
0003
0020
0000
,  // measure 10
0330
1002
1003
0010
,  // measure 11
0100
0001
0010
0100
,  // measure 12
1000
0100
0010
0100
,  // measure 13
0010
0001
0100
0010
,  // measure 14
0200
0000
0301
0010
,  // measure 15
0100
0010
0001
0100
,  // measure 16
0010
1000
0001
0010
,  // measure 17
0100
0010
0001
0100
,  // measure 18
0010
0100
0101
0001
,  // measure 19
0010
0100
1000
0010
,  // measure 20
0000
1001
0000
0101
0000
0000
0001
0000
,  // measure 21
0010
0100
0010
0001
,  // measure 22
0100
0010
0110
0100
,  // measure 23
0001
1000
0100
0010
,  // measure 24
0000
0110
0000
0011
0000
0000
0001
0000
,  // measure 25
0100
0010
2000
3200
,  // measure 26
0320
0000
0032
0000
1003
0000
0000
0010
,  // measure 27
0000
0100
0001
0010
,  // measure 28
0100
0010
0001
0100
,  // measure 29
0010
0100
0001
0000
,  // measure 30
1000
0000
0010
0100
,  // measure 31
0000
0001
0000
0000
1000
0000
0010
0000
,  // measure 32
0000
0100
0000
0000
0010
0000
0100
0000
,  // measure 33
0001
0000
0010
0100
,  // measure 34
0010
0001
1000
0010
,  // measure 35
0100
0000
0001
0000
,  // measure 36
0010
0000
0100
0000
,  // measure 37
0010
0000
0001
0000
,  // measure 38
1000
0000
0010
0100
,  // measure 39
0001
0000
1000
0010
,  // measure 40
0100
0001
0010
0000
,  // measure 41
0100
0000
0010
0001
,  // measure 42
1000
0001
1001
1000
,  // measure 43
0010
0000
0000
0201
0000
0000
0001
0000
,  // measure 44
0001
0301
0110
0100
,  // measure 45
0001
0000
0000
1002
0000
0000
1000
0000
,  // measure 46
1000
1003
1010
0010
,  // measure 47
1000
0000
0000
0201
0000
0000
0001
0000
,  // measure 48
0001
0301
0110
0010
,  // measure 49
1000
0000
0000
2100
0000
0000
0100
0000
,  // measure 50
3200
0000
0320
0000
0130
0000
0000
1000
,  // measure 51
0000
0001
0000
0000
0100
0000
0000
0010
,  // measure 52
0000
1000
0000
0000
0100
0000
0000
0010
,  // measure 53
0000
0100
0000
0000
1000
0000
0000
0010
,  // measure 54
0000
0100
0000
0000
1010
0000
1010
0000
,  // measure 55
1001
1001
0011
0011
,  // measure 56
0110
0110
1100
0110
,  // measure 57
0011
0110
1000
0100
,  // measure 58
0010
0001
1000
0010
,  // measure 59
0100
0010
1000
0001
,  // measure 60
0010
0100
1000
0100
,  // measure 61
0010
0100
1000
0010
,  // measure 62
0200
0000
0301
1000
,  // measure 63
0100
0010
0100
1000
,  // measure 64
0010
0100
0001
0010
,  // measure 65
0100
0010
0100
1000
,  // measure 66
0001
0100
0101
1010
,  // measure 67
0220
0000
0000
0000
,  // measure 68
0000
0000
0000
0000
,  // measure 69
0330
0000
0000
0000
;
