#TITLE:Sekai de Ichiban Koishiteru;
#SUBTITLE:;
#ARTIST:Shuuhei Kita;
#TITLETRANSLIT:;
#SUBTITLETRANSLIT:;
#ARTISTTRANSLIT:;
#CREDIT:348;
#BANNER:Sekai de Ichiban Koishiteru Banner.png;
#BACKGROUND:Sekai de Ichiban Koishiteru Background.png;
#LYRICSPATH:Sekai de Ichiban Koishiteru.lrc;
#CDTITLE:;
#MUSIC:Sekai de Ichiban Koishiteru.mp3;
#OFFSET:-0.464;
#SAMPLESTART:52.193;
#SAMPLELENGTH:15.000;
#SELECTABLE:YES;
#BPMS:0.000=185.000;
#STOPS:;
#BGCHANGES:;

//---------------dance-single - ----------------
#NOTES:
     dance-single:
     :
     Beginner:
     1:
     0.125,0.189,0.012,0.000,0.000: // measure 1
0000
0000
0000
0000
,  // measure 2
0000
0000
0000
0000
,  // measure 3
0000
0000
0000
0000
,  // measure 4
0000
0000
0000
0000
,  // measure 5
1000
0000
0000
0000
,  // measure 6
0001
0000
0000
0000
,  // measure 7
1000
0000
0000
0000
,  // measure 8
0001
0000
0000
0000
,  // measure 9
0100
0000
0000
0000
,  // measure 10
0010
0000
0000
0000
,  // measure 11
0100
0000
0000
0000
,  // measure 12
0010
0000
0000
0000
,  // measure 13
1000
0000
0000
0000
,  // measure 14
0000
0000
0001
0000
,  // measure 15
0001
0000
0000
0000
,  // measure 16
0000
0000
1000
0000
,  // measure 17
1000
0000
0000
0000
,  // measure 18
0000
0000
0010
0000
,  // measure 19
0010
0000
0000
0000
,  // measure 20
0100
0000
0000
0000
,  // measure 21
0001
0000
0000
0000
,  // measure 22
1000
0000
0100
0000
,  // measure 23
1000
0000
0000
0000
,  // measure 24
0001
0000
0000
0000
,  // measure 25
1000
0000
0000
0000
,  // measure 26
0010
0000
0000
0100
,  // measure 27
0100
0000
0000
0000
,  // measure 28
0010
0000
0000
0000
,  // measure 29
1000
0000
0100
0000
,  // measure 30
0010
0000
0000
0000
,  // measure 31
0001
0000
0010
0000
,  // measure 32
0100
0000
0000
0000
,  // measure 33
1000
0000
0001
0000
,  // measure 34
1000
0000
0000
0000
,  // measure 35
0010
0000
0000
0000
,  // measure 36
0100
0000
0000
0000
,  // measure 37
0001
0000
0000
0000
,  // measure 38
1000
0000
0000
0000
,  // measure 39
0010
0000
0100
0000
,  // measure 40
0010
0000
0000
0000
,  // measure 41
1000
0000
0000
0001
,  // measure 42
0001
0000
0000
1000
,  // measure 43
1000
0000
0000
0000
,  // measure 44
0001
0000
0000
0000
,  // measure 45
0100
0000
0000
0010
,  // measure 46
0010
0000
0000
0100
,  // measure 47
0100
0000
0000
0000
,  // measure 48
0010
0000
0000
0000
,  // measure 49
1000
0000
0000
0000
,  // measure 50
0100
0000
0000
0000
,  // measure 51
0010
0000
0000
0000
,  // measure 52
0001
0000
0000
0000
,  // measure 53
1000
0000
0010
0000
,  // measure 54
0100
0000
0000
0000
,  // measure 55
0001
0000
0100
0000
,  // measure 56
0010
0000
0000
0000
,  // measure 57
1000
0000
0000
0000
,  // measure 58
0100
0000
0000
0000
,  // measure 59
1000
0000
0000
0000
,  // measure 60
0100
0000
0000
0000
,  // measure 61
0010
0000
0000
0000
,  // measure 62
0001
0000
0000
0000
,  // measure 63
0010
0000
0000
0000
,  // measure 64
0001
0000
0000
0000
,  // measure 65
1001
0000
0000
0000
;

//---------------dance-single - ----------------
#NOTES:
     dance-single:
     :
     Easy:
     4:
     0.330,0.377,0.082,0.118,0.000: // measure 1
0000
0000
0000
0000
,  // measure 2
0000
0000
0000
0000
,  // measure 3
0000
0000
0000
0000
,  // measure 4
0000
0000
0000
0000
,  // measure 5
1000
0100
0010
0001
,  // measure 6
1000
1000
0000
0001
,  // measure 7
0010
0010
0000
0010
,  // measure 8
0100
0100
0000
0100
,  // measure 9
1000
0010
0100
0001
,  // measure 10
0001
1000
0000
1000
,  // measure 11
1000
0010
0000
0010
,  // measure 12
2000
0000
3001
0000
,  // measure 13
0001
0000
0010
0000
,  // measure 14
0001
0010
0001
0000
,  // measure 15
1000
0100
1000
0000
,  // measure 16
0100
0000
1000
0000
,  // measure 17
0001
0000
0010
0000
,  // measure 18
0100
0000
1000
0000
,  // measure 19
0001
0100
0010
1000
,  // measure 20
0002
0000
1003
0000
,  // measure 21
1000
0100
0000
0100
,  // measure 22
1000
0001
0000
0001
,  // measure 23
0010
1000
0000
0010
,  // measure 24
0001
0000
1100
0000
,  // measure 25
0001
1000
0000
1000
,  // measure 26
0010
0001
0000
0010
,  // measure 27
1000
0001
0000
1000
,  // measure 28
0100
0000
0011
0000
,  // measure 29
1000
0100
1000
0000
,  // measure 30
0001
0010
0001
0000
,  // measure 31
1000
0100
0010
0100
,  // measure 32
1000
0001
1000
0000
,  // measure 33
0001
1000
0010
0000
,  // measure 34
1000
0001
0100
0000
,  // measure 35
0002
0000
0013
0000
,  // measure 36
0200
0000
1300
0000
,  // measure 37
0001
0010
0100
0000
,  // measure 38
1000
0100
0010
0000
,  // measure 39
0001
1000
0010
0100
,  // measure 40
0110
0000
1001
0000
,  // measure 41
1000
0100
1000
0100
,  // measure 42
0010
0001
0010
0001
,  // measure 43
1000
0010
0000
0010
,  // measure 44
0100
0001
0000
0001
,  // measure 45
1000
0010
1000
0010
,  // measure 46
0100
0001
0100
0001
,  // measure 47
2000
0000
0000
3000
,  // measure 48
0002
0000
0000
0003
,  // measure 49
1000
0010
0100
0000
,  // measure 50
0100
0010
1000
0000
,  // measure 51
0001
0010
0100
1000
,  // measure 52
0101
0000
1010
0000
,  // measure 53
0001
0001
2000
0000
,  // measure 54
3010
0010
0200
0000
,  // measure 55
0310
1000
0002
0000
,  // measure 56
1003
0001
0020
0000
,  // measure 57
0031
0100
0010
0000
,  // measure 58
1000
0010
0100
0000
,  // measure 59
0001
1000
0100
0010
,  // measure 60
0100
1000
0001
1000
,  // measure 61
0010
1000
0100
0000
,  // measure 62
0010
0001
0100
0000
,  // measure 63
0001
1000
0001
1000
,  // measure 64
0010
0100
0010
0100
,  // measure 65
1001
0000
0000
0000
;

//---------------dance-single - ----------------
#NOTES:
     dance-single:
     :
     Medium:
     6:
     0.487,0.490,0.236,0.236,0.000: // measure 1
0000
0000
0000
0000
,  // measure 2
0000
0000
0000
0000
,  // measure 3
0000
0000
0000
0000
,  // measure 4
0000
0000
0000
0000
,  // measure 5
1000
0000
0100
0000
0010
0001
0000
1000
,  // measure 6
0000
0000
0001
0000
1000
0100
1000
0000
,  // measure 7
0001
0000
0010
0000
0100
1000
0000
0100
,  // measure 8
0000
0020
0031
1001
,  // measure 9
0100
0000
0001
0000
1000
0010
0000
0010
,  // measure 10
0000
0000
1000
0000
0001
0010
0001
0000
,  // measure 11
1000
0000
0001
0000
1000
0100
0000
0001
,  // measure 12
0000
0000
0100
0000
1000
0001
0000
0000
,  // measure 13
1000
0100
0010
0101
,  // measure 14
0001
1000
0010
1010
,  // measure 15
0001
0000
1000
0000
0010
0100
0010
0000
,  // measure 16
1000
0001
1100
0101
,  // measure 17
1000
0000
0001
0000
0100
0010
0100
0000
,  // measure 18
0001
1000
0010
1100
,  // measure 19
0002
0000
0000
1000
0000
1003
0000
0000
,  // measure 20
1000
0000
0010
0100
0010
0000
1000
0000
,  // measure 21
0001
0000
0010
0000
0100
1000
0000
1000
,  // measure 22
0000
0000
0001
0000
1000
0010
0000
0010
,  // measure 23
0000
1000
0001
0110
,  // measure 24
0001
0000
1000
0000
0010
1000
0010
0000
,  // measure 25
1000
0000
0001
0000
1000
0001
0000
0001
,  // measure 26
0000
0000
0100
0000
0001
0010
0001
0000
,  // measure 27
2000
3100
0020
0031
,  // measure 28
2000
0000
3001
0010
0000
0010
0001
0000
,  // measure 29
1000
1100
0001
0011
,  // measure 30
1000
0001
1000
0000
0001
0010
0001
0000
,  // measure 31
0100
0101
0010
1010
,  // measure 32
1000
0100
1000
0000
0010
0100
0010
0000
,  // measure 33
0100
0011
0200
0001
,  // measure 34
0310
1100
0020
1000
,  // measure 35
0230
0001
0000
0301
,  // measure 36
0020
1000
0000
1030
,  // measure 37
1000
0100
0001
0100
,  // measure 38
1000
0010
0001
0010
,  // measure 39
2000
0000
0000
3001
0000
0010
0000
0001
,  // measure 40
0000
1000
0010
0000
0110
0000
0000
0000
,  // measure 41
1000
0100
0001
0010
,  // measure 42
1000
0100
0001
0010
,  // measure 43
1000
0000
0001
0010
0001
0000
1000
0000
,  // measure 44
0002
0000
0010
0013
,  // measure 45
0010
0001
1000
0010
,  // measure 46
0100
0001
1000
0100
,  // measure 47
1000
0000
0010
0000
0100
0010
0000
2000
,  // measure 48
0000
0000
0001
3001
,  // measure 49
0001
1000
0020
0100
,  // measure 50
1030
0010
2000
3001
,  // measure 51
1000
0000
0001
0100
0000
1000
0000
0100
,  // measure 52
0000
0002
1003
1001
,  // measure 53
0010
0100
0001
1000
,  // measure 54
0001
1000
0001
0000
1000
0000
0010
0000
,  // measure 55
1000
0010
0001
0100
,  // measure 56
1000
0001
1000
0000
0001
0000
0100
0000
,  // measure 57
0002
0000
0000
0003
1000
0100
0000
0200
,  // measure 58
0000
0000
0300
0000
0010
0001
0000
0002
,  // measure 59
0000
1003
0100
0011
,  // measure 60
0100
0010
0100
0000
0001
0000
1000
0000
,  // measure 61
0010
0000
0100
0000
0010
2000
0000
0001
,  // measure 62
0000
0000
3001
0000
0002
0100
0000
0100
,  // measure 63
0000
0103
0001
1010
,  // measure 64
0001
1000
1001
0110
,  // measure 65
1001
0000
0000
0000
;

//---------------dance-single - ----------------
#NOTES:
     dance-single:
     :
     Hard:
     7:
     0.572,0.565,0.448,0.271,0.000: // measure 1
0000
0000
0000
0000
,  // measure 2
0000
0000
0000
0000
,  // measure 3
0000
0000
0000
0000
,  // measure 4
0000
0000
0000
0000
,  // measure 5
1000
0000
1001
0000
0001
0010
0001
0010
,  // measure 6
0000
0000
1100
0000
0010
1000
0001
0100
,  // measure 7
0000
0000
0011
0000
1000
0100
1000
0000
,  // measure 8
0002
0023
0230
2300
,  // measure 9
3001
0000
1001
0000
1000
0010
1000
0010
,  // measure 10
0000
0000
0101
0000
0100
0010
0100
0000
,  // measure 11
0002
0000
1000
0003
1000
0001
0000
0000
,  // measure 12
0200
0000
0010
0000
0310
0100
0000
0000
,  // measure 13
0001
0000
0100
0000
0010
1000
0010
0000
,  // measure 14
1000
0000
0001
0010
0000
0010
0001
0000
,  // measure 15
1000
0001
0100
0010
,  // measure 16
1100
0000
0001
0010
0100
0010
0001
0000
,  // measure 17
1000
0000
0110
0000
0001
1000
0100
1000
,  // measure 18
0001
1000
0100
0011
,  // measure 19
2000
0100
0010
3001
,  // measure 20
0001
0010
0100
1000
0000
1000
0001
0000
,  // measure 21
1000
0000
1000
0100
0000
0001
0000
0100
,  // measure 22
0000
2000
0000
3001
0000
0001
0010
0001
,  // measure 23
0010
0000
0001
1000
0000
0110
0000
0001
,  // measure 24
0000
1000
0100
0010
0001
1000
0001
0000
,  // measure 25
1000
0100
0010
1001
,  // measure 26
0010
0100
0001
1000
,  // measure 27
0220
0330
0001
1000
,  // measure 28
0001
0010
0100
0010
0000
0001
1000
0000
,  // measure 29
0001
1100
0010
1010
,  // measure 30
0001
0000
1001
0000
1000
0100
1000
0000
,  // measure 31
1000
0011
0100
0101
,  // measure 32
1000
0000
1001
0000
0001
0010
0001
0000
,  // measure 33
1000
0000
0100
0000
1000
0001
1000
0000
,  // measure 34
0010
0100
0010
0000
1001
0000
0110
0000
,  // measure 35
2000
3010
0020
0130
,  // measure 36
0200
0301
0002
1003
,  // measure 37
2000
0000
0000
0010
0000
0000
0002
0000
,  // measure 38
3003
0011
1100
0110
,  // measure 39
0001
0000
1000
0000
0001
0010
0000
1000
,  // measure 40
0000
0100
0000
0001
1000
0000
0000
0000
,  // measure 41
0001
0000
1000
0100
0000
0010
0100
0010
,  // measure 42
0000
0100
1000
0001
0000
0100
0010
0000
,  // measure 43
1000
0000
0010
0100
0010
0000
1000
0000
,  // measure 44
0001
0200
0310
0110
,  // measure 45
0001
0000
0010
0001
0000
1000
0100
1000
,  // measure 46
0000
0001
0010
0001
0000
1000
0100
0000
,  // measure 47
2000
0100
3002
0010
,  // measure 48
0103
0001
0100
0000
0010
1000
0010
0000
,  // measure 49
1000
0100
1000
1100
,  // measure 50
0001
0010
0001
0011
,  // measure 51
1000
0000
0001
1000
0000
0110
0000
0002
,  // measure 52
0000
1003
0110
1001
,  // measure 53
0100
0000
0001
1000
0000
1000
0010
0000
,  // measure 54
0010
0000
0100
0001
0000
0001
1000
0000
,  // measure 55
0010
0001
0100
1000
,  // measure 56
0002
0000
1000
1000
,  // measure 57
0103
0000
0110
0000
0010
1000
0100
1000
,  // measure 58
0000
0000
0110
0000
0001
0010
0001
0100
,  // measure 59
0000
0110
1010
0101
,  // measure 60
1000
0100
0020
0000
0031
0010
0200
0000
,  // measure 61
1300
0000
1100
0000
0001
1000
0100
0010
,  // measure 62
0000
0000
0011
0000
1000
0010
0100
0001
,  // measure 63
0000
1000
0001
1100
,  // measure 64
0101
0000
1001
0000
0100
0010
1000
0001
;

//---------------dance-single - ----------------
#NOTES:
     dance-single:
     :
     Challenge:
     9:
     0.717,0.677,0.460,0.306,0.000: // measure 1
0000
0000
0000
0000
,  // measure 2
0000
0000
0000
0000
,  // measure 3
0000
0000
0000
0000
,  // measure 4
0000
0000
0000
0000
,  // measure 5
0001
0010
0100
0000
1000
0100
0001
0100
,  // measure 6
0000
0010
0001
0000
0100
0010
0100
1000
,  // measure 7
0000
0100
0010
0000
1000
0001
0100
0010
,  // measure 8
1000
0100
0010
0100
1000
0001
0100
0001
,  // measure 9
1000
0001
0010
0000
0001
0100
1000
0100
,  // measure 10
0000
0001
1000
0000
0010
0100
0010
0000
,  // measure 11
1100
0000
0101
0000
1000
0100
0010
0001
,  // measure 12
0000
0001
1000
0000
0001
0100
0010
1000
,  // measure 13
0002
0000
1003
0100
0000
0001
0100
2000
,  // measure 14
0000
3001
0010
0100
1000
0100
0010
0000
,  // measure 15
0101
0011
1100
1010
,  // measure 16
1001
0000
0100
0001
1000
0001
0100
0001
,  // measure 17
1000
0000
0010
1000
0001
1000
0010
0000
,  // measure 18
1000
0000
0001
0010
0000
1100
0000
0022
,  // measure 19
0000
0033
1001
0000
0101
0000
1010
0000
,  // measure 20
0001
0010
0100
1000
0010
0100
0001
0000
,  // measure 21
2000
0000
3001
0010
0000
0100
1000
0100
,  // measure 22
0002
0000
0103
1000
0000
0001
1000
0010
,  // measure 23
0200
0000
0320
0000
1030
0010
0100
0000
,  // measure 24
0110
0000
0001
1000
0100
1000
0001
0000
,  // measure 25
0200
0000
0301
0010
0000
0100
1000
0001
,  // measure 26
0020
0000
0031
1000
0000
0101
0000
2200
,  // measure 27
0000
3300
0110
0000
0011
0000
1010
0000
,  // measure 28
1000
0010
0100
0001
0010
0100
1000
0000
,  // measure 29
0001
0010
1000
0010
0001
0100
1000
0100
,  // measure 30
0001
0010
1000
0001
0100
1000
0001
0000
,  // measure 31
1000
0100
0001
0100
1000
0010
0001
0010
,  // measure 32
1000
0100
0001
1000
0010
0001
1000
0000
,  // measure 33
0010
0100
0010
1000
0001
0100
0010
0100
,  // measure 34
0001
1000
0100
0010
0001
1000
0010
0100
,  // measure 35
0012
1003
2100
3010
,  // measure 36
0120
1030
0201
0310
,  // measure 37
1001
0000
0100
0001
0000
2000
0020
0000
,  // measure 38
3030
0000
0110
0000
0001
1000
0001
0000
,  // measure 39
1001
0000
0100
0001
0100
1000
0000
0110
,  // measure 40
0000
0001
0010
1000
0010
0000
1001
0000
,  // measure 41
1000
0100
0001
0100
0000
1000
0010
0100
,  // measure 42
0000
0001
0010
1000
0010
0001
1000
0000
,  // measure 43
1000
0010
0001
0010
0000
1000
0100
1000
,  // measure 44
0000
0001
0010
0001
0100
0001
1000
0000
,  // measure 45
0001
1000
0100
0010
0000
0010
0100
1000
,  // measure 46
0000
1000
0100
0010
0001
0100
0010
1000
,  // measure 47
0002
0013
1100
1001
,  // measure 48
1000
0100
1000
0010
1000
0001
1000
0010
,  // measure 49
2000
0000
3001
0100
0000
0100
0001
0000
,  // measure 50
0002
0000
1003
0010
0000
0010
1000
0000
,  // measure 51
0110
0000
0001
1000
0000
1000
0100
0001
,  // measure 52
0000
0100
1000
0000
0101
0000
1010
0000
,  // measure 53
1001
0000
2000
0100
0000
3010
1000
0000
,  // measure 54
0110
0000
0200
0001
0000
0310
0100
0001
,  // measure 55
0100
0001
0100
0000
0010
1000
0010
0000
,  // measure 56
1000
0001
0100
0001
1000
0010
0100
0010
,  // measure 57
2000
0000
3001
0000
0001
0010
0001
0100
,  // measure 58
0000
0001
0010
0001
1000
0100
0010
0002
,  // measure 59
0000
1003
0100
0001
0100
1000
0010
0100
,  // measure 60
0002
1003
1100
0101
,  // measure 61
1000
0100
1000
0000
0001
0010
1000
0010
,  // measure 62
0000
0001
1000
0100
1000
0010
0100
0001
,  // measure 63
1010
0000
0011
0000
1000
0001
1000
0001
,  // measure 64
0000
0100
0010
0100
0001
0010
0100
1001
;
