#TITLE:Secrets;
#SUBTITLE:;
#ARTIST:good-cool Feat. CHiCO;
#TITLETRANSLIT:;
#SUBTITLETRANSLIT:;
#ARTISTTRANSLIT:;
#CREDIT:;
#BANNER:;
#BACKGROUND:;
#LYRICSPATH:;
#CDTITLE:;
#MUSIC:Secrets.ogg;
#OFFSET:-1.660;
#SAMPLESTART:89.580;
#SAMPLELENGTH:12.000;
#SELECTABLE:YES;
#BPMS:0.000=150.000,50.000=300.000,52.000=150.000,149.500=300.000,150.500=150.000,151.000=300.000,152.000=150.000;
#STOPS:;
#BGCHANGES:;

//---------------dance-single - ----------------
#NOTES:
     dance-single:
     :
     Beginner:
     2:
     0.221,0.273,0.175,0.117,0.000:
0000
0000
0000
0000
,
0000
0000
0000
0000
,
0000
0000
0000
0000
,
0000
0000
0000
0000
,
1000
0000
0100
0000
,
1000
0000
0001
0000
,
0100
0000
0001
0000
,
0010
0000
0010
0000
,
0100
0000
1000
0000
,
0001
0000
0010
0000
,
0001
0000
1000
0000
,
0100
0000
0100
0000
,
1000
1000
1000
0000
,
0000
1001
0000
0100
,
0000
1000
0000
0100
,
0000
1001
0000
0010
,
0000
0001
0000
0010
,
0000
1001
0000
0010
,
0000
1000
0000
0010
,
0000
1001
0000
0100
,
0000
0002
0000
0103
,
0000
1000
1000
1000
,
0000
0001
0001
0001
,
0000
0100
0000
0010
,
0000
1000
0000
0001
,
0000
0100
0100
0100
,
0000
0010
0010
0010
,
0000
0100
0000
0001
,
0000
1000
0000
0001
,
0000
1001
0000
1000
,
0000
1001
0000
0001
,
0000
1000
0000
0100
,
0000
1000
1000
1000
,
0000
1001
0000
0001
,
0000
1001
0000
1000
,
0000
0001
0000
0100
,
0000
0001
0001
0001
,
0000
0000
1000
0000
0000
1000
0000
0000
,
1000
0000
1000
0000
,
0010
0000
1000
0000
,
0001
0000
0100
0000
,
0001
0000
0010
0000
,
0010
0000
0100
0000
,
1000
0000
0001
0000
,
0010
0000
0001
0000
,
0100
0000
0010
0010
,
0010
0000
2000
0000
,
0000
0001
3002
0000
,
0000
0010
0023
0000
,
0000
0100
0230
0000
,
0000
1000
2300
0000
,
0000
0010
3020
0000
,
0000
0100
0230
0000
,
0000
0001
0301
0001
,
0001
0001
1000
1000
,
1000
1000
0001
0000
,
0110
0000
0001
0000
,
1001
0000
1000
0000
,
0110
0000
1000
0000
,
1001
0000
1000
0000
,
1001
0000
0001
0000
,
0110
0000
0001
0000
,
1001
0000
1000
0000
,
0110
0000
2000
0000
,
3001
0000
0200
0000
,
0310
0000
2000
0000
,
3001
0000
0010
0000
,
0100
0000
0020
0000
,
0031
0000
0200
0000
,
0301
0000
0002
0000
,
1003
0000
1000
0000
,
1001
0000
1001
0000
,
1001
0000
1001
0000
,
1001
0000
0000
0000
;

//---------------dance-single - ----------------
#NOTES:
     dance-single:
     :
     Hard:
     9:
     0.741,0.698,0.350,0.142,0.537: // measure 1
0000
0000
0000
0000
,  // measure 2
0000
0000
0000
0000
,  // measure 3
0000
0000
0000
0000
,  // measure 4
0000
0000
0000
0000
,  // measure 5
1000
0100
0000
1000
0010
0000
0100
0000
0001
0000
1000
0100
0000
1000
0010
0000
,  // measure 6
0100
0001
0000
0010
0001
0000
0010
0000
0100
0000
1000
0010
0000
0100
0010
0000
,  // measure 7
0100
0001
0000
1000
0001
0000
0010
0000
0001
0000
0100
0010
0000
0100
1000
0000
,  // measure 8
0100
0000
0001
0000
0010
0000
0010
0000
0100
0000
1000
0000
0001
0100
0001
0000
,  // measure 9
0010
0001
0000
0010
0100
0000
1000
0000
0001
0000
0010
0001
0000
0100
0010
0000
,  // measure 10
0100
1000
0000
0100
0001
0000
0010
0000
0100
0000
1000
0001
0000
0100
0001
0000
,  // measure 11
0010
0100
0000
1000
0001
0000
0010
0000
0001
0000
0100
0010
0000
1000
0001
0000
,  // measure 12
2001
0001
0001
3001
1002
1000
1000
1003
,  // measure 13
1000
0000
0100
0000
1000
0001
2000
0002
0000
0000
0000
0000
3003
0000
0000
0000
,  // measure 14
0110
0000
1000
0100
1000
0010
0100
0001
,  // measure 15
0010
0001
0100
1000
0100
0001
0010
1000
,  // measure 16
0010
0001
0100
0010
1000
0100
1000
0010
,  // measure 17
0100
0001
0010
1000
0010
0001
0100
1000
,  // measure 18
0100
0001
0010
0001
0100
0010
1000
0001
,  // measure 19
0010
1000
0010
0001
0100
1000
0100
0001
,  // measure 20
0010
1000
0010
0001
0100
0010
1000
0100
,  // measure 21
1000
0000
0010
0000
0220
0000
0000
0000
0330
0000
0000
0000
1000
0100
0000
1000
,  // measure 22
0000
0010
0100
0000
0001
0000
0010
0000
0001
0000
1000
0000
0100
1000
0100
0000
,  // measure 23
1001
0000
0000
0000
0010
0000
1000
0000
0001
0000
0100
0000
0010
1000
0010
0000
,  // measure 24
1001
0000
0000
0000
0100
0000
1000
0000
0010
0000
0001
0000
0011
0000
0000
0011
,  // measure 25
0000
0000
0011
0000
0010
0000
1000
0000
0100
0000
0001
0000
0101
0000
0000
0101
,  // measure 26
0000
0000
0101
0000
0100
0000
1000
0000
0001
0000
0010
0000
0100
0010
0100
0000
,  // measure 27
1001
0000
0000
0000
0010
0000
0100
0000
0001
0000
1000
0000
0010
0100
0010
0000
,  // measure 28
1001
0000
0000
0000
0100
0000
0001
0000
1000
0000
0100
0000
1100
0000
0000
1010
,  // measure 29
0000
0110
0101
0100
0010
1000
0100
1000
,  // measure 30
0001
0010
0100
1000
0001
2000
0000
3100
,  // measure 31
0100
1000
0001
2000
0000
3100
0100
0010
,  // measure 32
0001
0100
2000
0000
0100
3200
0000
0001
,  // measure 33
0302
0000
0000
0000
1003
0100
1000
0000
0001
0000
0100
0000
0001
0100
0001
0000
,  // measure 34
1000
0010
1000
0100
0010
0002
0000
1003
,  // measure 35
1000
0100
0010
0002
0000
1003
1000
0001
,  // measure 36
0010
0001
0200
0000
0001
0302
0000
1000
,  // measure 37
1003
0000
0000
0000
1000
0010
1000
0000
0100
0000
1000
0000
0001
0100
0001
0000
,  // measure 38
0010
0000
0001
0000
1000
0001
2000
0000
0000
0000
3001
1000
0002
0000
0000
0000
,  // measure 39
1003
0100
0000
1000
0000
0001
0010
0000
0001
0000
1000
0010
0000
1000
0100
0000
,  // measure 40
1000
0000
0000
0001
0100
0000
0100
0000
0010
0000
0100
0001
0000
0010
0001
0000
,  // measure 41
1000
0000
0000
0100
1000
0000
1000
0000
0010
0000
0100
0010
0000
0100
1000
0000
,  // measure 42
0100
0000
0000
0001
0010
0000
0010
0000
0100
0000
1000
0000
0100
0000
1000
0000
,  // measure 43
0010
0001
0000
0001
0010
0000
0010
0000
1000
0000
0100
1000
0000
0100
0010
0000
,  // measure 44
0100
0000
0000
0010
0001
0000
0001
0000
0100
0010
0100
0000
0010
1000
0010
0000
,  // measure 45
0100
0000
0000
0010
1000
0000
1000
0000
0100
0000
1000
0010
0000
0100
0010
0000
,  // measure 46
1000
0000
0000
0100
1000
0000
1000
0000
0001
0000
0100
0000
0001
0000
0100
0000
,  // measure 47
0010
1000
0000
1000
0100
0000
0100
0000
0010
0000
0000
0001
0000
0100
0010
0000
,  // measure 48
0000
0000
0000
0000
1001
0000
0000
0000
1000
0100
0000
1000
0000
0001
0100
0000
,  // measure 49
1001
0000
0000
0000
0110
0000
0000
0000
1000
0001
0000
0010
0000
0001
0100
0000
,  // measure 50
1010
1010
1010
0000
1000
0100
1000
0010
,  // measure 51
0100
0001
0100
0000
0001
0100
0001
0000
1000
0000
0000
0100
0000
1000
0010
0000
,  // measure 52
0000
0000
0000
0000
1001
0000
0000
0000
0010
0001
0000
0100
0000
0010
0100
0000
,  // measure 53
0110
0000
0000
0000
1001
0000
0000
0000
1000
0001
0000
0100
0000
0001
1000
0000
,  // measure 54
1100
1100
1100
0000
1000
0001
0100
0010
,  // measure 55
0100
0001
0100
0000
0010
1000
0010
0000
1000
0000
0001
0000
0110
0000
0000
0000
,  // measure 56
1000
0001
1000
0000
0100
1000
0000
0100
1000
0100
0000
1000
0000
0010
1000
0000
,  // measure 57
0100
0000
0100
0000
0001
0000
0001
0000
0100
1000
0000
0010
0000
0100
0010
0000
,  // measure 58
0110
0000
0000
0000
0101
0000
0000
0000
0010
0001
0000
0010
0000
0001
0100
0000
,  // measure 59
1000
0000
1000
0000
0100
0000
0100
0000
0001
0000
0010
0000
0001
0100
0000
0010
,  // measure 60
1000
0000
0100
0000
1000
0010
0000
0100
0001
0100
0000
0010
0000
1000
0100
0000
,  // measure 61
0001
0000
0001
0000
0100
0000
0100
0000
1000
0010
0000
1000
0000
0010
0001
0000
,  // measure 62
0011
0000
0011
0000
0011
0000
0000
0000
0010
1000
0000
0100
0000
1000
0001
0000
,  // measure 63
0100
0000
0100
0000
0001
0000
0001
0000
0010
0000
0001
0000
0100
0010
0000
0100
,  // measure 64
0001
0000
1000
0000
0100
1000
0000
0010
1000
0000
0001
0000
0100
0000
0010
0000
,  // measure 65
0100
0000
1000
0000
0100
0000
0000
0000
0001
1000
0001
1000
0001
0000
0000
0000
,  // measure 66
0101
0000
1100
0000
0100
0001
0010
1000
,  // measure 67
0010
0100
0010
0000
0001
0100
0010
1000
,  // measure 68
0100
1000
0010
0100
0001
1000
0100
1000
,  // measure 69
0100
0000
0010
0000
0100
0000
0000
0000
0010
0001
0010
0001
0010
0000
0000
0000
,  // measure 70
0011
0011
0110
0000
1000
0100
0010
0100
,  // measure 71
0010
0001
0010
0000
0001
0100
1000
0100
,  // measure 72
0001
0000
0010
0000
0100
1000
0000
0100
0010
0000
0001
0000
0010
0100
0000
1000
,  // measure 73
0100
0000
0010
0000
0001
0010
0000
0100
1000
0000
0100
0000
0010
0001
0000
1001
;

//---------------dance-single - ----------------
#NOTES:
     dance-single:
     :
     Easy:
     5:
     0.394,0.486,0.400,0.216,0.004:
0000
0000
0000
0000
,
0000
0000
0000
0000
,
0000
0000
0000
0000
,
0000
0000
0000
0000
,
1000
0001
1000
1000
,
0001
0100
0001
0001
,
1000
0010
1000
1000
,
0100
1001
0010
1001
,
0010
0001
0100
0100
,
0010
1000
0100
0100
,
1000
0001
0100
0100
,
0001
1010
0001
0110
,
0001
1000
0220
0330
,
1001
0110
1000
0100
,
0001
1000
2000
0000
,
0010
3001
0010
1000
,
0001
1010
1100
1010
,
1100
1001
0100
0001
,
1000
0100
0002
0000
,
0010
1003
0010
0001
,
1000
0200
0000
1000
,
0001
1300
0100
0001
,
0100
1000
0010
0001
,
0010
1000
0100
0010
,
0010
0001
0010
0100
,
0100
1000
0010
0001
,
0010
1000
0100
0001
,
0100
1000
0010
0100
,
0100
0001
0100
0010
,
0010
0000
0100
0000
0000
0001
0000
0000
,
0100
0000
0000
0001
0000
0000
1001
0000
,
1001
0100
0010
0200
,
0000
0001
0001
0301
,
0000
0000
1000
0000
0000
0100
0000
0000
,
1000
0000
0000
0010
0000
0000
1001
0000
,
1001
0010
0100
0020
,
0000
1000
1000
1030
,
0000
0000
1001
0000
0000
1001
0000
0000
,
1001
0000
1000
0001
,
0100
0100
0001
1000
,
0100
0100
1000
0010
,
0100
0100
1001
0101
,
1001
1010
1000
0100
,
0010
0010
0001
0100
,
0010
0010
1000
0001
,
1000
1000
1010
0011
,
1010
0000
1100
0000
1000
0000
0000
0001
,
0000
0000
1001
0000
0001
0000
0000
1000
,
0000
1001
0000
1000
,
0100
0001
0010
0001
,
0100
0000
1000
0000
0010
0000
0000
1000
,
0000
0000
1001
0000
0010
0000
0000
0001
,
0000
1001
0000
0010
,
0001
0100
1000
0010
,
0001
0100
0002
0000
,
1000
1000
1003
0000
0100
0000
1000
0000
,
0100
1000
0010
0100
,
1001
0110
0001
0100
,
0001
0100
0010
0010
,
1000
1000
0100
1000
,
0001
1000
0010
0100
,
1001
0110
1000
0100
,
1000
0010
0100
0100
,
0001
0001
0020
0032
,
0203
0310
2000
3020
,
0230
0301
0020
0230
,
2300
3001
0110
0110
,
1001
1001
0200
2300
,
3002
0103
0020
0230
,
2300
3001
0200
2300
,
3020
0130
0001
0100
,
1001
0110
1001
0110
,
1001
0000
0000
0000
0110
0000
0000
0000
1001
0000
0000
0000
0110
0000
0000
1001
;

//---------------dance-single - ----------------
#NOTES:
     dance-single:
     :
     Medium:
     6:
     0.471,0.486,0.391,0.158,0.050:
0000
0000
0000
0000
,
0000
0000
0000
0000
,
0000
0000
0000
0000
,
0000
0000
0000
0000
,
1000
0000
0000
0000
1000
0000
0000
0000
0001
0000
0000
0100
0000
0000
0001
0000
,
0010
0000
0000
0000
0010
0000
0000
0000
0001
0000
0000
1000
0000
0000
0001
0000
,
1000
0000
0000
0000
1000
0000
0000
0000
0100
0000
0000
1000
0000
0000
0100
0000
,
1000
0001
0010
0010
,
0001
0000
0000
0000
0100
0000
0000
0000
0001
0000
0000
1000
0000
0000
0001
0000
,
0010
0000
0000
0000
0001
0000
0000
0000
0010
0000
0000
0100
0000
0000
0010
0000
,
0100
0000
0000
0000
1000
0000
0000
0000
0001
0000
0000
1000
0000
0000
0001
0000
,
0100
0100
0010
0010
,
1001
1001
0220
0330
,
1001
0100
1000
0100
,
0001
0000
0010
0001
0100
0000
0010
0000
,
1001
0000
0110
0000
1000
0100
1000
1000
,
0001
0000
1000
0100
0000
1001
0000
0011
,
0000
0100
0001
0000
1000
0010
0100
0000
,
0010
0000
1000
1000
0001
0000
0100
0000
,
1001
0000
0110
0000
1000
0001
0100
0001
,
1000
0200
0000
1000
,
0301
0000
1000
0000
0100
0000
1000
0100
,
0001
0000
1000
0000
0010
0000
1000
0010
,
0001
0000
0000
0000
1000
0000
0000
0000
0001
0000
0000
0000
1000
0000
0000
1000
,
0000
0000
1000
0000
0001
0000
0000
0000
1000
0000
0000
0000
0001
0000
0000
0001
,
0000
0001
1000
0000
0010
0000
1000
0010
,
0001
0000
1000
0000
0100
0000
1000
0100
,
0001
0000
0000
0000
1000
0000
0000
0000
0010
0000
0000
0000
1000
0000
0000
1000
,
0000
0000
1000
0000
0001
0000
0000
0000
0100
0000
0000
0000
0001
0000
0000
0001
,
0000
0001
0100
0010
0000
1001
0000
0000
,
0010
0100
0000
1001
0000
0000
1000
0100
,
1000
0100
0020
0000
0000
0032
0000
0000
,
0103
1010
1010
1001
,
1001
0000
0010
0001
0000
1001
0000
0000
,
0100
1000
0000
1001
0000
0000
0001
0010
,
0001
0010
0200
0000
0000
2300
0000
0000
,
3001
0101
0101
1001
,
1001
0000
1000
0200
0000
1300
0002
0000
,
1003
0000
0000
0100
0000
0000
1000
0000
0001
0000
0000
0000
1000
0000
0000
0000
,
0100
0000
1000
0010
0100
0000
0001
0000
,
0010
0000
0001
0100
1000
0000
0100
0000
,
0001
0000
0010
0100
2000
0000
0100
0000
,
0001
3100
1000
0010
,
0100
0000
0001
0010
0100
0000
1000
0000
,
0001
0000
0100
0001
0010
0000
0001
0000
,
0100
0000
0010
1000
0200
0000
1000
0000
,
0001
0000
1300
0000
0100
0000
1000
0100
,
0000
0000
1001
0000
0010
0000
0001
0010
,
0000
0000
1001
0000
0100
1000
0001
0000
,
0010
0001
1000
0000
0110
0000
0110
0000
,
1100
0000
1001
0000
0010
0000
1000
0001
,
0000
0000
0110
0000
0001
0000
1000
0100
,
0000
0000
1001
0000
0100
1000
0010
0000
,
0100
0001
0010
0000
1001
0000
1001
0000
,
1001
1001
1001
1001
,
1001
1001
0100
1000
,
0010
0010
0100
0000
0001
0000
1000
0000
,
0110
1001
0100
1000
,
0001
0001
0100
0000
0020
0000
2030
0000
,
3200
0320
0031
1000
,
0001
0001
1000
1000
0100
0000
1000
0000
,
0100
0100
1000
0000
0001
0000
1000
0000
,
0010
0010
0100
0000
2000
0000
3002
0000
,
0023
0000
0230
0000
1300
0000
0001
1000
,
0100
0000
1001
0000
0010
0000
0001
1000
,
0010
0000
1001
0000
0100
0000
1000
0010
,
0100
0000
1001
0000
0010
0001
0010
0001
,
0010
0000
1001
0000
0100
0000
1000
0010
,
0100
0000
1001
0000
0010
0000
0001
0100
,
0010
0000
1001
0000
0100
0000
1000
0010
,
0100
0000
1001
0000
0100
1000
0100
0000
,
1000
0001
1000
0000
0010
0001
0010
0000
,
0001
0000
0100
0000
0001
0000
0000
0000
0010
0000
1000
0000
0010
0000
0000
0100
;
