#TITLE:Secret Base ~Kimi ga Kureta mono~ (10 years after Ver.);
#SUBTITLE:;
#ARTIST:Kayano Ai & Tomatsu Haruka & Hayami Saori;
#TITLETRANSLIT:;
#SUBTITLETRANSLIT:;
#ARTISTTRANSLIT:;
#GENRE:Anime;
#CREDIT:AznPunk07/Frozen_Heat/GuardianFrozen;
#MENUCOLOR:#AFC8FF;
#METERTYPE:DDR;
#BANNER:Secret Base ~Kimi ga Kureta mono~ (10 years after Ver.)-bn.png;
#BACKGROUND:Secret Base ~Kimi ga Kureta mono~ (10 years after Ver.)-bg.png;
#LYRICSPATH:;
#CDTITLE:cdtitle.png;
#MUSIC:Secret Base ~Kimi ga Kureta mono~ (10 years after Ver.).mp3;
#OFFSET:-1.057;
#SAMPLESTART:48.400;
#SAMPLELENGTH:21.000;
#SELECTABLE:YES;
#LISTSORT:;
#DISPLAYBPM:67.000:134.000;
#BPMS:0.000=134.000,80.000=67.000,84.000=134.000,210.000=33.500,210.375=435.503,212.000=134.000;
#STOPS:;
#BGCHANGES:;
#ATTACKS:;

//---------------dance-single - ----------------
#NOTES:
     dance-single:
     :
     Hard:
     8:
     0.443,0.463,0.185,0.126,0.548: // measure 1
1000
0100
0010
0000
,  // measure 2
0001
0100
0010
0000
,  // measure 3
1000
0001
1000
0100
,  // measure 4
0010
0001
0100
0000
,  // measure 5
0010
0010
1000
0000
,  // measure 6
0001
0100
0100
0010
,  // measure 7
1000
0001
0010
0000
,  // measure 8
0100
0000
0010
0001
,  // measure 9
1000
0001
0100
0000
,  // measure 10
0110
0000
1000
0001
,  // measure 11
1000
0100
0010
0000
,  // measure 12
1001
0000
0001
0100
0000
0100
0010
0000
0010
1000
0100
0010
,  // measure 13
0002
0000
0000
0000
0000
0000
0103
0000
0000
0000
0000
0001
,  // measure 14
2000
0100
3010
0000
,  // measure 15
0200
0000
0000
0000
0000
0000
1300
0000
0000
0000
0000
0100
,  // measure 16
0020
0000
0000
0001
0000
0000
0130
0000
0100
1000
0000
1000
,  // measure 17
0001
0000
0101
0000
,  // measure 18
0010
1000
1100
0010
,  // measure 19
0100
1000
0001
0000
,  // measure 20
0100
0000
0000
0001
0000
0000
0010
0000
0010
0000
0000
0000
,  // measure 21
0100
0100
1000
0000
0010
0010
0001
0000
,  // measure 22
0100
0000
0100
0001
0000
0001
1000
0000
0001
1000
0000
1000
,  // measure 23
0100
0000
0000
0110
0000
0000
0001
0000
0000
0000
0000
0001
,  // measure 24
0010
0000
0001
0010
0000
0010
0100
0000
1000
0100
0000
1000
,  // measure 25
0001
0000
0001
0100
0000
0000
0010
0000
0000
0000
0000
0000
,  // measure 26
1000
0000
0010
1000
0000
0010
0100
0000
0001
0000
0000
0001
,  // measure 27
1000
0000
0100
0000
0000
0100
0010
0000
0000
0001
0000
1000
,  // measure 28
0001
0000
0001
0100
0000
0100
0000
0000
0010
1000
0000
0100
,  // measure 29
0000
0000
0010
0001
0000
0100
0020
0000
0000
0030
0000
0000
,  // measure 30
1000
0000
1000
0100
0000
1000
0100
0000
0100
0010
0000
0010
,  // measure 31
0001
0000
0001
1000
0000
0001
0000
0000
0000
0000
0000
0001
,  // measure 32
0100
0000
0001
0100
0000
0010
0100
0000
0100
0001
0000
0001
,  // measure 33
1000
0000
1000
0100
0000
0100
0000
0000
0000
0000
0000
0000
,  // measure 34
0110
0000
0000
1100
0000
0001
1000
0000
0001
0100
0000
0100
,  // measure 35
0010
0000
0010
0000
0000
1000
0100
0000
0100
1000
0000
0001
,  // measure 36
0100
0000
0000
0100
0000
0001
0000
0000
0010
0001
0000
1000
,  // measure 37
0000
0000
0010
1000
0000
0001
0100
0000
0000
0110
0000
0000
,  // measure 38
2002
0000
0000
0000
0000
0000
3003
0000
1000
0100
0000
0000
,  // measure 39
1100
0000
0000
1000
0000
0100
0000
0000
0010
0001
0000
0000
,  // measure 40
0011
0000
0000
0010
0000
0001
0000
0000
0101
0000
0000
0001
,  // measure 41
1000
0000
1000
0010
0000
0110
0000
0000
0100
0001
0000
0000
,  // measure 42
2002
0000
0000
0000
0000
0000
3003
0000
0001
0010
0000
0000
,  // measure 43
0011
0000
0000
0001
0000
0010
0000
0000
0100
1000
0000
0000
,  // measure 44
1100
0000
0000
0100
0000
1000
0000
0000
0000
1010
0000
0000
,  // measure 45
1002
0000
0000
0100
0000
0000
0010
0000
0000
1003
0000
1000
,  // measure 46
0100
0000
0100
0000
0000
1000
0000
0000
0001
0100
0000
0100
,  // measure 47
0001
0000
0001
0000
0000
0010
0000
0000
0001
0100
0000
0100
,  // measure 48
0010
0000
0000
1000
0000
0000
0100
0000
0010
0100
0000
0010
,  // measure 49
0001
0000
0000
0001
0000
1000
0000
0000
0000
0001
0000
0000
,  // measure 50
0101
0000
0000
0100
0000
0010
0000
0000
0000
0010
0000
1000
,  // measure 51
0010
0000
1000
0000
0000
0100
0010
0000
0010
0001
0000
0001
,  // measure 52
2000
3200
0320
0032
,  // measure 53
0203
0320
1030
0000
,  // measure 54
0100
0000
1000
0100
0000
1000
0001
0000
0100
0000
0000
0100
,  // measure 55
0010
0000
0100
0001
0000
0001
1000
0000
0001
0000
0000
0001
,  // measure 56
0010
0000
0001
0010
0000
0010
0100
0000
1000
0000
0000
0000
,  // measure 57
1001
0000
0001
0100
0000
0001
0000
0000
0100
0010
0000
1000
,  // measure 58
0001
0000
0010
0100
0000
0100
1000
0000
0100
0010
0000
0110
,  // measure 59
0000
0000
0010
0001
0000
0001
1000
0000
0001
1000
0000
0010
,  // measure 60
0100
0000
0000
0010
0000
0101
0000
0000
0000
1000
0000
0100
,  // measure 61
1000
0000
0000
0001
0000
0100
0001
0000
0010
0100
0000
0100
,  // measure 62
1000
0000
0010
1000
0000
0010
0001
0000
0001
0010
0000
0100
,  // measure 63
0001
0000
1000
0001
0000
0010
0100
0000
1000
0100
0000
0100
,  // measure 64
0001
0000
0001
0100
0000
0100
1000
0000
0001
0000
0000
0001
,  // measure 65
0010
0000
0100
1000
0000
0001
0000
0000
1000
0100
0000
1000
,  // measure 66
0010
0000
0010
0001
0000
0010
0100
0000
0001
1000
0000
0100
,  // measure 67
0000
0000
0010
0001
0000
0010
0100
0000
0100
1000
0000
0001
,  // measure 68
0100
0000
0000
0100
0000
0010
0000
0000
0000
1010
0000
0000
,  // measure 69
0100
0000
0000
0011
0000
0000
1000
0000
0000
1001
0000
1000
,  // measure 70
0001
0000
0001
0000
0000
0100
0000
0000
0000
0010
0000
0000
,  // measure 71
1000
0000
0000
0100
0000
0000
0010
0000
0000
0100
0000
1000
,  // measure 72
0100
0000
0100
0000
0000
0010
0000
0000
0000
0001
0000
0000
,  // measure 73
1000
0010
0200
0000
,  // measure 74
0000
0000
0300
0000
;

//---------------dance-single - ----------------
#NOTES:
     dance-single:
     :
     Medium:
     6:
     0.319,0.407,0.096,0.126,0.000: // measure 1
0000
0000
0000
0000
,  // measure 2
0000
0000
0000
0000
,  // measure 3
0000
0000
0000
0000
,  // measure 4
0000
0000
0000
0000
,  // measure 5
1000
0100
0020
0030
,  // measure 6
0002
0003
0100
0010
,  // measure 7
2000
3000
0200
0300
,  // measure 8
0020
0030
0001
1000
,  // measure 9
0020
0000
0030
0000
,  // measure 10
0200
0000
0300
0001
,  // measure 11
0020
0030
0200
0300
,  // measure 12
2000
3000
0001
0001
,  // measure 13
0100
0000
0000
0000
0010
0000
0000
1000
,  // measure 14
0010
0010
0100
0000
,  // measure 15
1000
0000
0000
0000
0100
0000
0000
0010
,  // measure 16
0001
1000
0001
0100
,  // measure 17
0010
0000
0000
0000
1000
0000
0000
0010
,  // measure 18
0100
0001
1000
0100
,  // measure 19
0010
0000
0010
0000
0001
0000
0000
1000
,  // measure 20
0001
0100
0010
0000
,  // measure 21
1000
0100
1000
0001
,  // measure 22
0010
0010
0001
0100
,  // measure 23
0010
1000
1001
0000
,  // measure 24
0010
0001
0100
0010
,  // measure 25
1000
0100
0110
0000
,  // measure 26
0010
0010
0100
1000
,  // measure 27
0001
0100
0000
1000
0100
0000
0010
0000
,  // measure 28
0001
0000
1000
0000
,  // measure 29
0010
0010
0100
0000
,  // measure 30
0001
0010
0001
0000
0010
0000
0100
0000
,  // measure 31
1000
0010
0100
0000
,  // measure 32
0010
1000
0010
0000
0100
0000
0001
0000
,  // measure 33
1000
0100
0010
0000
,  // measure 34
0100
1000
0100
0000
0010
0000
0001
1000
,  // measure 35
0001
0000
0100
0000
0010
0000
1000
0010
,  // measure 36
0100
0000
0001
1000
,  // measure 37
0100
0000
0010
0000
0100
0000
1000
0100
,  // measure 38
0020
0000
0030
0000
,  // measure 39
0002
0000
0003
0000
,  // measure 40
0100
0010
1000
0001
,  // measure 41
2000
0000
3100
0000
,  // measure 42
0020
0000
0030
0000
,  // measure 43
0200
1000
0310
0000
,  // measure 44
2000
0010
3001
0010
,  // measure 45
0100
0000
0010
0000
0001
0000
0100
0001
,  // measure 46
0100
0000
0010
0000
1000
0000
0001
1000
,  // measure 47
0100
0000
0010
0000
0100
0000
1000
0010
,  // measure 48
1000
0001
0100
0010
,  // measure 49
0100
0000
0100
0000
0001
0000
1000
0100
,  // measure 50
0010
0000
0001
0000
1000
0000
0001
0100
,  // measure 51
0010
0000
0100
0000
0001
1000
0100
0000
,  // measure 52
0010
0000
0100
0000
,  // measure 53
1100
0010
0101
0000
,  // measure 54
1000
1010
0011
1001
,  // measure 55
0100
0110
1010
0110
,  // measure 56
0001
0100
0010
0000
1000
0100
0010
0000
,  // measure 57
0001
0010
0100
1000
0001
0000
0001
0000
,  // measure 58
0100
0001
0100
0001
0010
0000
0100
1000
,  // measure 59
0100
0000
0010
0001
1000
0000
0010
1000
,  // measure 60
0001
0000
0100
0000
0010
0000
1000
0100
,  // measure 61
0010
0000
0001
0000
1000
0001
1000
0001
,  // measure 62
0100
0000
0100
0000
0010
0000
1000
0010
,  // measure 63
0100
0001
1000
0100
,  // measure 64
0010
0100
0010
0000
0001
0010
0001
0000
,  // measure 65
1000
0001
0100
0001
1000
0000
0001
0010
,  // measure 66
0100
0010
0001
1000
0010
0000
0100
0010
,  // measure 67
1000
0001
0010
0100
0010
0001
1000
0010
,  // measure 68
0100
0100
0010
0010
,  // measure 69
1000
0001
0011
0100
,  // measure 70
1100
0000
0000
0000
0010
0000
0100
0001
,  // measure 71
1000
0100
0010
0100
,  // measure 72
1100
0000
0000
0000
0010
0000
0001
1000
,  // measure 73
0010
1000
0200
0000
,  // measure 74
0000
0300
0000
0000
;

//---------------dance-single - ----------------
#NOTES:
     dance-single:
     :
     Easy:
     4:
     0.218,0.297,0.015,0.178,0.000: // measure 1
0000
0000
0000
0000
,  // measure 2
0000
0000
0000
0000
,  // measure 3
0000
0000
0000
0000
,  // measure 4
0000
0000
0000
0000
,  // measure 5
0001
0000
0100
0000
,  // measure 6
1000
0000
0100
0000
,  // measure 7
0001
0010
1000
0000
,  // measure 8
0010
0000
0100
0001
,  // measure 9
0100
0000
0010
0000
,  // measure 10
1000
0000
0000
0100
,  // measure 11
0010
0001
1000
0010
,  // measure 12
0000
0100
0100
0100
,  // measure 13
0020
0000
0030
0000
,  // measure 14
2000
0000
3000
0000
,  // measure 15
0002
0000
0003
0000
,  // measure 16
0200
0000
0300
0000
,  // measure 17
0002
0000
0013
0000
,  // measure 18
2000
0000
3100
0000
,  // measure 19
0020
0000
1030
0000
,  // measure 20
0200
0000
0301
0000
,  // measure 21
1000
0100
0010
0001
,  // measure 22
1000
0000
0010
0000
,  // measure 23
0100
0100
0100
0000
,  // measure 24
0001
0000
1000
0000
,  // measure 25
0010
0010
0010
0000
,  // measure 26
0100
0100
0001
0000
,  // measure 27
1000
1000
0100
0000
,  // measure 28
0010
0000
0001
0000
,  // measure 29
1000
0010
1000
0000
,  // measure 30
0001
0100
1000
0100
,  // measure 31
0001
1000
0001
0000
,  // measure 32
1000
0010
0001
0010
,  // measure 33
1000
0001
1000
0000
,  // measure 34
0001
0010
0100
1000
,  // measure 35
0001
0001
0100
0100
,  // measure 36
0020
0000
1030
0000
,  // measure 37
0200
0000
0301
0000
,  // measure 38
1001
0000
0000
0010
,  // measure 39
0100
0000
0000
0001
,  // measure 40
0010
0000
0100
0000
,  // measure 41
1000
0010
0001
0000
,  // measure 42
1001
0000
0000
1000
,  // measure 43
0100
0000
0000
0010
,  // measure 44
0001
0000
0100
0000
,  // measure 45
0010
1000
0001
0000
,  // measure 46
0020
0000
0030
0000
,  // measure 47
0200
0000
0300
0000
,  // measure 48
1000
0000
0010
0100
,  // measure 49
0002
0000
0003
0000
,  // measure 50
0020
0000
0030
0000
,  // measure 51
0200
0000
0300
0000
,  // measure 52
2000
0000
0010
0000
,  // measure 53
3002
0000
1000
0000
,  // measure 54
0003
0000
0000
0000
,  // measure 55
0100
0000
0010
0000
,  // measure 56
1000
0010
0001
0010
,  // measure 57
1000
0100
0010
0001
,  // measure 58
0100
0000
0010
0000
,  // measure 59
1000
0000
0001
0000
,  // measure 60
0010
0001
0100
1000
,  // measure 61
0100
0010
1000
0100
,  // measure 62
0010
0010
0001
0100
,  // measure 63
0010
0010
1000
0001
,  // measure 64
2000
3100
0002
0103
,  // measure 65
1000
0010
0100
0001
,  // measure 66
0010
0010
0100
0010
,  // measure 67
0001
0001
0100
0010
,  // measure 68
1000
1000
0100
0010
,  // measure 69
0100
0100
1000
0001
,  // measure 70
2000
0100
0001
3000
,  // measure 71
0002
0100
1000
0003
,  // measure 72
2000
0010
0001
3000
,  // measure 73
0002
0010
0203
0000
,  // measure 74
0300
0000
0000
0000
;
