#TITLE:Saade Dil Te Churiyan Chaliyan;
#SUBTITLE:;
#ARTIST:Daler Mehndi;
#TITLETRANSLIT:;
#SUBTITLETRANSLIT:;
#ARTISTTRANSLIT:;
#CREDIT:;
#BANNER:bn.PNG;
#BACKGROUND:bg.PNG;
#LYRICSPATH:;
#CDTITLE:;
#MUSIC:Saade Dil Te Churiyan Chaliyan.ogg;
#OFFSET:-0.020;
#SAMPLESTART:9.220;
#SAMPLELENGTH:14.820;
#SELECTABLE:YES;
#BPMS:0.000=207.900;
#STOPS:;
#BGCHANGES:;

//---------------dance-single - ----------------
#NOTES:
     dance-single:
     :
     Hard:
     9:
     0.705,0.692,0.201,0.156,0.000: // measure 1
0000
0000
0000
0000
,  // measure 2
0000
0000
0000
0000
,  // measure 3
0000
0000
0000
0000
,  // measure 4
0000
0000
0000
0000
,  // measure 5
1000
0000
0100
1000
0000
0010
1000
0000
,  // measure 6
0001
0000
0010
0001
0000
0100
0001
0000
,  // measure 7
0010
0000
0100
1000
0000
0100
0010
0000
,  // measure 8
0110
1001
0110
0000
,  // measure 9
0010
0100
0001
0100
0020
0000
0130
0000
,  // measure 10
0001
0010
0100
0010
0002
0000
0013
0000
,  // measure 11
0100
1000
0100
0010
0001
0000
1000
0010
,  // measure 12
0100
0001
0100
0001
0100
1000
0100
1000
,  // measure 13
0100
0000
0001
0000
0100
0010
0100
0000
,  // measure 14
0001
0100
0010
1000
0020
0000
0130
0000
,  // measure 15
0001
0010
0100
1000
0200
0000
0310
0000
,  // measure 16
0001
1000
0010
1000
0001
0000
0010
0001
,  // measure 17
0100
0001
0100
0010
1000
0100
0010
0000
,  // measure 18
0001
0000
1000
0000
0100
0000
0010
0001
,  // measure 19
0100
0000
0010
0000
0110
0000
0010
1000
,  // measure 20
0100
0000
0010
0000
0011
0000
0001
0100
,  // measure 21
0010
0000
1000
0000
0001
0010
0001
0100
,  // measure 22
0010
0000
1000
0000
0100
0000
0010
0001
,  // measure 23
1000
0000
0010
0000
1010
0000
0010
0100
,  // measure 24
0001
0000
0010
0000
0110
0000
0100
1000
,  // measure 25
0001
0000
0010
0000
0001
0100
0010
1000
,  // measure 26
0100
0010
0001
1000
,  // measure 27
0100
1000
0100
0000
0011
0000
0001
0000
,  // measure 28
0100
0001
0100
0000
1010
0000
0010
0000
,  // measure 29
0100
0001
0100
0000
0001
0010
0001
0000
,  // measure 30
0010
0100
0000
1000
0010
0000
0100
0000
,  // measure 31
0001
1000
0010
1000
0002
0000
0013
0000
,  // measure 32
0001
0100
0010
1000
0020
0000
0130
0000
,  // measure 33
0010
0100
0001
0010
0001
0000
0100
0010
,  // measure 34
1000
0100
1000
0100
0001
0100
0001
0100
,  // measure 35
1000
0000
0010
0000
0100
0001
0100
0010
,  // measure 36
1000
0100
0010
0001
,  // measure 37
1000
0000
0010
0000
1000
0001
0010
0001
,  // measure 38
0100
0000
0010
0000
1000
0000
0100
0010
,  // measure 39
0001
0000
1000
0000
0100
0010
0001
0010
,  // measure 40
0100
0000
1000
0000
0010
0000
0100
0001
,  // measure 41
0010
0000
0100
0000
1000
0001
0010
0001
,  // measure 42
0100
0000
0010
0000
1000
0000
0100
0010
,  // measure 43
0001
0000
0010
0001
0100
0000
0010
1000
,  // measure 44
0001
0000
0100
0001
1000
0000
0100
1000
,  // measure 45
0010
0000
1000
0010
0000
1000
0010
0000
,  // measure 46
0100
0000
0001
0100
0000
0001
0100
0000
,  // measure 47
0001
0000
0010
0001
0000
0010
0001
0000
,  // measure 48
0011
0110
1100
0000
,  // measure 49
1000
0010
0100
0010
2000
0000
3010
0000
,  // measure 50
0100
0001
0010
0001
0200
0000
0310
0000
,  // measure 51
1000
0100
0010
0001
1000
0000
0010
0100
,  // measure 52
0001
0010
0001
0010
1000
0010
1000
0010
,  // measure 53
0100
0000
0010
0000
0001
0010
0001
0000
,  // measure 54
0100
0001
0010
0001
2000
0000
3100
0000
,  // measure 55
1000
0010
0100
0001
0020
0000
0130
0000
,  // measure 56
1000
0001
0100
0001
1000
0000
0100
1000
,  // measure 57
0010
0100
0010
0100
0001
0100
0001
0100
,  // measure 58
0010
0000
1000
0000
0001
0000
0010
0100
,  // measure 59
1000
0000
0010
0000
0110
0000
0100
0001
,  // measure 60
0010
0000
0100
0000
1100
0000
1000
0010
,  // measure 61
0100
0000
0001
0000
1000
0100
1000
0010
,  // measure 62
0100
0000
0001
0000
0010
0000
0100
1000
,  // measure 63
0001
0000
0100
0000
0101
0000
0100
0010
,  // measure 64
1000
0000
0100
0000
1100
0000
0100
0010
,  // measure 65
0001
0000
1000
0000
0100
1000
0010
0100
,  // measure 66
0001
0010
0100
1000
,  // measure 67
0001
0100
0001
0000
1010
0000
1000
0000
,  // measure 68
0100
1000
0100
0000
0011
0000
0010
0000
,  // measure 69
0100
1000
0100
0000
0010
0001
0010
0000
,  // measure 70
0100
1000
0000
0010
0100
0000
0001
0000
,  // measure 71
0010
0100
1000
0100
0020
0000
0031
0000
,  // measure 72
0100
0001
1000
0010
2000
0000
3001
0000
,  // measure 73
0100
0001
0010
0100
1000
0000
0001
0100
,  // measure 74
0010
1000
0010
1000
0100
1000
0100
1000
,  // measure 75
0010
0000
0100
0001
0100
0000
0010
0000
,  // measure 76
1000
0100
0010
0001
0100
0010
1000
0002
,  // measure 77
2000
0000
0000
0000
,  // measure 78
0000
0000
3003
0000
;

//---------------dance-single - ----------------
#NOTES:
     dance-single:
     :
     Easy:
     4:
     0.271,0.297,0.000,0.000,0.000:
0000
0000
0000
0000
,
0000
0000
0000
0000
,
0000
0000
0000
0000
,
0000
0000
0000
0000
,
1000
0000
0100
0000
,
1000
0000
0010
0000
,
0100
0000
0001
0000
,
0010
0010
0010
0000
,
0001
0000
0100
0000
,
0001
0000
1000
0000
,
0100
0000
1000
0000
,
0010
0100
0010
0100
,
0010
0000
0100
0000
,
0001
0000
0010
0000
,
0001
0000
1000
0000
,
0010
0000
1000
0000
,
0100
0010
0100
0010
,
0100
0000
0010
0000
,
0001
0001
0000
0000
,
1000
1000
0000
0000
,
0010
0000
0100
0000
,
0001
0100
0001
0000
,
1000
1000
0000
0000
,
0001
0001
0000
0000
,
0010
0000
0001
0000
,
0100
0010
0100
0000
,
0010
0010
0000
0000
,
1000
1000
0000
0000
,
0100
0000
0010
0000
,
0001
0001
1000
1000
,
0010
0000
1000
0000
,
0100
0000
0010
0000
,
0001
0000
1000
0000
,
0010
1000
0010
1000
,
0010
0000
0100
0000
,
0001
0000
1000
0000
,
0100
0000
0010
0010
,
0010
0000
0001
0000
,
0100
0000
0010
0010
,
0010
0000
1000
0000
,
0100
0000
0001
0001
,
0001
0000
0100
0000
,
1000
0000
0010
0000
,
0100
0000
0001
0000
,
0010
0000
0001
0000
,
0100
0000
0010
0000
,
1000
0000
0001
0000
,
1000
1000
1000
0000
,
0001
0000
0010
0000
,
0001
0000
0100
0000
,
0010
0000
1000
0000
,
0100
0010
0100
0010
,
0100
0000
0010
0000
,
0001
0000
1000
0000
,
0010
0000
1000
0000
,
0001
0000
0010
0000
,
0001
0100
0001
0100
,
0001
0000
0100
0000
,
0010
0010
0000
0000
,
1000
1000
0000
0000
,
0100
0000
0010
0000
,
0001
0010
0001
0000
,
0010
0010
0000
0000
,
0100
0100
0000
0000
,
1000
0000
0010
0000
,
0100
0001
0100
0000
,
0010
0010
0000
0000
,
0100
0100
0000
0000
,
0010
0000
1000
0000
,
0100
0010
0100
0000
,
0010
0000
0001
0000
,
0100
0000
0010
0000
,
1000
0000
0100
0000
,
0010
0001
0010
0001
,
0010
0000
0100
0000
,
1000
0000
0001
1000
,
0001
0000
0000
0000
;

//---------------dance-single - ----------------
#NOTES:
     dance-single:
     :
     Beginner:
     2:
     0.140,0.170,0.011,0.000,0.000:
0000
0000
0000
0000
,
0000
0000
0000
0000
,
0000
0000
0000
0000
,
0000
0000
0000
0000
,
1000
0000
0000
0000
,
0001
0000
0000
0000
,
0010
0000
0000
0000
,
0001
0000
0001
0000
,
0001
0000
0000
0000
,
1000
0000
0000
0000
,
0010
0000
0000
0000
,
0100
0000
0100
0000
,
0100
0000
0000
0000
,
0001
0000
0000
0000
,
0010
0000
0000
0000
,
0100
0000
0000
0000
,
1000
0000
1000
0000
,
1000
0000
0000
0000
,
0010
0000
0000
0000
,
0100
0000
0000
0000
,
0001
0000
0001
0000
,
0001
0000
0000
0000
,
0010
0000
0000
0000
,
0100
0000
0000
0000
,
1000
0000
0000
0000
,
0010
0000
0010
0000
,
0010
0000
0000
0000
,
0100
0000
0000
0000
,
0001
0000
0000
0000
,
0010
0000
0010
0000
,
0010
0000
0000
0000
,
0001
0000
0000
0000
,
1000
0000
0000
0000
,
0100
0000
0100
0000
,
0100
0000
0000
0000
,
0010
0000
0000
0000
,
0001
0000
0000
0000
,
1000
0000
0000
0000
,
0010
0000
0000
0000
,
1000
0000
0000
0000
,
0001
0000
0000
0000
,
0010
0000
0000
0000
,
0001
0000
0000
0000
,
1000
0000
0000
0000
,
0100
0000
0000
0000
,
0010
0000
0000
0000
,
0001
0000
0000
0000
,
1000
0000
1000
0000
,
1000
0000
0000
0000
,
0010
0000
0000
0000
,
0100
0000
0000
0000
,
0001
0000
0001
0000
,
0001
0000
0000
0000
,
0010
0000
0000
0000
,
0100
0000
0000
0000
,
1000
0000
0000
0000
,
0010
0000
0010
0000
,
0010
0000
0000
0000
,
0100
0000
0000
0000
,
0001
0000
0000
0000
,
1000
0000
1000
0000
,
1000
0000
0000
0000
,
0100
0000
0000
0000
,
0010
0000
0000
0000
,
0001
0000
0000
0000
,
1000
0000
1000
0000
,
1000
0000
0000
0000
,
0010
0000
0000
0000
,
0100
0000
0000
0000
,
0001
0000
0001
0000
,
0001
0000
0000
0000
,
0010
0000
0000
0000
,
0100
0000
0000
0000
,
1000
0000
1000
0000
,
1000
0000
0000
0000
,
0001
0000
0000
0000
,
1001
0000
0000
0000
;

//---------------dance-single - ----------------
#NOTES:
     dance-single:
     :
     Medium:
     6:
     0.381,0.382,0.022,0.000,0.000:
0000
0000
0000
0000
,
0000
0000
0000
0000
,
0000
0000
0000
0000
,
0000
0000
0000
0000
,
1000
0000
0000
0100
0000
0000
0010
0000
,
0001
0000
0000
0100
0000
0000
0010
0000
,
1000
0000
0000
0001
0000
0000
0010
0000
,
0001
0100
0010
0000
,
1000
0100
0010
0000
,
0001
0100
0010
0000
,
1000
0001
0010
0001
,
0100
0010
1000
0100
,
0010
0000
0001
0000
,
1000
0010
1000
0000
,
0001
0010
0001
0000
,
1000
0100
1000
0001
,
0100
0001
0010
0001
,
0100
0000
0010
0000
,
1000
0100
1000
0000
,
0001
0010
0001
0000
,
0100
0001
0100
0010
,
1000
0100
0010
0000
,
0001
1000
0010
0000
,
1000
0001
0010
0000
,
0001
0100
0010
1000
,
0100
0010
0001
1000
,
0100
1000
0100
0000
,
0010
0001
0010
0000
,
0001
0100
0010
1000
,
0100
0000
0000
0010
0000
0000
0100
0000
,
0010
0001
1000
0000
,
0010
1000
0001
0000
,
0010
0001
0100
0010
,
1000
0100
0001
0100
,
1000
0000
0010
0000
,
0100
0000
0001
0000
,
1000
0100
1000
0100
,
0001
0100
0001
0100
,
1000
0010
1000
0010
,
0001
0010
0001
0010
,
1000
0010
0100
0001
,
1000
0100
0010
0001
,
1000
1000
0010
0010
,
1000
1000
0001
0001
,
0010
0000
0001
0100
,
0001
0000
1000
0100
,
1000
0000
0001
0010
,
0001
1000
1001
0000
,
1000
0010
0100
0000
,
0001
0010
0100
0000
,
1000
0010
1000
0001
,
0010
0001
1000
0100
,
1000
0000
0001
0000
,
0100
0001
0100
0000
,
0010
1000
0010
0000
,
1000
0100
1000
0010
,
0100
0001
0010
0001
,
0100
0000
0010
0000
,
1000
0100
1000
0000
,
0010
0100
0010
0000
,
0100
0001
0010
0001
,
0100
0010
1000
0000
,
0100
0010
0001
0000
,
1000
0010
0100
0000
,
0001
0010
1000
0010
,
0001
0100
0010
1000
,
0100
0010
0001
0000
,
1000
0010
0100
0000
,
0001
0010
0100
1000
,
0001
0000
0000
1000
0000
0000
0001
0000
,
1000
0010
0100
0000
,
0001
0010
0100
0000
,
1000
0010
1000
0001
,
0010
0001
0100
0010
,
1000
0000
0100
0000
,
0010
0000
0001
0000
,
1001
0000
0000
0000
;
