#TITLE:LOVE & PEACE;
#SUBTITLE:;
#ARTIST:sifow;
#TITLETRANSLIT:;
#SUBTITLETRANSLIT:;
#ARTISTTRANSLIT:;
#CREDIT:hooky;
#BANNER:love & peace.png;
#BACKGROUND:LOVE & PEACE-bg.png;
#LYRICSPATH:;
#CDTITLE:;
#MUSIC:Love & Peace.ogg;
#OFFSET:4.630;
#SAMPLESTART:48.300;
#SAMPLELENGTH:17.280;
#SELECTABLE:YES;
#BPMS:0.000=145.000;
#STOPS:;
#BGCHANGES:0.000=LOVE & PEACE.avi=2.000=1=0=0,
6.000=LOVE & PEACE.avi=1.000=0=0=1,
99999=-nosongbg-=1.000=0=0=0 // don't automatically add -songbackground-
;

//---------------dance-single - ----------------
#NOTES:
     dance-single:
     :
     Hard:
     7:
     0.512,0.524,0.360,0.138,0.005: // measure 1
0000
0000
0000
0000
,  // measure 2
0000
0000
0000
0000
,  // measure 3
0000
0000
0000
0000
,  // measure 4
0000
0000
0000
0000
,  // measure 5
0000
0000
0000
0000
,  // measure 6
0000
0000
0000
0000
,  // measure 7
0000
0000
0000
0000
,  // measure 8
0000
0000
0000
0000
,  // measure 9
1000
0100
0000
0100
0000
0100
0000
0010
,  // measure 10
0100
0001
0000
0001
0000
0001
0000
1000
,  // measure 11
0100
1000
0000
1000
0000
1000
0000
0001
,  // measure 12
0100
0010
0000
0010
1000
0001
0000
0100
,  // measure 13
0110
0000
1001
0000
1000
0100
1000
0000
,  // measure 14
0010
0001
0010
0000
0100
0010
0100
0000
,  // measure 15
1100
0000
0011
0000
0010
0001
0100
0000
,  // measure 16
1000
0100
1000
0000
0010
0100
1000
0000
,  // measure 17
1000
0100
1000
0010
0100
0001
1000
0100
,  // measure 18
1000
0000
1000
0000
0010
0001
0010
0000
,  // measure 19
0100
0010
1000
0100
1000
0010
0001
0100
,  // measure 20
0010
0000
1000
0000
0010
1000
0010
0000
,  // measure 21
1000
0100
0000
0001
0010
0000
0100
0010
,  // measure 22
0000
0001
1000
0000
1000
0010
0100
0010
,  // measure 23
0001
0001
0010
0000
1000
1000
0100
0000
,  // measure 24
0010
0000
0000
0000
0100
0000
0010
0000
0000
0010
0000
0000
0100
0000
0000
0000
,  // measure 25
1000
0100
0100
0010
0000
0001
0000
0010
,  // measure 26
0000
0100
0000
1000
0000
0100
1000
0100
,  // measure 27
0000
0010
0100
0000
0000
1000
0000
0100
,  // measure 28
0010
0000
1000
0000
0010
0001
0010
0000
,  // measure 29
1000
0100
1000
0010
0100
0000
0001
0010
,  // measure 30
0000
0100
0000
0000
1000
0100
1000
0100
,  // measure 31
0010
0100
0010
0100
0010
0001
0010
0001
,  // measure 32
0010
0100
0010
0100
0010
1000
0010
1000
,  // measure 33
0001
1001
0220
0330
,  // measure 34
1100
0000
0011
0000
0100
0010
1000
0100
,  // measure 35
0010
0200
0000
0301
1000
0100
1000
0100
,  // measure 36
0011
0000
0101
0000
0010
0001
0100
0010
,  // measure 37
0001
1000
0000
0001
1000
0000
0220
0330
,  // measure 38
1001
0000
1001
0000
0100
0010
1000
0100
,  // measure 39
0010
0200
0000
0310
0001
0010
0001
0010
,  // measure 40
0110
0000
0110
0000
0010
0001
0100
1000
,  // measure 41
0010
0100
0000
0010
0100
0000
0220
0330
,  // measure 42
1010
0000
0101
0000
1000
0100
0010
1000
,  // measure 43
0001
0020
0000
0130
1000
0010
1000
0010
,  // measure 44
0101
0000
0101
0000
0100
0010
1000
0100
,  // measure 45
0001
0100
0000
1000
0010
0000
2200
3300
,  // measure 46
0110
0000
0101
0000
1000
0100
0010
0100
,  // measure 47
0001
0100
1000
0010
0100
0010
0100
0010
,  // measure 48
1100
0000
0011
0000
1000
0100
0010
0001
,  // measure 49
0010
0100
0000
0100
0010
0000
0220
0330
,  // measure 50
1100
0000
0101
0000
0000
0100
1000
0000
,  // measure 51
0010
0001
0010
0000
0110
0000
1001
0000
,  // measure 52
0011
0000
1010
0000
0001
0100
0000
0000
,  // measure 53
0010
0100
0010
0000
1000
0011
0000
0011
,  // measure 54
0000
0000
0110
0000
1000
0100
0000
0000
,  // measure 55
0010
0001
0010
0000
0110
0000
1001
0000
,  // measure 56
0100
0000
0011
0000
1000
0100
0000
0000
,  // measure 57
0010
0001
0010
0000
0100
0010
0100
0000
,  // measure 58
1000
0100
1000
0000
0010
0001
0010
0000
,  // measure 59
0100
0010
0100
0010
1000
0100
1000
0001
,  // measure 60
0100
0010
0100
0000
0010
0001
0010
0000
,  // measure 61
1000
0100
1000
0010
0100
0001
0010
0100
,  // measure 62
0010
0001
0010
0000
1000
0100
1000
0000
,  // measure 63
0010
0100
0001
0010
1000
0100
0010
0100
,  // measure 64
0001
0100
0001
0000
0001
0010
0001
0000
,  // measure 65
0010
1000
0100
1000
0001
0010
0100
0010
,  // measure 66
2002
0000
0000
0000
,  // measure 67
0000
0000
0000
3003
;

//---------------dance-single - Copied from----------------
#NOTES:
     dance-single:
     Copied from:
     Medium:
     6:
     0.289,0.370,0.055,0.037,0.000:
0000
0000
0000
0000
,
0000
0000
0000
0000
,
0000
0000
0000
0000
,
0000
0000
0000
0000
,
0000
0000
0000
0000
,
0000
0000
0000
0000
,
0000
0000
0000
0000
,
0000
0000
0000
0000
,
1000
1000
1000
1000
,
0001
0001
0001
0001
,
0100
0100
0100
0100
,
0010
0010
0010
0010
,
1000
0001
1000
0010
,
0100
0000
0010
0000
1000
0010
1000
0000
,
0001
0100
0010
0001
,
0010
0000
0001
0000
0100
0001
0100
0000
,
1000
1000
0010
0100
,
0100
0001
1000
0010
,
1000
1000
1000
0000
0001
0000
0100
0000
,
0010
0001
1000
0001
,
0001
0000
0000
1000
0000
0000
0001
0000
,
0000
1000
0000
0000
0010
0000
0100
0000
,
0010
1000
0100
0010
,
0100
0001
1000
1000
,
0010
0100
0001
0001
,
1000
0100
0010
1000
,
0100
0010
0001
1000
,
0001
0000
0100
0100
,
0010
0010
1000
0100
,
1000
0010
0001
0100
,
0001
0000
0001
0001
,
1000
0000
1000
1000
,
0010
0110
2002
3003
,
0010
0010
1000
0001
,
1000
0000
0010
0000
0100
0010
0100
0000
,
0010
1000
0001
0001
,
1000
0000
0000
1000
0000
0000
1000
0000
,
0010
0010
0100
0001
,
1000
0001
0010
0100
,
0001
1000
0100
1000
,
0010
1000
0000
0010
1000
0000
0001
0000
,
0100
0010
1000
0100
,
1000
0000
0001
0000
0010
1000
0010
0000
,
0001
0001
0100
0010
,
1000
0001
0000
1000
0001
0000
0110
0000
,
1001
0010
1000
0001
,
0100
1000
0001
0001
,
1000
0010
0100
0001
,
1000
0010
0000
1000
0010
0000
1001
0000
,
0000
0000
0010
0000
0000
0100
0000
0000
,
0001
0000
1000
0000
,
0000
0000
0100
0000
0000
1000
0000
0000
,
0001
0000
0010
0000
,
0000
0000
0100
0000
0000
0001
0000
0000
,
0100
0000
1000
0000
,
0000
0000
0010
0000
0000
0100
0000
0000
,
1000
0000
0100
0000
,
0001
0000
0001
0001
,
1000
0000
0010
0010
,
0100
0000
0100
0100
,
0010
0010
1000
1000
,
0100
0000
0100
0001
,
0100
0010
1000
0100
,
0010
0000
0100
0100
,
0001
1000
0010
0100
,
2020
0000
0000
0000
,
0000
0000
0000
3030
;

//---------------dance-single - Copied from----------------
#NOTES:
     dance-single:
     Copied from:
     Easy:
     4:
     0.215,0.339,0.028,0.092,0.000:
0000
0000
0000
0000
,
0000
0000
0000
0000
,
0000
0000
0000
0000
,
0000
0000
0000
0000
,
0000
0000
0000
0000
,
0000
0000
0000
0000
,
0000
0000
0000
0000
,
0000
0000
0000
0000
,
2000
0000
0000
3000
,
0002
0000
0000
0003
,
0200
0000
0000
0300
,
0020
0000
0000
0030
,
1000
1000
1000
0000
,
0001
0001
0001
0000
,
0100
0100
0100
0000
,
0010
0010
0010
0000
,
1000
0000
0010
1000
,
0001
0000
0100
0100
,
0010
1000
0100
0000
,
0010
0000
0010
0010
,
0100
0000
0100
0000
,
0001
0000
1000
1000
,
0010
0100
0001
1000
,
0100
0000
0100
0000
,
0010
0010
0010
0000
,
0100
0100
0100
0000
,
1000
0000
1000
0000
,
0001
0000
0001
0000
,
0100
0010
0100
0001
,
0100
1000
0100
0010
,
0100
0000
0100
0100
,
0001
0000
1000
1000
,
0100
0110
2002
3003
,
1000
1000
0010
0000
,
0001
0001
0100
0100
,
0010
0010
1000
0000
,
1000
0000
1000
0000
,
1000
0001
0100
0000
,
0010
0000
0010
1000
,
0001
0000
0100
0000
,
0010
0000
0010
0000
,
1000
0100
1000
0000
,
0001
0000
0100
0100
,
0010
0000
0010
0000
,
1000
0000
1000
0000
,
0001
1000
0001
0000
,
0100
0000
0010
0010
,
0100
0000
0100
0001
,
1000
0000
1000
0001
,
1000
0000
1000
0000
,
0001
0000
0001
0000
,
1000
0000
1000
0000
,
0001
0000
0001
0000
,
0100
0000
0100
0000
,
0010
0000
0010
0000
,
0100
0000
0100
0000
,
0010
0000
0010
0000
,
1000
1000
1000
0000
,
0001
0001
0100
0000
,
0010
0010
1000
0000
,
2000
3000
0002
0003
,
0100
0100
0010
0000
,
1000
1000
0100
0000
,
0001
0001
0010
0000
,
0100
0000
0010
1000
,
2002
0000
0000
0000
,
0000
0000
0000
3003
;

//---------------dance-single - Copied from Copied f----------------
#NOTES:
     dance-single:
     Copied from Copied f:
     Beginner:
     1:
     0.134,0.185,0.018,0.018,0.000:
0000
0000
0000
0000
,
0000
0000
0000
0000
,
0000
0000
0000
0000
,
0000
0000
0000
0000
,
0000
0000
0000
0000
,
0000
0000
0000
0000
,
0000
0000
0000
0000
,
0000
0000
0000
0000
,
1000
0000
0000
0000
,
0000
0000
0000
0000
,
0001
0000
0000
0000
,
0000
0000
0000
0000
,
1000
0000
1000
0000
,
0001
0000
0001
0000
,
0100
0000
0100
0000
,
0010
0000
0010
0000
,
1000
0000
0000
0000
,
0001
0000
0000
0000
,
0010
0000
0000
0000
,
0100
0000
0000
0000
,
0100
0000
0100
0000
,
0001
0000
1000
0000
,
0010
0000
0001
0000
,
0100
0000
0000
0000
,
0010
0000
0000
0000
,
0100
0000
0000
0000
,
1000
0000
0000
0000
,
0001
0000
0000
0000
,
0100
0000
0100
0000
,
1000
0000
1000
0000
,
0010
0000
0000
0000
,
0001
0000
0000
0000
,
0100
0000
1001
0000
,
1000
0000
0010
0000
,
0001
0000
0100
0000
,
0010
0000
1000
0000
,
0001
0000
0001
0000
,
1000
0000
0100
0000
,
0010
0000
0010
0000
,
0001
0000
0100
0000
,
0010
0000
0010
0000
,
1000
0000
1000
0000
,
0001
0000
0100
0000
,
0010
0000
0010
0000
,
1000
0000
1000
0000
,
0001
0000
0001
0000
,
0100
0000
0010
0000
,
0100
0000
0100
0000
,
1000
0000
1000
0000
,
1000
0000
1000
0000
,
0001
0000
0001
0000
,
1000
0000
1000
0000
,
0001
0000
0001
0000
,
0100
0000
0100
0000
,
0010
0000
0010
0000
,
0100
0000
0100
0000
,
0010
0000
0010
0000
,
1000
0000
1000
0000
,
0001
0000
0100
0000
,
0010
0000
1000
0000
,
1000
0000
0001
0000
,
0100
0000
0010
0000
,
1000
0000
0100
0000
,
0001
0000
0010
0000
,
0100
0000
0010
0000
,
2002
0000
0000
0000
,
0000
0000
0000
3003
;
