#TITLE:Dream of Butterfly;
#SUBTITLE:;
#ARTIST:Shoji Meguro feat. Yumi Kawamura;
#TITLETRANSLIT:;
#SUBTITLETRANSLIT:;
#ARTISTTRANSLIT:;
#GENRE:Videogame;
#CREDIT:AznPunk07/Frozen_Heat/GuardianFrozen;
#MENUCOLOR:#612CB7;
#METERTYPE:DDR;
#BANNER:[The Letter S] - Dream of Butterfly.png;
#BACKGROUND:[The Letter S] - Dream of Butterfly-bg.png;
#LYRICSPATH:;
#CDTITLE:cdtitle.png;
#MUSIC:[The Letter S] - Dream of Butterfly.mp3;
#OFFSET:-0.422;
#SAMPLESTART:48.400;
#SAMPLELENGTH:21.000;
#SELECTABLE:YES;
#LISTSORT:;
#BPMS:0.000=160.000,288.000=156.000;
#STOPS:;
#BGCHANGES:0.000=[The Letter S] - Dream of Butterfly.avi=2.000=0=0=1,
0.500=[The Letter S] - Dream of Butterfly.avi=1.800=0=0=1,
1.000=[The Letter S] - Dream of Butterfly.avi=1.000=0=0=1,
99999=-nosongbg-=1.000=0=0=0 // don't automatically add -songbackground-
;
#ATTACKS:;

//---------------dance-single - ----------------
#NOTES:
     dance-single:
     :
     Hard:
     7:
     0.470,0.504,0.324,0.340,0.000: // measure 1
0000
0000
0000
0000
,  // measure 2
0000
0000
0000
0000
,  // measure 3
0000
0000
0000
0000
,  // measure 4
0000
0000
0000
0000
,  // measure 5
1000
0000
1010
0000
0001
0000
0010
0001
,  // measure 6
0000
0100
0000
0010
0000
1000
0010
1000
,  // measure 7
0100
0010
0001
0000
0100
0010
0000
0100
,  // measure 8
0000
0001
1000
0100
0000
0010
0100
0000
,  // measure 9
1000
0000
1100
0000
0110
0000
0001
0010
,  // measure 10
0000
0011
0000
0101
0000
0010
1000
0000
,  // measure 11
0100
0000
1100
0000
0010
0100
0000
1000
,  // measure 12
0000
0001
0100
0010
0000
1000
0100
0000
,  // measure 13
0011
0000
0100
0000
0010
0000
1000
0001
,  // measure 14
0000
0101
0000
1100
0000
1000
0100
0010
,  // measure 15
0001
0000
0001
0100
0000
0100
0010
0000
,  // measure 16
1010
0000
0100
0001
0010
0000
0110
0000
,  // measure 17
0200
0000
0000
2300
0000
0000
3002
0000
,  // measure 18
0003
0000
0100
0000
0010
1000
0010
0000
,  // measure 19
0200
0000
0000
0302
0000
0000
0023
0000
,  // measure 20
0000
0030
0100
0010
,  // measure 21
0001
0000
0001
0100
0000
0100
0020
0000
,  // measure 22
0000
0000
0030
0000
1000
0100
1000
0000
,  // measure 23
0010
0000
0100
0001
0000
0001
2000
0000
,  // measure 24
0000
0000
3200
0300
,  // measure 25
0000
1000
0001
1000
0100
0000
0100
0000
,  // measure 26
0020
0000
0000
0032
0000
0000
1003
0000
,  // measure 27
0001
0100
1000
0100
0001
0100
0010
0000
,  // measure 28
1000
0100
0010
0100
1000
0000
0001
0000
,  // measure 29
0011
0000
0100
0010
,  // measure 30
1000
0000
0001
0000
0010
0001
1000
0000
,  // measure 31
0100
0010
0001
1000
,  // measure 32
1001
0000
0100
0010
,  // measure 33
0100
1000
0001
0010
0100
0000
0010
0000
,  // measure 34
0001
0101
1010
0100
,  // measure 35
1001
0000
0000
0101
0000
0000
0010
1000
,  // measure 36
0010
0100
0001
0010
0100
0000
0010
0000
,  // measure 37
0011
0000
0001
0010
,  // measure 38
0100
0000
1000
0000
0010
1000
0001
0000
,  // measure 39
0100
0001
1000
0001
,  // measure 40
0010
0000
0000
0011
0000
0000
1100
0000
,  // measure 41
0001
0000
0000
0000
0000
0000
0000
0010
,  // measure 42
0010
0000
0000
0000
0000
0000
0000
0100
,  // measure 43
0100
0000
0000
0000
0000
0000
0000
0001
,  // measure 44
0001
0000
0000
0000
,  // measure 45
0010
0000
0000
0000
0000
0000
0000
1000
,  // measure 46
1000
0000
0000
0000
0000
0000
0000
0010
,  // measure 47
1010
0000
0000
0101
0000
0000
1100
0000
,  // measure 48
0011
0000
1001
0000
,  // measure 49
1000
0100
0020
0000
0032
0000
0103
0020
,  // measure 50
0000
2030
0100
3000
0010
1000
0010
0200
,  // measure 51
0000
0301
0020
0000
0230
0000
1300
0002
,  // measure 52
0010
0003
1000
0200
0000
0320
0000
0032
,  // measure 53
0000
2003
0000
3010
0000
1000
0001
1000
,  // measure 54
0100
0010
0100
1000
0001
0000
0100
0000
,  // measure 55
0110
0000
0000
1001
0000
0010
1000
0010
,  // measure 56
0000
0101
0000
1100
0000
0010
0000
1000
,  // measure 57
0100
0010
0002
0000
2003
0000
3100
0020
,  // measure 58
0000
0032
0100
0003
1000
0010
1000
0020
,  // measure 59
0000
0130
2000
0000
3002
0000
0023
0100
,  // measure 60
0030
1000
0100
0000
1100
0000
0010
0001
,  // measure 61
0000
0001
0100
0010
1000
0001
1000
0100
,  // measure 62
0010
0100
1000
0000
1100
0000
0100
0000
,  // measure 63
0011
0000
0001
0100
0000
1000
0100
0010
,  // measure 64
0000
0001
1000
0001
0100
0010
1000
0000
,  // measure 65
0010
1000
0020
0000
0230
0000
2300
0001
,  // measure 66
0000
3100
0020
0000
1030
0001
1000
0200
,  // measure 67
0000
0301
2000
0000
3020
0000
0032
0100
,  // measure 68
0000
0013
0200
1000
0000
0320
0000
0001
,  // measure 69
0000
0130
1000
0100
0010
0001
0100
0001
,  // measure 70
0100
0010
1000
0000
0001
0000
0010
0000
,  // measure 71
0011
0000
0000
1100
0000
0001
1000
0001
,  // measure 72
0000
0100
0000
0010
1000
0010
0100
0001
,  // measure 73
0010
0100
0100
0000
1100
0000
0000
0010
,  // measure 74
0010
0011
0000
0000
,  // measure 75
0000
0001
0001
0000
0101
0000
0000
1000
,  // measure 76
1000
0000
1010
0000
0100
0000
0010
1000
,  // measure 77
0000
0001
0100
0001
0000
1000
0100
0010
,  // measure 78
0001
0000
1010
0000
,  // measure 79
0011
0000
0000
0220
0000
0000
0000
0000
,  // measure 80
0000
0000
0000
0000
0000
0330
0000
0000
;

//---------------dance-single - ----------------
#NOTES:
     dance-single:
     :
     Medium:
     5:
     0.294,0.347,0.135,0.047,0.000:
0000
0000
0000
0000
,
0000
0000
0000
0000
,
0000
0000
0000
0000
,
0000
0000
0000
0000
,
1000
0000
0001
0000
0000
1000
0001
0000
,
0100
0000
0010
0000
0000
0100
0010
0000
,
1000
0000
0001
0000
0000
1000
0001
0000
,
0010
0000
0000
0000
,
1000
0100
0001
0100
,
1000
0100
0001
0100
,
1000
1000
0001
0001
,
0010
0001
0100
0000
0100
0000
0000
0000
,
0001
0100
1000
0100
,
0001
0000
0100
0000
1000
0000
0100
1000
,
0010
0000
0000
0100
0000
0000
0001
0000
,
0000
0000
1001
0010
,
1000
0000
0000
0100
0000
0000
1000
0000
,
0000
0000
0001
0100
,
0010
0000
0000
0100
0000
0000
0001
0000
,
0000
0000
1000
0100
,
0010
0000
0000
0001
0000
0000
1000
0000
,
0000
0000
0001
1000
,
0001
0000
0000
0100
0000
0000
0010
0000
,
0000
0000
1001
0000
,
0000
1000
0100
0000
,
0010
0001
1000
0001
,
0100
0100
0010
0010
,
1000
0000
0001
0000
0010
0001
0100
0000
,
0101
0000
0010
0010
,
1000
0100
0010
0000
,
0100
1000
0010
0000
1000
0000
0001
0000
,
0100
0000
0010
0000
,
0000
1000
0001
0001
,
0010
0001
0100
0000
,
0010
0000
0000
1000
0000
0000
0100
0000
,
0010
0100
1100
0011
,
1001
0000
0001
0100
,
0010
0000
1000
0000
0001
1000
0001
0000
,
0010
0010
0100
1000
,
0100
0000
0000
0010
0000
0000
0001
0000
,
1000
0000
0010
0100
,
0001
0000
0010
0000
,
0100
0000
1000
0000
,
0010
0100
0001
1000
,
0100
0000
0000
0010
0000
0000
0100
0000
,
1000
0000
0000
0001
,
0101
0000
0000
1001
0000
0000
1100
0000
,
1001
0000
0010
0000
,
1000
0100
0010
0000
0001
0000
0000
0100
,
0000
0010
1000
0000
0001
0000
0100
0000
,
0010
1000
0001
0000
0010
0000
0000
0100
,
0000
0010
0001
0000
1000
0000
0010
0000
,
0100
0000
0200
0000
0301
0000
1000
0010
,
0100
0001
1000
0100
,
0010
0000
0000
0001
0000
1000
0000
0010
,
0000
0100
0000
0001
0000
1000
0000
0000
,
0100
0000
0010
0000
0001
0000
0000
1000
,
0000
0010
0100
0000
0001
0000
1000
0000
,
0001
0000
0010
0000
0100
0000
0000
0010
,
0000
0001
0100
0000
0010
0000
1000
0000
,
0100
0000
0001
0010
,
0100
0000
0010
0000
,
1001
0000
0000
0220
0000
0000
0000
0000
,
0000
0000
0000
0330
,
1000
0000
0100
0000
0010
0000
0000
0100
,
0000
1000
0000
0001
0000
0000
1000
0000
,
0010
0000
0100
0000
0001
0000
0000
0010
,
0000
0001
0000
1000
0000
0000
0100
0000
,
0010
0001
1000
0010
,
0100
0000
0010
0000
,
1000
0000
0000
2002
0000
0000
0000
0000
,
0000
0000
3003
0000
,
0001
0100
0101
0000
,
1000
1100
0000
0000
,
0000
0001
0011
0000
,
1000
1010
0100
0010
,
0001
0000
0000
0000
1000
0000
0010
0100
,
0010
0000
1000
0000
,
0100
0000
0000
0200
0000
0000
0000
0000
,
0000
0000
0000
0000
0000
0300
0000
0000
;

//---------------dance-single - ----------------
#NOTES:
     dance-single:
     :
     Easy:
     4:
     0.251,0.280,0.047,0.047,0.000:
0000
0000
0000
0000
,
0000
0000
0000
0000
,
0000
0000
0000
0000
,
0000
0000
0000
0000
,
1000
0100
0000
0000
,
0001
0100
0000
0000
,
0010
0100
0000
0000
,
1001
0000
0000
0000
,
1000
0100
0010
0000
,
0001
1000
0010
0000
,
0100
0100
0001
1000
,
0010
0010
0000
0000
,
1000
0001
0010
0000
,
0001
1000
0100
0010
,
0001
0000
1000
0000
,
1001
0000
0010
0010
,
0020
0000
0000
0030
,
0000
0000
0100
0100
,
0200
0000
0000
0300
,
0000
0000
1001
1000
,
2000
0000
0000
3000
,
0000
0000
0001
0001
,
0002
0000
0000
0003
,
0000
0000
0110
0000
,
0000
0001
0010
0001
,
1000
0000
0010
1000
,
0100
0100
1000
1000
,
0001
0001
0010
0010
,
0010
0000
0001
1000
,
0010
0010
0100
0000
,
0001
0001
1000
0100
,
0100
0000
0010
0000
,
0000
0100
0100
1000
,
0010
0010
0100
0000
,
0001
0000
1000
0000
,
0100
0100
0010
0001
,
1000
0000
0010
1000
,
1000
0100
0000
0000
,
0010
0001
0001
1000
,
0010
0000
0100
0001
,
0100
0000
0010
1000
,
0100
0000
0010
0001
,
1000
0000
0010
0000
,
0100
0000
0001
0010
,
0100
0000
0010
0001
,
1000
0000
0000
0010
,
0100
0000
0001
0000
,
1001
0000
0000
0000
,
1000
0100
0010
0001
,
0100
0010
1000
0100
,
1000
0100
0010
0001
,
0100
0010
1000
0001
,
0010
1000
0010
0100
,
0001
1000
0100
0010
,
0001
0000
1000
0000
,
0010
0010
0100
0000
,
0001
0100
1000
0100
,
0010
0001
1000
0010
,
0100
0001
1000
0100
,
1000
0001
0100
0010
,
1000
0000
0001
0010
,
0100
0000
0010
0000
,
0001
0000
1000
0000
,
0010
0010
0100
0000
,
0001
0010
0100
0010
,
0001
1000
0010
0100
,
0010
1000
0001
0010
,
0001
1000
0010
0100
,
0010
0000
1000
0000
,
0001
0000
0010
0001
,
1000
0000
0100
0000
,
1000
0100
0010
0001
,
1000
1000
1000
0000
,
0001
0001
0000
0000
,
0010
0010
0010
0000
,
0100
0100
0010
0000
,
0001
0000
1000
0010
,
0100
0000
0001
0000
,
2002
0000
3003
0000
;

//---------------dance-single - ----------------
#NOTES:
     dance-single:
     :
     Beginner:
     2:
     0.141,0.247,0.071,0.000,0.000:
0000
0000
0000
0000
,
0000
0000
0000
0000
,
0000
0000
0000
0000
,
0000
0000
0000
0000
,
0010
0000
0000
0000
,
0100
0000
0000
0000
,
0001
0000
0000
0000
,
1000
0000
0000
0000
,
0000
0000
0001
0000
,
0010
0000
0100
0000
,
0010
0000
0001
0000
,
1000
0000
0000
0000
,
0000
0000
0010
0000
,
1000
0000
0100
0000
,
0010
0000
0100
0000
,
1000
0000
1001
0000
,
0010
0000
0000
0000
,
0000
0000
0000
0000
,
0100
0000
0000
0000
,
0000
0000
0000
0000
,
0001
0000
0000
0000
,
0000
0000
0000
0000
,
1000
0000
0000
0000
,
0000
0000
0000
0000
,
0000
0001
0001
0000
,
0100
0000
0010
0000
,
0000
1000
1000
0000
,
0100
0000
0010
0000
,
0000
0000
1000
1000
,
1000
0000
0000
0000
,
0001
0001
0001
0000
,
1001
0000
0000
0000
,
0000
0010
0010
0000
,
0100
0000
0001
0000
,
0010
0000
0100
0000
,
1000
0000
0100
0100
,
0100
0000
0000
0000
,
0010
0010
0000
0000
,
0001
0000
1000
0000
,
1001
0000
1001
0000
,
0010
0000
0000
0000
,
0100
0000
0000
0000
,
0001
0000
0000
0000
,
1000
0000
0000
0000
,
0100
0000
0000
0000
,
0100
0000
0000
0000
,
0010
0000
0010
0010
,
0010
0000
0000
0000
,
0001
0001
0001
0000
,
0000
0000
0000
0000
,
1000
1000
1000
0000
,
0010
0000
0100
0000
,
1000
0000
0001
0001
,
0001
0000
1000
0000
,
0110
0000
0000
0000
,
0000
0000
0000
0000
,
0001
0000
1000
0000
,
0100
0100
0000
0000
,
0010
0000
0001
0000
,
1000
1000
0000
0000
,
0010
0000
0100
0000
,
0001
0000
0010
0000
,
1001
0000
0000
0000
,
0000
0000
0000
0000
,
0001
0000
0100
0000
,
0010
0000
1000
1000
,
1000
0000
0100
0000
,
0010
0000
0001
0001
,
0001
0000
0100
0000
,
0010
0000
1000
0000
,
1001
0000
0000
0000
,
0000
0000
0000
0000
,
0010
0010
0000
0000
,
0100
0000
0000
0000
,
0001
0001
0000
0000
,
1000
0000
0000
0000
,
0100
0000
0010
0010
,
0010
0000
1001
0000
,
1001
0000
0000
0000
;
