#TITLE:Destination;
#SUBTITLE:;
#ARTIST:S.H.K;
#TITLETRANSLIT:;
#SUBTITLETRANSLIT:;
#ARTISTTRANSLIT:;
#GENRE:;
#CREDIT:Telperion;
#BANNER:[The Letter S] Destination.png;
#BACKGROUND:[The Letter S] Destination-bg.png;
#LYRICSPATH:;
#CDTITLE:;
#MUSIC:Destination.ogg;
#OFFSET:-0.187583;
#SAMPLESTART:32.208000;
#SAMPLELENGTH:25.580000;
#SELECTABLE:YES;
#DISPLAYBPM:150.000000;
#BPMS:0.000000=150.000000,159.000000=18.750000,161.000000=37.500000,162.500000=75.000000,163.000000=300.000000,165.000000=150.000000;
#STOPS:159.000000=0.400002
,161.000000=0.400002
,161.250000=0.400002
,161.500000=0.399994
,161.750000=0.400002
,162.000000=0.200005
,162.125000=0.199997
,162.250000=0.199997
,162.375000=0.200005
,162.500000=0.099998
,162.625000=0.099998
,162.750000=0.100006
,162.875000=0.099998
,164.979172=0.399994
;
#DELAYS:;
#TIMESIGNATURES:0.000000=4=4
;
#BGCHANGES:0.000=[The Letter S] - Destination-bg.png=1.000=0=0=1=====,
0.021=[The Letter S] - Destination.avi=1.000=0=0=1=====,
265.000=[The Letter S] - Destination-bg.png=1.000=0=0=1=====,
99999=-nosongbg-=1.000=0=0=0 // don't automatically add -songbackground-
;
#KEYSOUNDS:;
#ATTACKS:;

//---------------dance-single - Telperion----------------
#NOTES:
     dance-single:
     Telperion:
     Hard:
     9:
     0.549,0.498,0.280,0.229,0.157,393.000,33.000,27.000,13.000,0.000,0.000,0.000,0.549,0.498,0.280,0.229,0.157,393.000,33.000,27.000,13.000,0.000,0.000,0.000:
0000
0000
0000
0000
,
0000
0000
0000
0000
,
0000
0000
0000
0000
,
2002
0000
0000
3003
,
0001
0000
0000
0010
0000
0000
0100
0000
0000
0000
1000
0000
0001
1000
0000
0000
,
0010
0000
0000
0010
0000
0000
0100
0000
0001
0000
0000
0100
0000
0000
0010
0000
,
1000
0000
0000
0100
0000
0000
0010
0000
0000
0000
0001
0000
0010
0100
0000
0000
,
0001
0000
0000
0001
0000
0000
0100
0000
1000
0000
0000
0100
0000
0000
0010
0000
,
0001
0000
0000
1000
0000
0000
0001
0000
0000
0000
0001
0000
0100
0010
0000
0000
,
0001
0000
0000
0001
0000
0000
0010
0000
1000
0000
0000
0100
0000
0000
0010
0000
,
0001
0000
0000
1000
0000
0000
0001
0000
0000
0000
0100
0000
0010
0100
0000
0000
,
1000
0100
0010
0100
0001
1000
0100
0000
,
0011
0000
0010
0100
0002
0103
0020
0130
,
1000
0001
0100
0000
0001
0010
0100
0000
,
0110
0000
1000
0010
0002
0013
0200
0310
,
1000
0001
0010
0000
0100
0010
0001
0000
,
1001
0000
1000
0100
0020
0130
1000
0000
,
0001
0100
0110
0000
1000
0100
0011
0000
,
1001
0000
0001
0100
0020
0130
0001
0000
,
1000
0000
0100
0000
0010
0000
0001
0000
0100
0000
0010
0000
1000
0010
0100
0001
,
0100
0000
1001
1000
0100
0010
0001
0100
,
1000
0100
0010
0001
1000
0100
0010
0001
,
1000
0100
0010
0100
0001
1000
0200
0300
,
0010
0100
1001
0000
0100
0010
1001
0000
,
0010
0000
1001
0001
0100
0010
1000
0100
,
0001
0100
0010
1000
0001
0100
0010
1000
,
0001
0100
1000
0020
0030
0010
0100
0000
,
2002
0000
0000
3003
,
0001
0010
0100
0010
0001
1000
0001
0000
,
0100
0000
0010
1000
0010
0000
0100
0001
0100
0000
0010
1000
0001
0000
0000
0000
,
0010
0000
0001
0010
0001
0000
1000
0100
1000
0000
0001
1000
0010
0000
0000
0000
,
0100
0010
1000
0010
0100
0001
0010
0000
,
0100
0010
0001
0100
0100
0010
1000
0000
,
0001
0000
0010
0100
0010
0000
0001
1000
0001
0000
0100
0010
0100
0000
0000
0000
,
0010
1000
0010
1000
0010
0000
0200
0000
0000
0000
0000
0000
0300
0000
0000
0000
,
1001
0011
1100
1010
,
0101
0100
2000
3000
1100
0100
0002
0003
,
0011
0001
0100
0010
1000
0010
0100
0000
,
0001
0010
1020
0030
1000
0010
0021
0030
,
0001
0000
0000
0000
0000
0000
0000
0000
0000
0000
0000
0000
0000
0000
0000
0000
0000
0000
0000
0000
0000
0000
0000
0000
1000
0000
0000
0000
0000
0000
0000
0000
0000
0000
0000
0000
0000
0000
0000
0000
0000
0000
0000
0000
0000
0000
0000
0000
0001
0000
0000
0000
0000
0000
0000
0000
0000
0000
0000
0000
0000
0000
0000
0000
0000
0000
0000
0000
0000
0000
0000
0000
0100
0000
0000
0000
0000
0000
0000
0000
0000
0000
0000
0000
0000
0000
0000
0000
0000
0000
0000
0000
0000
0000
0000
0000
0020
0000
0000
0000
0000
0000
0000
0000
0000
0000
0000
0000
0000
0000
0000
0000
0000
0000
0000
0000
0000
0000
0000
0000
0000
0000
0000
0000
0000
0000
0000
0000
0000
0000
0000
0000
0000
0000
0000
0000
0000
0000
0000
0000
0000
0000
0000
0000
0M00
0030
0000
0000
0000
0000
0000
0000
0000
0000
0000
0000
0000
0000
0000
0000
0000
0000
0000
0000
0000
0000
0000
0000
0M00
0000
0000
0000
0000
0000
0000
0000
0000
0000
0000
0000
0000
0000
0000
0000
0000
0000
0000
0000
0000
0000
0000
0000
,
0M00
0M00
0M00
0M00
0M00
0M00
0M00
0M00
,
0M00
0M00
1M01
1000
0001
0010
0100
1000
,
0001
0010
1000
0010
0100
0001
1000
0010
,
0100
0001
0100
0010
0001
2000
0000
0000
,
3010
0000
1000
0001
0011
0000
0100
1000
,
1010
0000
0100
0010
1000
0001
0010
0001
,
0100
0010
0001
0010
0100
1000
0001
0010
,
0100
1000
0100
0010
1000
0002
0000
0000
,
0013
0220
0000
0000
,
0330
0000
0110
0000
0100
0100
0010
0001
,
1000
0000
0000
0000
0010
0000
1000
0010
1000
0000
0001
0100
0001
0000
0010
0001
,
1000
0000
0010
0100
1000
0100
0001
0010
,
0100
0000
0010
0100
0001
0100
0010
0001
,
1000
0000
1010
0000
0100
0100
0001
0010
,
0100
0000
0000
0000
0010
0000
0001
0010
0001
0000
1000
0100
1000
0000
0010
0100
,
0001
0000
0000
0000
0010
0001
0010
0100
1000
0000
0020
0000
0000
0000
0000
0000
,
0130
2002
0000
0000
,
3003
0000
0000
0000
0001
0000
0100
0000
0010
0000
1000
0010
1000
0000
0100
0000
,
0010
0001
0000
0001
0010
0100
0001
0100
,
0020
0000
0030
0000
0001
0000
0100
0000
0010
0000
0100
0001
0100
0000
0010
0000
,
0100
1000
0000
1000
0100
0010
1000
0000
,
1000
0001
0010
0000
0110
0000
1000
0001
,
0100
0110
0000
0010
1000
0001
0010
0100
,
1001
1000
0001
0000
0110
0000
1000
0100
,
0011
0100
2000
0000
0000
0000
0000
0000
,
0000
3001
0000
0000
;

//---------------dance-double - Telperion----------------
#NOTES:
     dance-double:
     Telperion:
     Hard:
     9:
     0.541,0.554,0.271,0.280,0.123,381.000,32.000,33.000,26.000,0.000,0.000,0.000,0.541,0.554,0.271,0.280,0.123,381.000,32.000,33.000,26.000,0.000,0.000,0.000:
00000000
00000000
00000000
00000000
,
00000000
00000000
00000000
00000000
,
00000000
00000000
00000000
00000000
,
00022000
00000000
00000000
00033000
,
00001000
00000000
00000000
00010000
00000000
00000000
00100000
00000000
00000000
00000000
10000000
00000000
00000000
01000000
00000000
00000000
,
00010000
00000000
00000000
01000000
00000000
00000000
10000000
00000000
00010000
00000000
00000000
01000000
00000000
00000000
10000000
00000000
,
01000000
00000000
00000000
00010000
00000000
00000000
00100000
00000000
00000000
00000000
01000000
00000000
00000000
00010000
00000000
00000000
,
00001000
00000000
00000000
00000010
00000000
00000000
00000001
00000000
00001000
00000000
00000000
00000010
00000000
00000000
00000001
00000000
,
00001000
00000000
00000000
00000100
00000000
00000000
00000010
00000000
00000000
00000000
00000100
00000000
00000000
00001000
00000000
00000000
,
00010000
00000000
00000000
00100000
00000000
00000000
10000000
00000000
00010000
00000000
00000000
00100000
00000000
00000000
01000000
00000000
,
10000000
00000000
00000000
01000000
00000000
00000000
00010000
00000000
00000000
00000000
00001000
00000000
00000000
00010000
00000000
00000000
,
01000000
10000000
01000000
00010000
00001000
00100000
00001000
00000010
,
00000001
00000000
00000000
00000000
00001000
00000000
00000100
00000000
00000020
00000030
00001000
00000000
00020000
00030000
00001000
00000000
,
00000200
00000300
00001000
00000000
00010000
00000000
00000100
00000000
00000020
00000030
00001000
00000000
00010000
00000000
00100000
00000000
,
01000000
00000000
00000000
00000000
00001000
00000000
00010000
00000000
02000000
03000000
00010000
00000000
00002000
00003000
00010000
00000000
,
00200000
00300000
10000000
00000000
01000000
00000000
00100000
00000000
00002000
00003000
00010000
00000000
00001000
00000000
00000100
00000000
,
00000010
00000000
00000000
00000000
00010000
00000000
00001000
00000000
00000020
00000030
00001000
00000000
00020000
00030000
00001000
00000000
,
00000200
00000300
00000010
00000000
00001000
00000000
00000100
00000000
00020000
00030000
00001000
00000000
00100000
00000000
00010000
00000000
,
01000000
00000000
00000000
00000000
00100000
00000000
01000000
00000000
20000000
30000000
01000000
00000000
00200000
00300000
01000000
00000000
,
00010000
00000000
00000000
00000000
00010000
00000000
00000000
00000000
10000000
01000000
10000000
01000000
00100000
00010000
00100000
00001000
,
00010000
00000000
00011000
00000000
00000010
00010000
00011000
00000000
,
00100000
01000000
00010000
00001000
00000010
00000100
00001000
00010000
,
00100000
01000000
10000000
00200000
00000000
00300000
00100000
00000000
,
10000000
00010000
10100000
00000000
00010000
10000000
00110000
00000000
,
00001000
00000000
00011000
00000000
00100000
00001000
00011000
00000000
,
00000010
00000100
00001000
00010000
00100000
01000000
00010000
00001000
,
00000010
00010000
00000100
00000010
00000000
00000010
00000100
00000000
,
00002002
00000000
00000000
00003003
,
00000001
00000010
00000100
00010000
00000010
00000100
00000020
00000030
,
00000001
00000010
00000100
00001000
00010000
00100000
01000000
00000000
,
10000000
01000000
00100000
01000000
00010000
00100000
01000000
00000000
,
00010000
01000000
00100000
00001000
00000010
00000100
00001000
00000000
,
00000100
00010000
00001000
01000000
00100000
01000000
20000000
30000000
,
10000000
01000000
00100000
00010000
00001000
00000100
00000010
00000000
,
00001000
00000100
00000010
00000001
00000000
00000001
00000010
00000100
,
00002000
00003000
00002000
00003000
00002000
00003000
00000002
00000003
,
00000100
00000010
00001001
00000000
00000010
00000100
00011000
00000000
,
00001000
01000000
01100000
00100000
10000000
01000000
00110000
00000000
,
10000000
00100000
01001000
00000000
00010000
00000100
00000011
00000000
,
00000001
00000000
00000000
00000000
00000000
00000000
00000000
00000000
00000000
00000000
00000000
00000000
00000000
00000000
00000000
00000000
00000000
00000000
00000000
00000000
00000000
00000000
00000000
00000000
00000100
00000000
00000000
00000000
00000000
00000000
00000000
00000000
00000000
00000000
00000000
00000000
00000000
00000000
00000000
00000000
00000000
00000000
00000000
00000000
00000000
00000000
00000000
00000000
00010010
00000000
00000000
00000000
00000000
00000000
00000000
00000000
00000000
00000000
00000000
00000000
00000000
00000000
00000000
00000000
00000000
00000000
00000000
00000000
00000000
00000000
00000000
00000000
00001000
00000000
00000000
00000000
00000000
00000000
00000000
00000000
00000000
00000000
00000000
00000000
00000000
00000000
00000000
00000000
00000000
00000000
00000000
00000000
00000000
00000000
00000000
00000000
00020000
00000000
00000000
00000000
00000000
00000000
00000000
00000000
00000000
00000000
00000000
00000000
00000000
00000000
00000000
00000000
00000000
00000000
00000000
00000000
00000000
00000000
00000000
00000000
00000000
00000000
00000000
00000000
00000000
00000000
00000000
00000000
00000000
00000000
00000000
00000000
00000000
00000000
00000000
00000000
00000000
00000000
00000000
00000000
00000000
00000000
00000000
00000000
M000000M
00030000
00000000
00000000
00000000
00000000
00000000
00000000
00000000
00000000
00000000
00000000
00000000
00000000
00000000
00000000
00000000
00000000
00000000
00000000
00000000
00000000
00000000
00000000
M000000M
00000000
00000000
00000000
00000000
00000000
00000000
00000000
00000000
00000000
00000000
00000000
00000000
00000000
00000000
00000000
00000000
00000000
00000000
00000000
00000000
00000000
00000000
00000000
,
0M0000M0
0M0000M0
00M00M00
00M00M00
000MM000
000MM000
00M00M00
00M00M00
,
0M0000M0
0M0000M0
M001100M
00000000
00100100
00000000
00011000
00000000
,
01000010
00000000
00011000
00001000
00010000
00100000
01000000
10000000
,
01000000
00100000
00010000
00001000
00000100
00000010
00000001
00000010
,
00001000
00000000
00000001
00000010
00000100
00001000
00000100
00000010
,
00001000
00011000
01000010
00011000
,
00100100
00000000
00011000
00001000
00000010
00000100
00000001
00000100
,
00000010
00001000
00010000
01000000
10000000
00200000
00000000
10300000
,
01000000
00100000
00002000
00000000
00000000
00000000
00000000
00000000
,
00003000
00000000
00010000
00001000
00010000
01000000
10000000
00010000
,
01000000
00000000
00000000
00000000
00100000
00000000
10000000
00100000
10000000
00000000
00100000
01000000
00100000
00000000
01000000
00001000
,
00010000
00000000
00000000
00000000
00000100
00000000
00010000
00001000
00010000
00000000
00000100
00001000
00000100
00000000
00000010
00000001
,
00000100
00000000
00000010
00000010
00000100
00000100
00000001
00001000
,
00001001
00000000
00010000
00001000
00000100
00000010
00001000
00000100
,
00000010
00000000
00000000
00000000
00000001
00000000
00000010
00000100
00000010
00000000
00000100
00010000
00000100
00000000
00010000
00001000
,
01000000
00000000
00100000
01000000
00100000
00002000
00000000
00103000
,
10000000
01000000
00200000
00000000
00000000
00000000
00000000
00000000
,
00300000
00000000
00000000
00000000
00010000
00000000
00000000
00000000
10100000
00000000
00000000
00100000
01000000
00000000
00001000
00000000
,
00010000
01000000
00000000
00010000
00001000
00000100
00000001
00000000
,
00000001
00000000
00000000
00000000
00001000
00000000
00000000
00000000
00000011
00000000
00000000
00000010
00000100
00000000
00010000
00000000
,
00001000
00000100
00000000
00000010
00000100
00001000
00010000
01000000
,
10000000
00000000
00100000
00000000
01100000
00010000
10000000
01000000
,
00100000
00001000
00000000
00001000
00010000
00100000
02100000
00000000
,
03020000
00000000
00130000
01000000
10010000
00000000
01000000
00001000
,
00010100
00001000
00000002
00000000
00000000
00000000
00000000
00000000
,
00000003
01000000
00000000
00000000
;

//---------------dance-single - Telperion----------------
#NOTES:
     dance-single:
     Telperion:
     Medium:
     7:
     0.468,0.443,0.407,0.221,0.034,312.000,48.000,26.000,12.000,0.000,0.000,0.000,0.468,0.443,0.407,0.221,0.034,312.000,48.000,26.000,12.000,0.000,0.000,0.000: // measure 1
0000
0000
0000
0000
,  // measure 2
0000
0000
0000
0000
,  // measure 3
0000
0000
0000
0000
,  // measure 4
0002
0000
0000
0000
,  // measure 5
1003
0000
0000
0010
0000
0000
1000
0000
0000
0000
0001
0000
0000
0010
0000
0000
,  // measure 6
0100
0100
0010
0010
,  // measure 7
0001
0000
0000
1000
0000
0000
0001
0000
0000
0000
0100
0000
0000
0010
0000
0000
,  // measure 8
1000
1000
0001
0001
,  // measure 9
0010
0000
0000
0001
0000
0000
1000
0000
0000
0000
0010
0000
0000
1000
0000
0000
,  // measure 10
0010
0100
1000
0100
,  // measure 11
0001
0000
0000
0010
0000
0000
0100
0000
0000
0000
1000
0000
0000
0001
0000
0000
,  // measure 12
0100
0000
0010
0100
0001
0000
0011
0000
,  // measure 13
1100
0000
0001
0100
1000
0000
1000
0100
,  // measure 14
0001
0000
0001
0010
0100
0000
0100
0000
,  // measure 15
0110
0000
1000
0100
0001
0000
0001
0100
,  // measure 16
1000
0000
1000
0010
0100
0000
0101
0000
,  // measure 17
1010
0000
0001
0010
1000
0000
1000
0010
,  // measure 18
0001
0000
0100
0010
1000
0000
1001
0000
,  // measure 19
0110
0000
1000
0010
0001
0000
0001
0010
,  // measure 20
1000
0000
1000
0100
0001
0100
0010
0100
,  // measure 21
1000
0000
0011
0000
1000
0001
0011
0000
,  // measure 22
1000
0100
0010
0100
0001
0100
0010
0000
,  // measure 23
0001
0100
0010
0002
0000
0000
0013
0000
,  // measure 24
1000
0001
0010
0000
0001
1000
0010
0000
,  // measure 25
0100
0000
1010
0000
0001
1000
1010
0000
,  // measure 26
0001
0010
0100
0010
1000
0010
0100
0000
,  // measure 27
1000
0010
0100
2000
0000
0000
3100
0000
,  // measure 28
0002
0000
0000
0003
,  // measure 29
1001
0000
0101
0000
1000
0001
0101
0000
,  // measure 30
0010
0100
0001
0100
1000
0100
0010
0000
,  // measure 31
1000
0100
0010
0100
0001
0100
0010
0000
,  // measure 32
0001
0001
1000
1000
0010
0100
0010
0000
,  // measure 33
1000
0000
1100
0000
0001
1000
1100
0000
,  // measure 34
0010
0100
0001
0100
1000
0100
0010
0000
,  // measure 35
1000
0100
0010
0002
0000
0000
1003
0000
,  // measure 36
0220
0000
0000
0330
,  // measure 37
0001
1002
1003
2001
,  // measure 38
3010
0000
0210
0000
0301
0010
0110
0000
,  // measure 39
1000
2001
3100
0120
,  // measure 40
0031
0000
0000
0000
0000
0000
0000
0000
0000
0000
0000
0000
0000
0000
0000
0000
0000
0000
0000
0000
0000
0000
0000
0000
0000
0000
0000
0000
0000
0000
0000
0000
0000
0000
0000
0000
0000
0000
0000
0000
0000
0000
0000
0000
0000
0000
0000
0000
1002
0000
0000
0000
0000
0000
0000
0000
0000
0000
0000
0000
0000
0000
0000
0000
0000
0000
0000
0000
0000
0000
0000
0000
0000
0000
0000
0000
0000
0000
0000
0000
0000
0000
0000
0000
0000
0000
0000
0000
0000
0000
0000
0000
0000
0000
0000
0000
0203
0000
0000
0000
0000
0000
0000
0000
0000
0000
0000
0000
0000
0000
0000
0000
0000
0000
0000
0000
0000
0000
0000
0000
0000
0000
0000
0000
0000
0000
0000
0000
0000
0000
0000
0000
0000
0000
0000
0000
0000
0000
0000
0000
0000
0000
0000
0000
00M0
0300
0000
0000
0000
0000
0000
0000
0000
0000
0000
0000
0000
0000
0000
0000
0000
0000
0000
0000
0000
0000
0000
0000
00M0
0000
0000
0000
0000
0000
0000
0000
0000
0000
0000
0000
0000
0000
0000
0000
0000
0000
0000
0000
0000
0000
0000
0000
,  // measure 41
00M0
00M0
00M0
00M0
00M0
00M0
00M0
00M0
,  // measure 42
00M0
00M0
1001
0000
1100
0000
0001
1000
,  // measure 43
1100
0000
0010
0100
0001
1000
0100
0010
,  // measure 44
1000
0010
0001
0100
0010
0002
0000
0000
,  // measure 45
0013
0000
1000
0100
0020
0000
0031
0100
,  // measure 46
2000
0000
3100
0000
0101
0000
1000
0001
,  // measure 47
0101
0000
0010
0001
1000
0010
0100
1000
,  // measure 48
0100
0010
1000
0100
0010
2000
0000
0000
,  // measure 49
3010
2002
0000
0000
,  // measure 50
3003
0011
1001
1010
,  // measure 51
0110
0000
0010
0100
0001
1000
0100
0010
,  // measure 52
1000
0001
0100
0010
0001
1000
0010
0100
,  // measure 53
1000
0000
0100
0001
0010
0100
1000
0100
,  // measure 54
0010
0110
1100
1001
,  // measure 55
0101
0000
0100
0010
0001
1000
0100
0010
,  // measure 56
1000
0001
0010
0100
1000
0002
0000
0000
,  // measure 57
0103
0220
0000
0000
,  // measure 58
0330
0000
0001
0100
0110
0000
1000
0100
,  // measure 59
0010
0002
0003
0001
0010
0100
1000
0000
,  // measure 60
1000
0000
0001
1000
0110
0000
1000
0010
,  // measure 61
0100
0002
0003
0001
0100
0010
1000
0010
,  // measure 62
0100
0011
0100
1001
,  // measure 63
0100
0010
0000
0000
1001
0000
0010
0000
,  // measure 64
0110
0011
1100
1010
,  // measure 65
0100
0001
0020
0000
0000
0000
0000
0000
,  // measure 66
0000
0130
0000
0000
;

//---------------dance-single - Telperion----------------
#NOTES:
     dance-single:
     Telperion:
     Easy:
     5:
     0.351,0.388,0.170,0.280,0.000,237.000,20.000,33.000,10.000,0.000,0.000,0.000,0.351,0.388,0.170,0.280,0.000,237.000,20.000,33.000,10.000,0.000,0.000,0.000:
0000
0000
0000
0000
,
0000
0000
0000
0000
,
0000
0000
0000
0000
,
0000
0000
0000
0000
,
1000
0000
0001
0000
0010
0000
0001
1000
,
0010
0010
0100
0000
,
0001
0000
1000
0000
0100
0000
0010
0100
,
1000
1000
0001
0000
,
0010
0000
0010
0000
0100
0000
0010
0001
,
1000
0001
1000
0000
,
0010
0000
0010
0000
0100
0010
0100
0010
,
1000
0000
0001
0000
0010
0001
0010
0000
,
0110
0000
0100
0000
1000
0001
0100
0000
,
0010
0100
0001
0000
1000
0001
1000
0000
,
0000
0000
0100
0000
0010
0100
1000
0000
,
0001
1000
0010
0000
0100
0010
0100
0000
,
0000
0000
0010
0000
1000
0010
0100
0000
,
0001
1000
0100
0000
0010
0100
0010
0000
,
0000
0000
0010
0000
0100
1000
0001
0000
,
0100
0001
1000
0100
0010
0001
2000
0000
,
3010
0110
0010
0110
,
2001
0010
0100
0010
,
3001
0010
0100
0001
,
0100
0000
0100
0000
,
0010
0110
0010
0110
,
1002
0010
0100
0010
,
1003
0000
0100
0020
0000
0000
0130
0000
,
0200
0000
0000
0300
,
1000
0000
1001
0000
0001
1000
0001
0000
,
0020
1000
0100
0031
,
0200
0001
0010
1300
,
0100
0010
2000
3000
,
0001
0000
1001
0000
1000
0001
1000
0000
,
0200
1000
0010
0301
,
0100
1000
0010
0000
,
0100
0100
0100
0100
,
0220
0330
0020
0030
,
2002
3003
0022
0033
,
0220
0330
0020
0030
,
0100
0000
0000
0000
0000
0000
0000
0000
0000
0000
0000
0000
0000
0000
0000
0000
0000
0000
0000
0000
0000
0000
0000
0000
0000
0000
0000
0000
0000
0000
0000
0000
0000
0000
0000
0000
0000
0000
0000
0000
0000
0000
0000
0000
0000
0000
0000
0000
1000
0000
0000
0000
0000
0000
0000
0000
0000
0000
0000
0000
0000
0000
0000
0000
0000
0000
0000
0000
0000
0000
0000
0000
0000
0000
0000
0000
0000
0000
0000
0000
0000
0000
0000
0000
0000
0000
0000
0000
0000
0000
0000
0000
0000
0000
0000
0000
0012
0000
0000
0000
0000
0000
0000
0000
0000
0000
0000
0000
0000
0000
0000
0000
0000
0000
0000
0000
0000
0000
0000
0000
0000
0000
0000
0000
0000
0000
0000
0000
0000
0000
0000
0000
0000
0000
0000
0000
0000
0000
0000
0000
0000
0000
0000
0000
M000
0003
0000
0000
0000
0000
0000
0000
0000
0000
0000
0000
0000
0000
0000
0000
0000
0000
0000
0000
0000
0000
0000
0000
M000
0000
0000
0000
0000
0000
0000
0000
0000
0000
0000
0000
0000
0000
0000
0000
0000
0000
0000
0000
0000
0000
0000
0000
,
M000
M000
M000
M000
M000
M000
MM00
0000
,
0000
0002
0000
0000
,
0000
1003
0010
0100
,
1000
0001
0010
0100
,
1000
0001
0010
2000
,
3000
0002
0010
2003
,
0010
3001
0010
0100
,
0001
1000
0010
0100
,
2000
0002
0000
0000
,
3003
0110
0100
1001
,
0100
0000
0010
0001
0010
0000
0100
1000
,
0100
0000
1000
0010
1000
0000
0001
0100
,
0001
0010
0100
0010
,
1001
0110
0001
1001
,
0010
0000
0100
1000
0100
0000
0010
0001
,
0010
0000
0001
0100
0010
0200
0000
0000
,
0300
2002
0000
0000
,
3003
0000
0001
0000
0001
0000
1000
0100
,
0010
0002
0003
0000
0000
0000
0100
0000
,
0001
0000
1000
0000
1000
0000
0001
0100
,
0010
2000
3000
0000
0000
0000
0001
0000
,
0010
0000
0100
0000
0100
0000
1000
0001
,
0100
0020
0030
0000
0000
0000
0100
0000
,
0010
0000
0010
0000
1000
0000
0001
1000
,
0100
0010
0002
0000
0000
0000
0000
0000
,
0000
1003
0000
0000
;

//---------------dance-single - Telperion----------------
#NOTES:
     dance-single:
     Telperion:
     Beginner:
     1:
     0.067,0.084,0.068,0.008,0.000,46.000,8.000,1.000,11.000,0.000,0.000,0.000,0.067,0.084,0.068,0.008,0.000,46.000,8.000,1.000,11.000,0.000,0.000,0.000:
0000
0000
0000
0000
,
0000
0000
0000
0000
,
0000
0000
0000
0000
,
0000
0000
0000
0000
,
1000
0000
0000
0000
,
0000
0000
0000
0000
,
0001
0000
0000
0000
,
0000
0000
0000
0000
,
0100
0000
0000
0000
,
0000
0000
0000
0000
,
0001
0000
0000
0000
,
0000
0000
0000
0000
,
0010
0000
0000
0000
,
0000
0000
0000
0000
,
0010
0000
0000
0000
,
0000
0000
0000
0000
,
0010
0000
0000
0000
,
0000
0000
0000
0000
,
0010
0000
0000
0000
,
0010
0000
0010
0000
,
1001
0000
0000
0000
,
0000
0000
0000
0000
,
0010
0000
0000
0000
,
0100
0000
0000
0000
,
1001
0000
0000
0000
,
0000
0000
0000
0000
,
0010
0000
0000
0000
,
0010
0000
0000
0000
,
0110
0000
0000
0000
,
0000
0000
0000
0000
,
0001
0000
0000
0000
,
1000
0000
0000
0000
,
0110
0000
0000
0000
,
0000
0000
0000
0000
,
1000
0000
0000
0000
,
0001
0000
0000
0000
,
0010
0000
0000
0000
,
0000
0000
0000
0000
,
0010
0000
0000
0000
,
0000
0000
0000
0000
0020
0000
M030
M000
,
M000
M000
M000
M000
M000
M000
M00M
0000
,
0000
0010
0000
0000
,
0000
0000
0000
0000
,
0000
0100
0000
0000
,
0000
0010
0000
0000
,
0000
1001
0000
0000
,
0000
0000
0000
0000
,
0000
0010
0000
0000
,
0000
0010
0000
0000
,
0000
0110
0000
0000
,
0000
0000
0000
0000
,
0000
1000
0000
0000
,
0000
0001
0000
0000
,
0000
0110
0000
0000
,
0000
0000
0000
0000
,
0000
0001
0000
0000
,
0000
1000
0000
0000
,
0000
0010
0000
0000
,
0000
0010
0000
0000
,
0000
0100
0000
0000
,
0000
0100
0000
0000
,
0000
0001
0000
0000
,
0000
0001
0000
0000
,
0000
1000
0000
0000
,
0000
0001
0000
0000
,
0000
1001
0000
0000
,
0000
M000
0000
0000
;
