#TITLE:CONTRACT;
#SUBTITLE:;
#ARTIST:Suzaku;
#TITLETRANSLIT:;
#SUBTITLETRANSLIT:;
#ARTISTTRANSLIT:;
#CREDIT:;
#BANNER:CONTRACT.png;
#BACKGROUND:CONTRACT-bg.png;
#LYRICSPATH:;
#CDTITLE:Z-I-v simfile collab.png;
#MUSIC:CONTRACT.mp3;
#OFFSET:-6.103;
#SAMPLESTART:32.753;
#SAMPLELENGTH:10.660;
#SELECTABLE:YES;
#BPMS:0.000=180.000,80.000=90.000,112.000=180.000,144.000=90.000,164.000=180.000;
#STOPS:144.000=2.667
;
#BGCHANGES:;

//---------------dance-single - ----------------
#NOTES:
     dance-single:
     :
     Beginner:
     2:
     0.096,0.212,0.093,0.019,0.000:
0000
0000
0000
0000
,
0000
0000
0000
0000
,
0000
0000
0000
0000
,
0000
0000
0000
0000
,
1000
0000
0000
0000
,
0001
0000
0000
0000
,
1000
0000
0000
0000
,
0001
0000
0000
0000
,
0010
0000
0000
0000
,
0001
0000
0000
0000
,
0100
0000
0000
0000
,
0001
0000
0000
0000
,
1000
0000
0000
0000
,
0010
0000
0000
0000
,
1000
0000
0000
0000
,
0100
0000
0000
0000
,
0010
0000
0000
0000
,
0100
0000
0000
0000
,
0010
0000
0000
0000
,
0001
0000
0000
0000
,
2000
0000
0000
3000
,
0000
0000
0000
0000
,
0002
0000
0000
0003
,
0000
0000
0000
0000
,
1000
1000
1000
0000
,
0001
0001
0001
0000
,
0100
0100
0100
0000
,
0010
0010
0010
0000
,
1001
0000
0000
0000
,
0000
0000
0000
0000
,
0110
0000
0000
0000
,
0000
0000
0000
0000
,
1001
0000
0000
0000
,
0000
0000
0000
0000
,
0110
0000
0000
0000
,
0000
0000
0000
0000
,
1001
0000
0000
0000
,
0001
0001
0001
0000
,
0100
0100
0100
0000
,
0010
0010
0010
0000
,
1000
1000
1000
0000
,
0100
0000
0000
0000
,
0010
0000
0000
0000
,
0001
0000
0000
0000
,
0100
0000
0000
0000
,
1000
0000
0000
0000
,
0001
0000
0000
0000
,
0010
0000
0000
0000
,
0100
0000
0000
0000
,
1001
0000
0000
0000
,
0000
0000
0000
0000
,
0110
0000
0000
0000
,
0000
0000
0000
0000
,
1001
0000
0000
0000
,
0000
0000
0000
0000
,
0110
0000
0000
0000
,
0000
0000
0000
0000
,
1001
0000
0000
0000
;

//---------------dance-single - ----------------
#NOTES:
     dance-single:
     :
     Easy:
     3:
     0.202,0.318,0.056,0.000,0.000:
0000
0000
0000
0000
,
0000
0000
0000
0000
,
0000
0000
0000
0000
,
0000
0000
0000
0000
,
1000
0000
0000
0000
0000
0000
0000
0001
,
0100
0000
0000
0000
0000
0000
0000
0100
,
0010
0000
0000
0000
0000
0000
0000
1000
,
0100
0000
0000
0000
0000
0000
0000
0100
,
0010
0000
0000
0000
0000
0000
0000
0001
,
1000
0000
0000
0000
0000
0000
0000
1000
,
0001
0000
0000
0000
0000
0000
0000
0100
,
0010
0000
1000
0000
,
0100
0010
0000
0001
,
0001
0100
0000
1000
,
1000
0100
0000
0001
,
0100
0010
1000
0100
,
0011
0001
0000
0100
,
0100
0010
0000
1000
,
1000
0010
0000
0100
,
0001
0000
0010
0000
0001
1000
0001
0000
,
0100
0000
0010
0000
,
1000
0000
0100
0000
,
0001
0000
0010
0000
,
0100
0000
0001
0000
,
0100
1000
0100
0110
,
0001
0010
0001
0110
,
1000
0100
0001
0110
,
1000
0000
0010
0000
0001
0000
0110
1000
,
0001
0000
0100
0000
,
1000
0000
0100
0100
,
0100
0000
0001
0000
,
0010
0000
1000
1000
,
1000
0000
0010
0000
,
0100
0000
0001
0001
,
0001
0000
1000
0000
,
0100
0000
0010
0010
,
0010
0000
0000
0000
,
1000
0100
1000
0100
,
0010
0001
0010
0001
,
0100
0010
0100
0010
,
1000
0100
0001
0100
,
1000
0000
0100
0000
,
0010
0000
0001
0000
,
0100
0000
1000
0000
,
0100
0000
0001
0000
,
1000
0000
0010
0000
,
0001
0000
0010
0000
,
1000
1000
0001
0001
,
0010
0010
0100
0100
,
1000
0000
0001
0000
,
0010
0000
0100
0100
,
1000
0000
0001
0000
,
0100
0000
0010
0010
,
1000
0000
0100
0000
,
0001
0000
0100
0100
,
0010
0000
0001
0000
,
1000
0000
0100
0100
,
1001
0000
0000
0000
;

//---------------dance-single - ----------------
#NOTES:
     dance-single:
     :
     Medium:
     7:
     0.421,0.450,0.371,0.093,0.000:
0000
0000
0000
0000
,
0000
0000
0000
0000
,
0000
0000
0000
0000
,
0000
0000
0000
0000
,
1000
0000
0100
0000
1000
0000
0001
0100
,
0010
0000
1000
0000
0001
0000
1000
0010
,
0100
0000
0010
0000
1000
0000
0001
0010
,
0100
0000
1000
0000
0001
0000
1000
0100
,
0110
0000
0001
0000
0100
0000
0010
1000
,
0100
0000
0010
0000
0001
0000
0100
0001
,
0010
0001
0100
1000
,
0100
0001
0010
0000
2002
0000
3003
0000
,
1000
0100
0001
0000
0001
0100
1000
0000
,
1000
0010
0001
0000
0001
0010
1000
0000
,
0001
0100
1000
0000
1000
0010
0001
0000
,
0100
0010
1000
0001
,
1001
0000
0100
0000
0010
1000
0100
0000
,
0011
0000
0100
0000
0010
0001
0100
0000
,
1001
0010
1100
0001
,
1010
0000
0101
0000
0010
0001
0010
0100
,
2000
0001
3001
0000
0020
0100
0130
0000
,
0002
0100
0103
0000
2000
0010
3010
0000
,
0200
0001
0301
0000
2000
0010
3010
0000
,
0200
1000
1300
0000
0200
0001
0301
0000
,
1000
0100
0010
0100
1000
0000
0011
0100
,
0100
0100
1001
0000
0000
0001
0100
0010
,
0100
0100
1100
0000
0001
0000
0010
1000
,
0001
0001
0011
0000
0000
0100
0010
1000
,
0001
0000
0000
1100
0000
0000
0010
0000
,
0000
0101
0000
0000
0010
0000
1001
0000
,
0100
0000
0000
0011
0000
0000
1000
0000
,
0000
0110
0000
0000
0001
0000
1100
0000
,
0011
0000
0000
0100
0000
0000
1001
0000
,
0000
0010
0000
0000
0110
0000
1000
0000
,
0101
0001
0010
1000
,
0010
0000
0001
0000
1000
0100
0001
0100
,
0001
0000
0000
0000
,
0010
1000
0001
0100
1000
0000
0100
0010
,
1000
0100
0001
0010
0001
0000
1000
0000
,
0010
0001
1000
0100
0001
0000
0100
0010
,
0001
0100
1000
0100
0010
1000
0001
0100
,
0010
1000
0100
0000
0010
0001
0100
0000
,
0100
0001
0010
0000
0100
1000
0010
0000
,
0100
0001
1000
0000
0100
1000
0001
0000
,
1100
0000
1100
0000
0010
0001
1000
0000
,
0001
0100
0010
0000
1000
0100
0010
0000
,
0001
0100
1000
0000
1000
0100
0001
0000
,
1000
0100
1000
0000
1000
0100
1000
0000
,
0001
0010
0100
1000
0001
0100
0010
1000
,
0100
0000
0000
0011
0000
0000
0101
0000
,
0000
1010
0000
0000
1001
0000
0100
0000
,
0110
0000
0000
1010
0000
0000
0101
0000
,
0000
1100
0000
0000
0011
0000
0110
0000
,
1001
0000
0000
1010
0000
0000
0101
0000
,
0000
1100
0000
0000
0011
0000
0100
0000
,
0101
0000
1000
0100
0001
0000
0010
0001
,
0100
0000
1000
0001
0010
0100
0010
1000
,
0001
0000
0000
0000
;

//---------------dance-single - ----------------
#NOTES:
     dance-single:
     :
     Hard:
     9:
     0.570,0.811,0.214,0.149,0.237:
0000
0000
0000
0000
,
0000
0000
0000
0000
,
0000
0000
0000
0000
,
0000
0000
0000
0000
,
0100
0000
0001
0000
0010
0000
0001
0100
,
0010
0000
1000
0000
0100
0000
0010
0001
,
0100
0000
1000
0000
0100
0000
0010
1000
,
0100
0000
0001
0000
0100
0001
0100
0001
,
1000
0000
0001
0000
0100
0000
1000
0010
,
0100
0000
0001
0000
0010
0000
0100
1000
,
0010
0000
0001
0000
0010
0000
1000
0100
,
0001
0100
0010
0100
2002
0000
3003
0000
,
1000
0010
0001
0010
1000
0100
0001
0000
,
0001
0100
1000
0010
0001
0010
1000
0000
,
1000
0100
0001
0100
0010
0001
0100
0000
,
0010
0000
0000
0100
0001
0000
0000
1000
0100
0000
0000
0001
0100
0000
0000
0000
,
1000
0010
0001
1000
0100
0001
0010
0000
,
1000
0001
0100
1000
0001
0100
0010
0000
,
0100
0001
0010
1000
0001
1000
0010
0001
,
0100
0100
1000
1000
0001
0010
1000
0001
,
0020
0000
0000
0100
0130
0000
0000
0000
0002
0000
0000
1000
1003
0000
0000
0000
,
0200
0000
0000
0010
0310
0000
0000
0000
2000
0000
0001
0001
3000
0000
0100
0000
,
0020
0000
0000
0100
0130
0000
0000
0000
0001
0000
1000
0100
0010
0000
0000
0000
,
0002
0000
0000
0010
0013
0000
0000
0000
0100
1000
0010
0000
0101
0000
0000
0000
,
1000
0000
0010
0000
1000
0100
0010
0000
0110
0000
0001
0000
0100
0010
1000
0000
,
1000
0000
0011
0000
0001
0100
0010
0000
1000
0000
1100
0000
0101
0000
0001
0000
,
0101
0000
0110
0000
0010
0001
0100
0000
1100
0000
0100
0000
0010
1000
0100
0000
,
1000
0000
0000
1000
0100
0000
0000
0100
0001
0000
0000
0001
0100
0000
0000
0100
1000
0000
0001
0000
0100
0000
0010
0000
1000
0000
0100
0000
0010
0000
0001
0000
,
0100
1000
1000
1000
0100
0100
0100
0010
,
0010
0010
1000
1000
1000
0100
0001
0100
,
0010
0001
0001
0001
0100
0100
0100
0010
,
0010
0010
0001
0001
0001
0010
1000
0100
,
0010
0100
0100
0100
0001
0001
0001
0100
,
0100
0100
0010
0010
0010
0001
0100
0010
,
1000
0000
0000
1000
0100
0000
0000
0100
0010
0000
0000
0001
0100
0000
0000
1000
,
0100
0000
0010
0000
0100
0000
0010
0000
0001
0000
0010
0000
1000
0001
1000
0000
,
2002
0000
0000
3003
,
0010
1000
0010
0001
1000
0000
0010
0000
0100
0000
0010
0001
0010
1000
0010
0000
,
0100
0001
1000
0100
0010
0100
1000
0010
0100
0000
0001
1000
0001
0010
0100
1000
,
0010
0001
0010
1000
0001
0000
0010
0000
0001
0000
1000
0100
0010
0001
0010
0000
,
0002
0000
0203
0000
2300
0000
3200
0000
0302
0000
1003
0010
0001
0010
1000
0100
,
0010
0001
0100
1000
0100
0001
0010
0000
,
1000
0010
0001
0100
1000
0100
0010
0000
,
1000
0100
0001
1000
0010
0001
0100
0000
,
0010
0000
0000
1000
0100
0000
0000
1000
0010
0000
0000
0100
0001
0000
0000
0000
,
0001
0010
1000
0010
0001
0100
1000
0000
,
0001
0010
1000
0001
0100
0010
1000
0000
,
0001
0100
1000
0100
0001
0010
0100
0001
,
0100
0000
1000
0000
0010
0000
1000
0000
0100
0000
0001
0000
0100
0010
0100
0000
,
1000
0000
0000
0011
0000
0000
0101
0000
,
0000
1010
0000
0000
0110
0000
0011
0000
,
1100
0000
0000
0101
0000
0000
0011
0000
,
0000
1010
0000
0000
0101
0000
0110
0000
,
0100
1000
1000
0010
0100
0100
0010
1000
,
1000
0100
0010
0001
0101
0100
0010
1000
,
1100
0100
0001
0100
1000
0100
0001
0100
,
0010
0001
1000
0100
0010
1000
0010
0001
,
0020
0000
0000
0000
,
0000
0030
0000
0000
;

//---------------dance-double - ----------------
#NOTES:
     dance-double:
     :
     Easy:
     3:
     0.176,0.238,0.037,0.009,0.000:
00000000
00000000
00000000
00000000
,
00000000
00000000
00000000
00000000
,
00000000
00000000
00000000
00000000
,
00000000
00000000
00000000
00000000
,
00010000
00001000
00010000
00001000
,
00010000
00000000
00001000
00000000
,
01000000
00010000
01000000
00010000
,
01000000
00000000
00001000
00000000
,
00010000
00001000
00010000
00001000
,
00010000
00000000
00001000
00000000
,
00010000
00000000
00000100
00000000
,
00001000
00001000
00002000
00000000
,
00003001
00000000
00000100
00000000
,
00000010
00000000
00001000
00000000
,
00010000
00000000
01000000
00000000
,
00100000
00100000
00100000
00000000
,
10000000
00000000
01000000
00000000
,
00100000
00000000
00010000
00000000
,
00001000
00000000
00000100
00000000
,
00000010
00000010
00000001
00000001
,
00000100
00000000
00001000
00000000
,
00010000
00000000
01000000
00000000
,
10000000
00000000
00100000
00000000
,
00010000
00000000
00001000
00000000
,
00000010
00000000
00000011
00000001
,
00000010
00000000
00000110
00000000
,
00000100
00010000
00011000
00000000
,
00010000
00001000
01000000
00100000
,
10000000
00000000
00000000
01000000
,
00000000
00000000
00010000
00001000
,
00010000
00000000
00000000
00001000
,
00000000
00000000
00000100
00001000
,
00000100
00000000
00000000
00000010
,
00000000
00000000
00000100
00000001
,
00000100
00000000
00000000
00000010
,
00000000
00000000
00010000
00001000
,
00100000
00000000
00000000
00000000
,
00000001
00000000
00000100
00000000
,
00001000
00000000
00000100
00000010
,
00001000
00000000
00011000
00000000
,
00100000
10000000
00010000
00100000
,
01000000
00010000
00001000
00000000
,
00010000
00000000
00001000
00000000
,
00010000
00001000
00000100
00000000
,
00001000
00000000
00010000
00000000
,
00100000
00010000
00001000
00000000
,
00000100
00000000
00001000
00000000
,
00000100
00000000
00000001
00000000
,
00000001
00000100
00001000
00010000
,
00001000
00000000
00000000
00100000
,
00000000
00000000
01000000
10000000
,
00010000
00000000
00000000
01000000
,
00000000
00000000
00001000
00100000
,
00010000
00000000
00000000
01000000
,
00000000
00000000
00001000
00010000
,
00000100
00000000
00000000
00001000
,
00000000
00000000
00000001
00000100
,
00000010
00000000
00000000
00000000
;

//---------------dance-double - ----------------
#NOTES:
     dance-double:
     :
     Medium:
     7:
     0.299,0.344,0.121,0.084,0.000:
00000000
00000000
00000000
00000000
,
00000000
00000000
00000000
00000000
,
00000000
00000000
00000000
00000000
,
00000000
00000000
00000000
00000000
,
10000000
01000000
01000000
01000000
,
00010000
00001000
00001000
00001000
,
00100000
00010000
00010000
00010000
,
00001000
00000100
00000100
00001000
,
00000110
00000001
00000001
00000001
,
00000100
00001000
00001000
00001000
,
00010000
00100000
00100000
00100000
,
01000000
01000000
00200000
00000000
,
00310000
00010000
00001000
00001000
,
00000100
00000100
00010000
00010000
,
00001000
00001000
00010000
00010000
,
01000000
00100000
01000000
00000000
00010000
10000000
00010000
00000000
,
00100000
00100000
01000000
01000000
,
00010000
00010000
00001000
00001000
,
00000010
00000001
00000100
00001000
,
00010000
00001000
00010000
00000000
00001000
00100000
00001000
00000000
,
02000000
00000000
00000000
03000000
20000000
00000000
00000000
30000000
,
00200000
00000000
00000000
00300000
00020000
00000000
00000000
00030000
,
00002000
00000000
00000000
00003000
00000200
00000000
00000000
00000300
,
00000002
00000000
00000000
00000003
00000020
00000000
00000000
00000030
,
00001000
00000100
00000010
00000000
00000001
00000000
00000100
00000000
,
00001000
00010000
01000000
00000000
10000000
00000000
00100000
00000000
,
01000000
00010000
00100000
00000000
10000000
00000000
01000000
00000000
,
00010000
00000000
00100000
00000000
00001000
00010000
00001000
01000000
,
00010000
00000000
00000000
00100000
00000000
00000000
01000000
00000000
,
00000000
00100000
00000000
00000000
00001000
00000000
00010000
00000000
,
00001000
00000000
00000000
00000100
00000000
00000000
00000010
00000000
,
00000000
00000100
00000000
00000000
00001000
00000000
00010000
00000000
,
00001000
00000000
00000000
00100000
00000000
00000000
10000000
00000000
,
00000000
00100000
00000000
00000000
00001000
00000000
00010000
00000000
,
00001000
00000000
00000000
00000100
00000000
00000000
00000001
00000000
,
00000000
00000100
00000000
00000000
00001000
00000000
00010000
00000000
,
00001000
00000000
00000000
00000000
,
01000000
10000000
00100000
10000000
,
01000000
00010000
00001000
00010000
,
00000100
00001000
00000100
00000000
00000010
00000000
00000001
00000000
,
00000100
00000001
00001000
00010000
10000000
00010000
01000000
00100000
,
10000000
10000000
01000000
00010000
,
00001000
00001000
00000100
00000001
,
00001000
00001000
00000100
00000010
,
00001000
00010000
00001000
00000000
00010000
00000100
00010000
00000000
,
00001000
00001000
01000000
00100000
,
10000000
10000000
01000000
00100000
,
00001000
00001000
00010000
00000010
,
00001000
00000001
00001000
00000000
00000100
00000010
00000100
00000000
,
00000001
00000000
00000000
00000100
00000000
00000000
00001000
00000000
,
00000000
00010000
00000000
00000000
00011000
00000000
01001000
00000000
,
01010000
00000000
00000000
01000000
00000000
00000000
10000000
00000000
,
00000000
00010000
00000000
00000000
10100000
00000000
00110000
00000000
,
01010000
00000000
00000000
00010000
00000000
00000000
00001000
00000000
,
00000000
00000100
00000000
00000000
00000101
00000000
00000011
00000000
,
00001010
00000000
00000000
00000100
00000000
00000000
00010000
00000000
,
00000000
00001000
00000000
00000000
00110000
00000000
01100000
00000000
,
10010000
00000000
00000000
00000000
;

//---------------dance-double - ----------------
#NOTES:
     dance-double:
     :
     Hard:
     9:
     0.572,0.808,0.316,0.130,0.195: // measure 1
00000000
00000000
00000000
00000000
,  // measure 2
00000000
00000000
00000000
00000000
,  // measure 3
00000000
00000000
00000000
00000000
,  // measure 4
00000000
00000000
00000000
00000000
,  // measure 5
10000000
01000000
00100000
00000000
00010000
01000000
00100000
00000000
,  // measure 6
00010000
00001000
00000100
00000000
00001000
00010000
00000100
00000000
,  // measure 7
00000010
00000001
00000100
00000000
00001000
00000100
00000001
00000000
,  // measure 8
00001000
00000100
00000010
00000001
00000100
00001000
00010000
00001000
,  // measure 9
01000000
00100000
00010000
00000000
00010000
00100000
10000000
00000000
,  // measure 10
10000000
00010000
01000000
00000000
01000000
00100000
00010000
00000000
,  // measure 11
00000010
00001000
00000100
00000000
00000010
00000001
00000100
00000000
,  // measure 12
00000010
00001000
00100000
10000000
00010000
01000000
10000000
01000000
,  // measure 13
00010000
00100000
01000000
00100000
10000000
00100000
00010000
00010000
,  // measure 14
10000000
01000000
00010000
00001000
00010000
00100000
00010000
00010000
,  // measure 15
00000010
00001000
00000100
00001000
00000001
00000100
00001000
00000100
,  // measure 16
00000010
00000100
00000010
00000000
00001000
00000100
00001000
00000000
00000001
00000100
00000001
00000100
00000002
00000000
00000000
00000000
,  // measure 17
00001003
00000100
00000010
00000100
00000001
00000100
00001000
00001000
,  // measure 18
00000001
00000010
00001000
00010000
00001000
00000100
00001000
00001000
,  // measure 19
01000000
00010000
00100000
00010000
10000000
00100000
00010000
00100000
,  // measure 20
01000000
01000000
00100000
00100000
01000000
00010000
00100000
01000000
,  // measure 21
00020000
00001000
02030000
03200000
,  // measure 22
00320000
00000010
00030200
00000320
,  // measure 23
00002030
00000001
00003200
00020300
,  // measure 24
00230000
02300000
03010000
11000000
,  // measure 25
10000000
00000000
10000000
00000000
00010000
01000000
00100000
00000000
10000000
00000000
01000000
00000000
00010000
00000000
00001000
00000000
,  // measure 26
00001000
00000000
00001000
00000000
00000100
00000001
00000100
00000000
00000010
00000000
00001001
00000000
00001001
00000000
00000100
00000000
,  // measure 27
00001000
00000000
00001000
00000000
00010000
01000000
00010000
00000000
01000000
00000000
10000000
00000000
00100000
00000000
01000000
00000000
,  // measure 28
01000000
00000000
00100000
00000000
00010000
00000000
00001000
00000000
00000100
00000000
00001000
00000000
00000100
00000000
00000001
00000000
00000100
00000010
00001000
00000010
00001000
00000000
00000001
00000000
00001000
00000100
00001000
00000100
00001000
00000000
00000000
00000000
,  // measure 29
00011000
00000000
00000000
00110000
00000000
00000000
10100000
00000000
,  // measure 30
00000000
11000000
00000000
00000000
00100000
00010000
00001000
00000100
,  // measure 31
00000010
00000000
00000000
00000011
00000000
00000000
00001100
00000000
,  // measure 32
00000000
00010100
00000000
00000000
00000100
00001000
00010000
00100000
,  // measure 33
01000000
00000000
00000000
10100000
00000000
00000000
01010000
00000000
,  // measure 34
00000000
10010000
00000000
00000000
00110000
00010000
11000000
00000000
,  // measure 35
10010000
01000000
00100000
10000000
00010000
01000000
00100000
00010000
,  // measure 36
00001000
00000100
00001000
00000100
00000001
00000010
00001000
00010000
,  // measure 37
00011000
00000000
00000000
00000000
,  // measure 38
10000000
00000000
00010000
00100000
00000000
00100000
00010000
00000000
00010000
01000000
00000000
01000000
00100000
00000000
00010000
00000000
,  // measure 39
00001000
00000000
00000100
00000001
00000000
00000001
00001000
00000000
00001000
00000100
00000000
00000100
00000010
00000000
00000001
00000000
,  // measure 40
00001000
00000000
00000001
00000101
00000000
00000100
00000110
00000000
00000010
00010010
00000000
00010000
00011000
00000000
01010000
00000000
,  // measure 41
10000000
00000000
00100000
00000000
00010000
00000000
00100000
00000000
10000000
00000000
01000000
00000000
00010000
00000000
00001000
00000000
00010000
00001000
00010000
00000000
00001000
01000000
00001000
00000000
01000000
00010000
01000000
00000000
00100000
10000000
00100000
00000000
,  // measure 42
10000000
01000000
00100000
01000000
10000000
00010000
01000000
00100000
,  // measure 43
10000000
01000000
00010000
00001000
00010000
00001000
00000100
00000001
,  // measure 44
00001000
00000100
00000010
00000100
00001000
00000100
00010000
00000010
,  // measure 45
00000100
00000001
00001000
00000100
00000010
00001000
00010000
01000000
,  // measure 46
00100000
00010000
00100000
00010000
10000000
00010000
01000000
00100000
,  // measure 47
00010000
00001000
00000100
00001000
00010000
00001000
00000100
00000001
,  // measure 48
00001000
00000100
00000010
00000001
00000100
00000010
00000001
00000010
,  // measure 49
00001000
00000010
00010000
00001000
00100000
00010000
01000000
00100000
,  // measure 50
00010000
00000000
00001000
00001100
00000000
00000000
00000100
00000001
,  // measure 51
00000000
00001000
00001100
00000000
00011000
00000000
10010000
00000000
,  // measure 52
10100000
00000000
01000000
01010000
00000000
00000000
10000000
00100000
,  // measure 53
00000000
01000000
00010000
00000000
11000000
00000000
00110000
00000000
,  // measure 54
01010000
00100000
00010000
01000000
00000000
01100000
10000000
00010000
,  // measure 55
01000000
00100000
00000000
00110000
00001000
00010000
00001000
00000000
,  // measure 56
00001000
00010000
00100000
00010000
00000010
00010000
00001000
00000100
,  // measure 57
00000010
00000100
00001000
00000001
00000010
00000100
00000001
00000010
,  // measure 58
00000220
00000000
00000000
00000000
,  // measure 59
00000330
00000000
00000000
00000000
;
