#TITLE:ミコリザ4世;
#SUBTITLE:Remixed by DJ Command;
#ARTIST:DJ Command (秋葉工房);
#TITLETRANSLIT:mikoriza IV;
#SUBTITLETRANSLIT:;
#ARTISTTRANSLIT:DJ Command (akiba koubou);
#GENRE:;
#CREDIT:Thumbsy;
#MENUCOLOR:;
#METERTYPE:DDR;
#BANNER:mikorizaIV-bn.png;
#BACKGROUND:mikorizaIV-bg.png;
#LYRICSPATH:;
#CDTITLE:CDTitle.png;
#MUSIC:mikorizaIV.mp3;
#OFFSET:-0.589;
#SAMPLESTART:79.420;
#SAMPLELENGTH:12.000;
#SELECTABLE:YES;
#LISTSORT:;
#BPMS:0.000=167.990;
#STOPS:220.000=0.357
;
#BGCHANGES:;
#ATTACKS:;

//---------------dance-single - ----------------
#NOTES:
     dance-single:
     :
     Beginner:
     1:
     0.119,0.170,0.041,0.109,0.000:
0000
0000
0000
0000
,
0000
0000
0000
0000
,
0000
0000
0000
0000
,
0000
0000
0000
0000
,
0100
0000
0000
0000
,
0000
0000
0000
0000
,
0000
0000
0000
0000
,
0000
0000
0000
0000
,
1000
0000
0000
0000
,
0001
0000
0000
0000
,
1000
0000
0000
0000
,
1000
0000
0000
0000
,
1000
0000
0000
0000
,
0001
0000
0000
0000
,
1000
0000
0000
0000
,
0000
0000
0000
0000
,
1000
0000
0000
0000
,
0100
0000
0000
0000
,
0010
0000
0000
0000
,
0001
0000
1000
0000
,
0001
0000
0000
0000
,
0100
0000
0000
0000
,
0010
0000
0000
0000
,
1000
0000
0000
0000
,
1000
0000
0001
0000
,
1000
0000
0000
0000
,
0100
0000
0000
0000
,
1000
0000
0000
0000
,
0001
0000
0100
0000
,
0001
0000
1000
0000
,
0100
0000
0000
0000
,
1000
0000
0000
0000
,
1001
0000
0000
0000
,
1000
0000
0000
0000
,
0020
0000
0000
0030
,
0000
0000
0000
0000
,
1000
0000
0000
0000
,
1000
0000
0000
0000
,
0001
0000
0000
0000
,
0001
0000
0000
0000
,
1000
0000
0001
0000
,
0100
0000
0001
0000
,
2000
0000
0000
3000
,
0000
0000
0000
0000
,
1001
0000
0000
0000
,
1000
0000
0000
0000
,
0010
0000
0000
0000
,
0100
0000
0000
0000
,
0001
0000
0000
0000
,
1000
0000
0100
0000
,
1000
0000
0000
0000
,
0001
0000
0000
0000
,
1000
0000
0010
0000
,
1000
0000
0000
0000
,
0001
0000
1000
0000
,
0002
0000
0003
1000
,
0000
0010
0000
0100
,
0000
0000
0000
0001
,
0000
0010
0000
0100
,
0000
0000
0000
0100
,
0000
0000
0000
0010
,
0000
0000
0000
0110
,
0000
0000
0000
1001
,
0000
0000
0000
0100
,
0000
0001
0000
0010
,
0000
0000
0000
0100
,
0000
1000
0000
0010
,
0000
0000
0000
0002
,
0000
0003
0000
2000
,
0000
3000
0000
0020
,
0000
0030
0000
0200
,
0000
0300
0000
0002
,
0000
0000
0000
1000
,
0000
0000
0000
0100
,
0000
0000
0000
1000
,
0000
1000
0000
2000
,
0000
0000
0000
0000
,
0000
0000
0000
0000
,
0000
0000
0000
0003
,
0000
0001
0000
0200
,
0000
0000
0000
0000
,
0000
0000
0000
0000
,
0000
0000
0000
0000
,
0000
0300
0000
0020
,
0000
3000
0000
0230
,
0000
0302
0000
2000
,
0000
0000
0000
3003
,
0000
0000
0000
1001
,
0000
0000
0000
1000
,
0000
0100
0000
0010
,
0000
0000
0000
0001
,
0000
0010
0000
0100
,
0000
0000
0000
0010
,
0000
0000
0000
0001
,
0000
1000
0000
0100
,
0000
0010
0000
0220
,
0000
0000
0000
0000
,
0000
0000
0000
0000
,
0000
0000
0000
0000
,
0000
0000
0000
0330
;

//---------------dance-single - ----------------
#NOTES:
     dance-single:
     :
     Easy:
     4:
     0.248,0.306,0.061,0.191,0.000:
0000
0000
0000
0000
,
0000
0000
0000
0000
,
0000
0000
0000
0000
,
0000
0000
0000
0000
,
1000
0000
0000
0000
,
1000
0000
0000
0000
,
1000
0000
0000
0000
,
0001
0000
0000
0000
,
1001
0000
0000
0000
,
1100
0000
0000
0000
,
0101
0000
0000
0000
,
2000
0000
0000
3000
,
0101
0000
1000
0000
,
1100
0000
0001
0000
,
1001
0000
0010
0000
,
0001
1000
0001
1000
,
1000
0100
0010
0000
,
0001
0100
0010
0000
,
1000
0100
0010
0000
,
0002
0000
2000
3003
,
0001
0100
0010
0000
,
1000
0100
0010
0000
,
0001
0100
0010
0000
,
0200
0000
0020
0330
,
2000
0000
3200
0300
,
0010
0001
1000
0000
,
1000
0001
0100
0010
,
1000
0001
1000
0000
,
0001
1000
0001
0000
,
1000
0100
1000
0000
,
1000
0001
0100
0001
,
2000
0000
0000
3000
,
0001
0000
0010
0100
,
1000
0000
1000
0100
,
0020
0000
0000
0030
,
0010
0010
0010
0000
,
0001
1000
0000
0100
,
0000
0010
0000
0100
,
0000
1000
0000
0001
,
0000
0010
0000
0100
,
1000
0000
0001
0000
,
0100
0000
0001
1000
,
0020
0000
0000
0030
,
0010
0010
0010
0000
,
1000
0100
0000
0100
,
0000
0010
0000
0010
,
0000
0001
0000
0001
,
0000
1000
0000
1000
,
2000
3000
0001
1000
,
0100
0000
1000
0000
,
0100
0000
0001
0100
,
0020
0000
0000
0030
,
1000
0000
0001
0100
,
0002
0000
0000
0003
,
1000
0000
0100
0000
,
0011
0000
0000
1000
,
0000
0010
0000
0100
,
0001
1000
0100
1000
,
0000
0100
0000
0010
,
0001
0100
0010
2000
,
0000
0000
3000
0002
,
0000
0000
0003
0010
,
0000
0100
1000
0001
,
0000
0100
0000
0010
,
0000
0100
0000
0001
,
1000
0100
1000
0001
,
0000
0100
0000
0010
,
1000
0010
0100
0002
,
0000
0000
0003
2000
,
0000
0000
3000
0100
,
0010
0100
0010
0110
,
0000
2000
3000
0002
,
1000
0000
1000
0000
,
0100
0000
0100
0000
,
0010
0000
0010
0000
,
0100
0000
0103
2000
,
0100
0000
0100
0000
,
0010
0000
0010
0000
,
0001
0000
0001
0000
,
0010
0000
0010
3000
,
1000
0100
1000
0100
,
1000
0100
1000
0000
,
0001
0100
0001
0100
,
0001
0100
0001
2000
,
0000
0000
3000
0200
,
0300
0020
0030
0002
,
0000
0000
0000
0000
,
0000
1000
1003
2000
,
3000
0020
0030
1000
,
0001
0010
0100
1000
,
0001
1000
0000
0001
,
0100
0001
0000
1000
,
0100
0001
0000
1000
,
0010
0001
0000
1000
,
0010
0100
0001
0010
,
0000
0001
0000
0220
,
0000
0000
0000
0000
,
0000
0000
0000
0000
,
0000
0000
0000
0000
,
0000
0000
0000
0330
;

//---------------dance-single - ----------------
#NOTES:
     dance-single:
     :
     Medium:
     6:
     0.386,0.510,0.102,0.313,0.010:
0000
0000
0000
0000
,
0000
0000
0000
0000
,
0000
0000
0000
0000
,
0000
0000
0000
0000
,
0000
0000
1000
0000
0001
0001
0000
0000
,
0000
0000
1000
0000
0001
0001
0000
0000
,
0000
0000
1000
0000
0001
0001
0000
0100
,
0000
0000
0000
0010
0000
0000
0000
0000
,
1001
0000
0000
0000
1000
0001
0000
0000
,
0101
0000
0000
0000
0001
0100
0000
0000
,
0110
0000
0000
0000
0010
0100
0000
0000
,
2002
0000
0000
3003
,
1000
0000
0100
0000
1000
0100
0000
0000
,
0001
0000
0100
0000
0001
0100
0000
0000
,
1000
0000
0001
0000
0001
1000
0000
0001
,
0000
0000
0000
1000
0000
0001
1000
0001
,
1000
0100
0010
0001
,
1000
0100
0010
0001
,
1000
0000
0100
0000
1000
0000
0001
2000
,
0000
3000
0000
0002
0000
0003
0000
0000
,
1000
0010
0100
0001
,
1000
0010
0100
0001
,
1000
0000
0010
0000
1000
0000
0001
2000
,
0000
0000
0000
3000
,
0001
0000
0000
0001
1000
0000
0100
0000
,
0010
0100
1000
0001
,
0010
0100
0010
0000
0001
0000
1000
0000
,
0100
0010
0001
0010
,
1000
0100
1000
0000
1000
0001
1000
0000
,
1000
0010
1000
0000
0001
0000
0100
0000
,
0010
1000
0010
0000
1000
0000
0001
2000
,
0000
0000
0000
3000
,
1001
0100
0010
0001
,
1000
0001
0010
0100
,
2000
0000
0000
3000
,
0002
0000
0000
0003
0000
1000
0100
1000
,
0000
0000
0000
1000
0000
0000
0000
0001
,
0000
0000
0000
1000
0000
0000
0000
0001
,
0000
0000
0000
0100
0000
0000
0000
0000
,
0010
1000
0001
0100
,
1001
0010
0100
0001
,
0010
0100
0010
0001
,
2000
0000
0000
3000
,
0002
0000
0000
0003
0000
0100
0010
0100
,
0000
0000
0000
0001
0000
0000
0000
0100
,
0000
0000
0000
0001
0000
0000
0000
0100
,
0000
0000
0000
0010
0000
0000
0000
0000
,
1000
0100
0001
0100
,
2000
0000
3001
0000
0100
0010
0100
0000
,
0001
0000
1000
0000
0100
0010
0100
0000
,
1000
0000
0001
0000
1000
0100
1000
0000
,
0001
0001
0001
0001
,
1000
0000
0100
0000
1000
0001
1000
0001
,
0000
0001
1000
0000
0010
0000
0100
0000
,
0001
0000
0000
1000
0000
0000
1001
0000
1001
0000
1001
0000
,
0000
0000
0000
1000
,
1000
0000
0010
0000
0010
0100
0000
0001
,
0000
1000
0100
0000
1000
0000
0001
0000
,
0001
0000
0100
0000
0100
0010
0000
1000
,
0000
0001
0010
0000
0100
0000
1000
0000
,
0001
0100
0010
0100
,
0001
1000
0001
2000
,
3000
0000
0000
0001
0100
1000
0000
0000
,
0000
1100
0101
0010
,
0010
0000
0001
0000
0001
0010
0000
0100
,
0000
1000
0001
0000
0001
0000
0100
0000
,
0100
0000
1000
0000
1000
0010
0000
0100
,
0000
0010
1000
0000
0001
0000
2000
0000
,
3200
0320
0032
2003
,
3200
0302
0203
2300
,
0000
0000
0000
3002
,
0000
0000
0000
2003
,
3100
0020
0130
0020
,
0031
0200
0310
2000
,
3100
0020
0031
0020
,
0031
0200
0310
2000
,
0001
0100
3001
0002
,
1000
0100
1003
2000
,
0001
0010
3001
0002
,
1000
0010
1003
0200
,
0001
1000
0301
0020
,
1000
0001
1030
0200
,
1000
0001
1300
0020
,
0001
1000
0031
2000
,
0000
0000
0000
0002
,
3003
2200
3300
0202
,
0000
0000
0300
0000
0003
0000
1000
0001
,
1000
0001
1000
0000
0001
0000
1000
0000
,
0000
0001
0100
0000
0010
0000
1000
0000
,
0100
0000
1000
0000
0001
0000
1000
0100
,
1000
0100
0010
0001
,
0010
0000
0100
0000
1000
0000
0001
0010
,
0001
0000
0001
1000
0001
0000
0001
0100
,
0001
0000
1000
0000
0010
0000
0100
0001
,
0100
0000
0000
0000
0010
0000
0000
0000
1000
0000
0000
0000
1000
0000
0000
0010
,
0000
0100
0000
0001
1000
0100
1100
2200
,
0000
0000
0000
0000
,
0000
0000
0000
0000
,
0000
0000
0000
0000
,
0000
0000
0000
3300
;

//---------------dance-single - ----------------
#NOTES:
     dance-single:
     :
     Hard:
     7:
     0.484,0.612,0.252,0.266,0.017: // measure 1
0000
0000
0000
0000
,  // measure 2
0000
0000
0000
0000
,  // measure 3
0000
0000
0000
0000
,  // measure 4
0000
0000
0000
0000
,  // measure 5
1000
0100
1000
0000
0001
0100
0000
0000
,  // measure 6
0001
0100
0001
0000
1000
0100
0000
0000
,  // measure 7
1000
0100
1000
0000
1000
0100
0000
0002
,  // measure 8
0000
0000
0000
2000
0000
0000
3003
0000
,  // measure 9
1001
0000
0000
0000
0001
0100
0000
0000
,  // measure 10
0110
0000
0000
0000
1000
0010
0000
0000
,  // measure 11
1100
0000
0000
0000
0001
0010
0000
0000
,  // measure 12
1001
0000
0000
0100
0000
0100
0001
1000
,  // measure 13
1001
0000
1000
0000
0100
1000
0000
0001
,  // measure 14
0101
0000
0010
0000
1000
0010
0000
1000
,  // measure 15
1100
0000
0010
0000
0001
0010
0000
1001
,  // measure 16
0000
0000
0000
0011
0000
1000
0010
0100
,  // measure 17
0001
0000
1000
0000
0100
0010
0000
0010
,  // measure 18
0100
0000
1000
0000
0001
0100
0000
0100
,  // measure 19
0001
0000
1000
0000
0100
0010
0000
0010
,  // measure 20
0200
1300
0002
0013
,  // measure 21
0010
0000
0001
0000
1000
0100
0000
0001
,  // measure 22
0100
0000
1000
0000
0001
0100
0000
1000
,  // measure 23
0100
0000
0100
0001
0010
0001
0100
0020
,  // measure 24
0000
0030
1000
0001
0100
0001
1000
0000
,  // measure 25
1100
0000
0001
0000
0100
0000
0010
0100
,  // measure 26
0000
0100
0000
0100
0010
0000
1000
0000
,  // measure 27
0001
1000
0001
1000
0000
0001
0000
0100
,  // measure 28
0000
0010
0000
1000
0000
0100
0000
0000
,  // measure 29
1000
0010
0100
0001
0100
0010
1000
0100
,  // measure 30
0010
0000
0000
0001
0000
0000
1000
0000
0000
0000
0010
0000
1000
0000
0000
0000
,  // measure 31
0001
0001
0001
0000
0001
0010
0001
0020
,  // measure 32
0000
0000
0000
0030
,  // measure 33
0010
0001
0100
1000
,  // measure 34
0100
0010
0001
1000
,  // measure 35
0200
0010
0001
1300
,  // measure 36
0100
0000
0010
0000
0001
0000
1000
0001
,  // measure 37
0000
1000
0100
0001
0000
1000
0100
0001
,  // measure 38
0000
1000
0010
0001
0000
1000
0010
0001
,  // measure 39
0000
1000
0100
0010
0000
0001
0100
0010
,  // measure 40
0000
1000
0000
0100
0000
0010
0001
0000
,  // measure 41
1001
0100
0010
0100
,  // measure 42
0001
1000
0001
1000
,  // measure 43
0200
1000
0001
0310
,  // measure 44
0001
0000
1000
0000
0100
0000
0010
0100
,  // measure 45
0000
0001
0100
1000
0000
0001
0100
1000
,  // measure 46
0000
0001
0010
1000
0000
0001
0010
1000
,  // measure 47
0000
1000
0010
0001
0000
0001
0100
1000
,  // measure 48
0000
1000
0000
0100
0001
0100
1000
0100
,  // measure 49
0001
0001
0100
0010
,  // measure 50
0100
0100
0010
1000
,  // measure 51
0200
0000
0300
0000
1000
0001
0100
0001
,  // measure 52
0000
0001
0000
0001
1000
0000
0100
0000
,  // measure 53
0010
0000
0001
0000
0100
0010
1000
0001
,  // measure 54
0000
1000
0000
0100
0010
0000
0001
0000
,  // measure 55
1000
0000
0000
0001
0000
0000
0110
0000
1100
0000
1001
0000
,  // measure 56
0000
0000
0000
1000
,  // measure 57
0100
0000
1000
0000
0010
1000
0000
0100
,  // measure 58
0000
0010
0100
0000
0010
0000
0001
0000
,  // measure 59
0100
0000
0010
1000
0001
0010
0000
0100
,  // measure 60
0000
0010
0001
0000
1000
0000
0100
0000
,  // measure 61
1000
0020
0030
0000
0100
0000
0002
0000
,  // measure 62
0003
0000
2000
0000
3000
0000
0001
0010
,  // measure 63
0100
0000
1000
0100
0010
0001
0000
0001
,  // measure 64
1000
2002
0000
0000
3003
0000
0001
0000
,  // measure 65
0100
0000
0001
0000
1000
0100
0000
0010
,  // measure 66
0000
0100
1000
0000
0001
0000
0100
0010
,  // measure 67
1000
0001
0100
0000
0100
0010
0000
0100
,  // measure 68
0000
0001
0010
0000
0100
0000
2000
0000
,  // measure 69
3000
0002
0003
0000
1000
0000
0100
0000
,  // measure 70
0010
0000
0100
0000
1000
0000
0001
0100
,  // measure 71
0010
0000
0010
0100
0001
1000
0000
0000
,  // measure 72
1000
1010
0000
2100
,  // measure 73
0001
0010
3001
0210
,  // measure 74
1000
0001
0310
1020
,  // measure 75
0100
1000
0130
1002
,  // measure 76
0100
0000
0013
0000
1000
0001
0200
0000
,  // measure 77
1000
0001
1300
0120
,  // measure 78
1000
0001
1030
0201
,  // measure 79
1000
0001
0310
0102
,  // measure 80
0010
1000
0103
2100
,  // measure 81
0100
0001
3001
0102
,  // measure 82
0100
1000
1003
0210
,  // measure 83
0001
0010
0310
1010
,  // measure 84
0001
0100
0000
0101
0000
0000
2020
0000
,  // measure 85
0000
0000
3030
0202
,  // measure 86
0303
0022
0033
2200
,  // measure 87
0000
0000
0000
0000
3300
0000
1000
0100
,  // measure 88
0010
0001
0010
0100
1000
0001
2000
0000
,  // measure 89
3001
0100
0001
0000
1000
0100
0000
0100
,  // measure 90
0000
0010
0001
0000
0100
0000
0010
1000
,  // measure 91
0001
0100
0010
1000
0000
1000
0000
0100
,  // measure 92
0000
0010
0000
0002
0003
0000
1000
0100
,  // measure 93
0001
0000
0100
0000
1000
0000
0100
0000
0001
0000
0100
0000
1000
0000
0000
0100
,  // measure 94
0000
0010
0000
0001
0100
0010
0000
1000
,  // measure 95
0001
0000
0100
0000
0000
0000
0010
0000
0100
0000
0010
0000
0110
0000
0000
1010
,  // measure 96
0000
1001
0000
1000
0100
0010
0110
2002
,  // measure 97
0000
0000
0000
0000
,  // measure 98
0000
0000
0000
0000
,  // measure 99
0000
0000
0000
0000
,  // measure 100
0000
0000
0000
3003
;
