#TITLE:Vision Of Paradise;
#SUBTITLE:;
#ARTIST:J. Storm;
#TITLETRANSLIT:;
#SUBTITLETRANSLIT:;
#ARTISTTRANSLIT:;
#CREDIT:;
#BANNER:bn.PNG;
#BACKGROUND:bg.PNG;
#LYRICSPATH:;
#CDTITLE:;
#MUSIC:Vision Of Paradise.ogg;
#OFFSET:-0.020;
#SAMPLESTART:36.440;
#SAMPLELENGTH:15.180;
#SELECTABLE:YES;
#BPMS:0.000=158.000;
#STOPS:;
#BGCHANGES:;

//---------------dance-single - ----------------
#NOTES:
     dance-single:
     :
     Hard:
     8:
     0.580,0.614,0.303,0.673,0.053:
0000
0000
0000
0000
,
0000
0000
0000
0000
,
0000
0000
0000
0000
,
0000
0000
0000
0000
,
1100
0000
0011
0000
0001
0200
0000
0320
,
0000
2030
0000
3001
0020
0000
0032
0000
,
0103
0010
1000
0010
0100
0001
0010
0001
,
0101
0000
0000
0100
0000
0000
0110
0000
0000
0010
0000
0000
1010
0000
0000
0000
,
0010
0000
0100
0000
0001
0010
0000
0001
,
0000
0100
0000
0010
0000
1000
0000
0100
,
0010
0001
0010
1000
0010
0001
0100
0010
,
1000
0000
0001
0020
0000
0032
0000
0103
,
0010
0000
1000
0000
0100
1000
0100
0000
,
0020
0000
0000
0032
0000
0000
0203
0000
,
0310
1000
0100
0001
0100
1000
0010
0100
,
0202
0000
0303
0022
0000
0033
0010
0100
,
1000
0000
1001
0000
0001
0010
1000
0010
,
0000
0001
0100
0010
1000
0001
1000
0001
,
0010
0000
0011
0000
0001
0010
0100
2000
,
0000
3020
0000
0230
0000
0302
0000
1003
,
0010
0000
1010
0000
0010
0100
0001
0010
,
0000
0001
0000
1000
0100
1000
0001
0010
,
0001
0100
0010
1000
0010
0100
0001
0000
,
0022
0000
0033
0120
0000
0000
1030
0000
,
0020
0001
0100
0031
,
0010
0001
0100
0010
1000
0000
1010
0000
,
0020
1000
0100
1030
,
0100
1000
0010
0100
0001
0000
0011
0000
,
0020
0000
0000
0230
0000
0000
2300
0000
,
3020
0000
0000
0230
0000
0000
0302
0000
,
0013
0001
0100
0010
1000
0100
0001
0100
,
1000
0010
0000
0100
0001
0000
0010
0000
,
0021
0000
0000
0230
0000
0000
2300
0000
,
3002
0000
0000
0023
0000
0000
0032
0000
,
0103
0010
1000
0010
0100
0001
0010
0100
,
1000
0010
0110
0101
,
0002
0000
0000
0023
0000
0000
0230
0000
,
2300
0001
3010
0002
,
1003
0010
0100
0001
1000
0100
0001
0100
,
1000
0010
0001
0010
0000
0000
0000
0000
,
1010
0000
1100
0000
0100
0020
0000
0032
,
0000
2003
0000
3010
2000
0000
3002
0000
,
0013
0001
0100
0010
1000
0100
0010
0001
,
1000
0000
0000
0001
0000
0000
0010
0000
0000
0001
0000
0000
0100
0000
0010
0000
,
1010
0000
1100
0000
0100
0020
0000
0032
,
0000
2003
0000
3010
2000
0000
3200
0000
,
0310
0001
0100
0010
1000
0100
0010
0001
,
0011
0000
0000
0001
0000
0000
0101
0000
0000
0100
0000
0000
0010
1000
0001
0100
,
0020
0000
0000
0000
,
0030
0000
0000
0000
;

//---------------dance-double - ----------------
#NOTES:
     dance-double:
     :
     Hard:
     7:
     0.565,0.614,0.277,0.765,0.053:
00000000
00000000
00000000
00000000
,
00000000
00000000
00000000
00000000
,
00000000
00000000
00000000
00000000
,
00000000
00000000
00000000
00000000
,
11000000
00000000
00110000
00000000
00010000
02000000
00000000
03002000
,
00000000
00023000
00000000
00030100
00002000
00000000
00003020
00000000
,
00000130
00000001
00000010
00000100
00001000
00000010
00010000
00001000
,
00011000
00000000
00000000
00001000
00000000
00000000
00101000
00000000
00000000
00100000
00000000
00000000
01100000
00000000
00000000
00000000
,
01000000
00000000
10000000
00000000
00100000
00010000
00000000
00001000
,
00000000
00000100
00000000
00000001
00000000
00000010
00000000
00000100
,
00001000
00000000
00010000
00000000
00100000
10000000
00100000
00000000
,
01000000
00000000
00010000
00200000
00000000
00302000
00000000
00013000
,
00000100
00000000
00000010
00000000
00000001
00000100
00000001
00000000
,
00002000
00000000
00000000
00003200
00000000
00000000
00020300
00000000
,
00031000
00000000
00100000
00000000
01000000
10000000
01000000
00000000
,
01100000
00000000
00100000
00210000
00000000
00000000
00310000
00000000
,
00101000
00000000
00001000
00000000
00010000
00000100
00001000
00000010
,
00000000
00000100
00000001
00000010
00000200
00000000
00001300
00000000
,
00001100
00000000
00000100
00000000
00010000
00002000
00000000
00203000
,
00000000
02300000
00000000
23000000
00000000
30200000
00000000
01300000
,
00010000
00000000
00100000
00001000
00000010
00000001
00000000
00000100
,
00000000
00000010
00000000
00001000
00000100
00010000
00001000
00100000
,
00010000
00000000
10000000
01000000
00000000
00010000
00001000
00000000
,
00002200
00000000
00003300
00000210
00000000
00000000
00000310
00000000
,
00000200
00000000
00000000
00002300
00000000
00000000
00003002
00000000
,
00000103
00001000
00010000
00100000
10000000
00000000
10100000
00000000
,
00200000
00000000
00000000
02300000
00000000
00000000
03020000
00000000
,
00130000
00001000
00010000
00000100
00001000
00000000
00001010
00000000
,
00000020
00000000
00000000
00000230
00000000
00000000
00000302
00000000
,
00000023
00000000
00000000
00000230
00000000
00000000
00002300
00000000
,
00003100
00010000
00001000
00100000
00010000
10000000
01000000
10000000
,
00100000
01000000
00010000
00100000
00002000
00000000
00023000
00000000
,
00030200
00000000
00000000
00002300
00000000
00000000
00003020
00000000
,
00000230
00000000
00000000
00000302
00000000
00000000
00000023
00000000
,
00000130
00001000
00000010
00010000
00001000
00100000
00010000
10000000
,
01000000
00010000
00011000
00001100
,
00000020
00000000
00000000
00000032
00000000
00000000
00000203
00000000
,
00000320
00000000
00000000
00002030
00000000
00000000
00003200
00000000
,
00010300
00001000
00100000
00010000
10000000
01000000
00010000
00001000
,
00000100
00000001
00000010
00000200
00000000
00000000
00000300
00000000
,
00001100
00000000
00010100
00000000
00010000
00002000
00000000
00203000
,
00000000
00320000
00000000
10030000
02000000
00000000
03020000
00000000
,
00031000
00000100
00000001
00000010
00000100
00001000
00000010
00010000
,
00001000
00000000
00000000
00100000
00000000
00000000
00010000
00000000
00000000
10000000
00000000
00000000
01000000
00000000
00100000
00000000
,
00110000
00000000
00011000
00000000
00001000
00000200
00000000
00000302
,
00000000
00000023
00000000
00000130
00002000
00000000
00003200
00000000
,
00010300
00001000
00100000
00010000
10000000
01000000
00100000
00010000
,
00011000
00000000
00000000
00001000
00000000
00000000
00001100
00000000
00000000
00000100
00000000
00000000
00000010
00000001
00000100
00000010
,
00002000
00000000
00000000
00000000
,
00003000
00000000
00000000
00000000
;

//---------------dance-single - ----------------
#NOTES:
     dance-single:
     :
     Medium:
     5:
     0.362,0.412,0.158,0.000,0.000:
0000
0000
0000
0000
,
0000
0000
0000
0000
,
0000
0000
0000
0000
,
0000
0000
0000
0000
,
1000
0000
0001
0000
0000
0010
0000
0001
,
0000
0100
0000
0000
0010
0000
1000
0000
,
0100
0010
0100
0000
0010
0001
0010
0000
,
0001
0000
0000
1000
0000
0000
1001
0000
,
0001
0000
0010
0000
0001
0100
0000
0010
,
0000
1000
0000
0100
0000
0001
0000
0100
,
1000
0010
0100
0001
,
0010
0000
0001
0010
0000
0001
0000
0000
,
0010
0000
0100
0000
1000
0010
1000
0000
,
0010
0000
0000
0100
0000
0000
0001
0000
,
1000
0000
0010
0000
0100
0001
0100
0000
,
0001
0000
0000
0010
0000
0000
0100
0000
,
1100
0000
1000
0000
0010
0100
0010
0100
,
0000
0001
0010
0001
0010
0000
0100
0000
,
1000
0000
0001
0000
0010
0001
0000
0100
,
0000
0010
0000
1000
0000
0100
0000
0001
,
0100
0000
1000
0010
1000
0010
0000
0100
,
0000
0001
0000
0010
0001
0000
1000
0000
,
0010
0000
0000
0100
0000
0000
0001
0000
,
0011
0000
0000
0110
0000
0000
1100
0000
,
1000
0000
0000
0010
0000
0000
0100
0000
,
0001
0000
0010
0001
0100
0000
0101
0000
,
0100
0000
0000
0010
0000
0000
1000
0000
,
0100
0000
0010
0001
1000
0000
1001
0000
,
1000
0000
0000
0010
0000
0000
0100
0000
,
0001
0000
0000
0010
0000
0000
0100
0000
,
1000
0000
0010
1000
0010
0000
0100
0000
,
0001
0100
0001
0000
0010
0000
0001
0000
,
0100
0000
0000
0010
0000
0000
1000
0000
,
0100
0000
0000
0001
0000
0000
0100
0000
,
1000
0010
0100
0001
,
1001
0000
0001
0010
,
0001
0000
0000
0100
0000
0000
0010
0000
,
1000
0000
0000
0100
0000
0000
0010
0000
,
0001
0010
0001
0000
1000
0010
1000
0000
,
0001
0100
0001
1000
0000
0000
0000
0000
,
1001
0000
1001
0000
0000
0001
0000
0010
,
0000
1000
0000
0000
0010
0000
0001
0000
,
0100
0001
0100
0000
0010
1000
0010
0000
,
1000
0000
0000
0001
0000
0000
0010
0000
,
0011
0000
0011
0000
0000
0010
0000
0100
,
0000
1000
0000
0000
0010
0000
0100
0000
,
0001
1000
0001
0000
1000
0010
1000
0000
,
0010
0000
0000
0100
0000
0000
0001
1000
,
0001
0000
0000
0000
;

//---------------dance-single - ----------------
#NOTES:
     dance-single:
     :
     Easy:
     3:
     0.220,0.253,0.026,0.000,0.000:
0000
0000
0000
0000
,
0000
0000
0000
0000
,
0000
0000
0000
0000
,
1000
0000
0000
0000
,
0001
0000
0010
0000
,
0001
0100
0001
0000
,
1000
0000
0100
1000
,
0100
0000
0010
0000
,
0001
0000
1000
0010
,
1000
0000
0001
0000
,
0010
0000
0001
0000
,
0100
0010
0100
0000
,
0010
0000
1000
0010
,
1000
0000
0010
0000
,
0100
0000
0001
0000
,
0010
0000
0001
0100
,
0001
0000
1000
0000
,
0100
0000
0010
0000
,
0001
1000
0001
0000
,
1000
0000
0010
0100
,
0010
0000
0100
0000
,
0001
0000
0010
0000
,
0100
0000
1000
0000
,
0010
0000
0110
0000
,
0001
0000
1000
0000
,
0001
1000
0001
0000
,
0010
0000
0100
0000
,
1000
0010
1000
0000
,
0010
0000
0100
0000
,
0001
0000
0010
0000
,
0001
0000
0100
0000
,
0010
0000
1000
0010
,
1000
0000
0001
0010
,
0001
0000
1000
0100
,
1000
0000
0001
0100
,
0001
0000
1000
0010
,
1000
0000
0001
0000
,
0010
0000
0001
0000
,
0100
0010
0100
0000
,
0010
1000
0010
0000
,
1000
1000
0000
0001
,
0001
0000
0010
0010
,
0001
0100
0001
0000
,
1000
0100
1000
0000
,
0001
0001
0000
1000
,
1000
0000
0010
0100
,
0001
0010
0001
0000
,
1000
0010
1000
0000
,
1001
0000
0000
0000
;

//---------------dance-single - ----------------
#NOTES:
     dance-single:
     :
     Beginner:
     1:
     0.113,0.190,0.013,0.000,0.000: // measure 1
0000
0000
0000
0000
,  // measure 2
0000
0000
0000
0000
,  // measure 3
0000
0000
0000
0000
,  // measure 4
0000
0000
0000
0000
,  // measure 5
1000
0000
0000
0000
,  // measure 6
0001
0000
0000
0000
,  // measure 7
0010
0000
0000
0000
,  // measure 8
0001
0000
0001
0000
,  // measure 9
0001
0000
0000
0000
,  // measure 10
0100
0000
0000
0000
,  // measure 11
0010
0000
0000
0000
,  // measure 12
1000
0000
1000
0000
,  // measure 13
1000
0000
0000
0000
,  // measure 14
0100
0000
0000
0000
,  // measure 15
0010
0000
0000
0000
,  // measure 16
0001
0000
0001
0000
,  // measure 17
0001
0000
0000
0000
,  // measure 18
1000
0000
0000
0000
,  // measure 19
0010
0000
0000
0000
,  // measure 20
0100
0000
0000
0000
,  // measure 21
0001
0000
0000
0000
,  // measure 22
0010
0000
0000
0000
,  // measure 23
0001
0000
0000
0000
,  // measure 24
1000
0000
0000
0000
,  // measure 25
0001
0000
0000
0000
,  // measure 26
0010
0000
0010
0000
,  // measure 27
0010
0000
0000
0000
,  // measure 28
0001
0000
0001
0000
,  // measure 29
0001
0000
0000
0000
,  // measure 30
1000
0000
0000
0000
,  // measure 31
0100
0000
0000
0000
,  // measure 32
0010
0000
0010
0000
,  // measure 33
0010
0000
0000
0000
,  // measure 34
0001
0000
0001
0000
,  // measure 35
0001
0000
0000
0000
,  // measure 36
1000
0000
1000
0000
,  // measure 37
1000
0000
0000
0000
,  // measure 38
0010
0000
0010
0000
,  // measure 39
0010
0000
0000
0000
,  // measure 40
0100
0100
0000
0000
,  // measure 41
0001
0000
0000
0000
,  // measure 42
0010
0000
0000
0000
,  // measure 43
0001
0000
0001
0000
,  // measure 44
1000
0000
1000
0000
,  // measure 45
0001
0000
0000
0000
,  // measure 46
1000
0000
0000
0000
,  // measure 47
0010
0000
0010
0000
,  // measure 48
0100
0000
0100
0000
,  // measure 49
1001
0000
0000
0000
;
