#TITLE:Up Where We Belong;
#SUBTITLE:;
#ARTIST:Judy Crystal and Frog A' Billy;
#TITLETRANSLIT:;
#SUBTITLETRANSLIT:;
#ARTISTTRANSLIT:;
#CREDIT:;
#BANNER:Up Where We Belong.png;
#BACKGROUND:Up Where We Belong-bg.png;
#LYRICSPATH:;
#CDTITLE:;
#MUSIC:Up Where We Belong.mp3;
#OFFSET:-0.040;
#SAMPLESTART:50.100;
#SAMPLELENGTH:14.020;
#SELECTABLE:YES;
#BPMS:0.000=172.390;
#STOPS:;
#BGCHANGES:;

//---------------dance-single - ----------------
#NOTES:
     dance-single:
     :
     Hard:
     9:
     0.691,0.608,0.048,0.132,0.287:
0000
0000
0000
0000
,
0000
0000
0000
0000
,
0000
0000
0000
0000
,
0000
0000
0000
0000
,
1000
0000
0010
0000
0100
0000
0000
0001
0000
0000
0010
0000
0001
0000
0000
0000
,
0100
0010
1000
0100
0010
0001
1000
0010
,
0100
0100
0001
0001
0010
0010
0100
0100
,
1000
0000
0000
1000
0010
0000
0000
0010
0200
0000
0000
0000
0300
0000
0000
0000
,
0001
0100
0010
0100
0001
0100
0010
1000
,
0010
0100
0001
0010
0001
0100
0010
1000
,
0100
1000
0010
0100
0001
0010
0001
0100
,
1000
0100
0001
0010
1000
0010
0001
0000
,
0010
0001
0100
0010
0100
0001
0100
0010
,
1000
0100
0010
0001
1000
0010
1000
0010
,
0100
0001
0010
0001
0100
0010
1000
0100
,
0010
0001
0000
0011
0000
0110
0000
0100
,
1000
0010
0100
0001
0100
0010
1000
0100
,
0010
0001
0010
0100
1000
0010
0001
0010
,
1000
0100
0010
0001
0100
0010
1000
0001
,
0010
0001
0100
0010
1000
0100
0001
0000
,
0100
1000
0010
0100
0001
0010
0001
0100
,
0010
1000
0001
0010
0001
1000
0010
1000
,
0100
0001
0100
1000
0010
0100
0001
0100
,
0010
1000
0000
0000
1000
0100
0000
0000
0100
0010
0000
0000
0010
0001
0000
0000
,
1000
0000
0001
0000
0000
0010
0000
0000
0001
0000
0000
0100
0000
0000
0010
0000
,
1000
0000
0100
0000
0000
0001
0000
0000
0100
0000
0000
1000
0000
0000
0010
0000
,
0100
0000
0001
0000
0000
0010
0000
0000
0001
0000
0000
0100
0000
0000
0010
0000
,
1000
0000
0100
0000
0000
0001
0000
0000
0100
0000
0000
1000
0000
0000
0010
0000
,
0100
0000
0001
0000
0000
0010
0000
0000
0001
0000
0000
1000
0000
0000
0010
0000
,
1000
0000
0100
0000
0000
0010
0000
0000
0001
0000
0000
0100
0000
0000
0010
0000
,
1000
0000
0001
0000
0000
0010
0000
0000
0001
0000
0000
0100
0000
0000
0010
0000
,
1000
0000
0100
0000
0000
0001
0000
0000
0100
0000
0000
1000
0000
0000
0010
0000
,
0100
0000
0001
0000
0000
0010
0000
0000
0001
0000
0000
0100
0000
0000
0010
0000
,
1000
0000
0100
0000
0000
0010
0000
0000
0001
0000
0000
1000
0000
0000
0010
0000
,
1000
0000
0010
0000
0000
0100
0000
0000
0001
0000
0000
0010
0000
0000
0100
0000
,
1000
0010
0100
0001
0010
0100
1000
0001
,
1001
0000
0000
0000
0001
1000
0000
0000
1000
0010
0000
0000
0010
0100
0000
0000
,
0100
0001
0000
0000
0001
0010
0000
0000
0010
0100
0000
0000
0100
0000
1000
0000
,
0010
1000
0001
0010
0002
0000
0013
0000
,
0001
0100
0010
1000
0100
0001
0100
1000
,
0020
0130
0002
0023
,
0031
0100
0010
1000
0100
0001
0100
1000
,
0020
0130
0002
2003
,
3010
1000
0100
0010
0001
0100
0010
1000
,
1010
0000
0000
0000
0010
0100
0000
0000
0100
0001
0000
0000
0001
0010
0000
0000
,
0010
1000
0000
0000
1000
0010
0000
0000
0010
0001
0000
0000
0100
0000
0010
0000
,
1000
0100
0001
0100
2000
0000
3010
0000
,
0100
0000
0001
0000
0010
0000
0001
0000
0100
0000
0000
0010
0000
0000
0100
0000
,
0010
1000
0001
0100
0001
0010
0100
1000
,
0020
0000
0000
0000
0130
0000
0000
0000
0001
0000
0000
1000
0000
0000
0010
0000
,
0100
0001
0100
0001
0010
0001
0010
0001
,
0010
0100
0010
0100
1000
0100
1000
0100
,
1000
0000
0010
0000
1000
0000
0000
0001
0000
0000
0010
0000
0001
0000
0000
0000
,
0100
0001
0010
0100
1000
0010
1000
0001
,
0010
0000
0001
0000
1000
0000
0000
0100
0000
0000
1000
0000
0010
0000
0000
0000
,
0100
0001
0010
0001
0100
0010
1000
0010
,
0100
0000
0001
0000
1000
0000
0000
0010
0000
0000
1000
0000
0100
0000
0000
0000
,
0010
0001
1000
0010
0100
0001
1000
0100
,
0010
0010
0001
0001
0100
0100
0010
0010
,
1000
0000
0000
1000
0001
0000
0000
0001
0020
0000
0000
0000
0030
0000
0000
0000
;

//---------------dance-single - ----------------
#NOTES:
     dance-single:
     :
     Medium:
     6:
     0.506,0.608,0.060,0.359,0.000:
0000
0000
0000
0000
,
0000
0000
0000
0000
,
0000
0000
0000
0000
,
0000
0000
0000
0000
,
1000
0000
0001
0100
0001
0000
1000
0000
,
0010
1000
0010
0000
0100
0001
0100
0000
,
0001
0000
0010
0000
0100
0000
1000
0010
,
1000
0010
0110
0000
,
0100
0001
0010
0001
,
0100
0000
0010
0000
1000
0000
0100
1000
,
0100
0010
0001
1000
,
0010
0000
0100
0000
0001
0000
0010
0001
,
0010
0001
0100
0010
,
1000
0000
0001
0000
0100
0000
0010
1000
,
0010
0000
1000
0000
0100
0000
0010
0001
,
0010
0000
0000
0001
0100
0000
0000
0010
,
1000
0100
1000
0100
,
0010
0000
0001
0000
1000
0000
0010
0100
,
0010
0100
0001
0010
,
1000
0000
0010
0000
0001
0000
0100
0001
,
0100
0010
1000
0100
,
0010
0000
0001
0000
1000
0000
0010
1000
,
0010
0000
0100
0000
0001
0000
0010
0001
,
0020
0230
2300
3002
,
0013
0000
0001
0000
0100
0000
0010
1000
,
0010
0000
1000
0000
0100
0000
0010
0001
,
0010
0000
0001
0000
0100
0000
0010
1000
,
0010
0000
1000
0000
0100
0000
0010
0001
,
0010
0000
0001
0000
0100
0000
0010
0100
,
0010
0000
1000
0000
0001
0000
0010
0001
,
0010
0000
0001
0000
0100
0000
0010
1000
,
0010
0000
1000
0000
0100
1000
0100
0000
,
0010
0001
1000
0010
,
1000
0000
0001
0000
0010
0000
0001
0100
,
0001
0100
0010
1000
,
0100
1000
0100
0000
0010
0001
0010
0001
,
0010
0002
0023
0230
,
2300
0000
3020
0000
0230
0000
0301
1000
,
0001
0010
0001
0100
,
0010
0000
1000
0000
0100
0000
0010
0001
,
0020
0031
0200
0320
,
1030
0000
0001
0000
0010
0000
0001
0100
,
0002
0103
0020
2030
,
3100
0010
0100
0000
0010
0001
0010
0000
,
0011
0002
0203
0320
,
2030
0000
3200
0000
0320
0000
0031
0010
,
0001
0010
0100
1000
,
0010
0000
0100
0000
0001
0000
1000
0001
,
2000
3010
2000
3002
,
0013
0000
0001
0000
0100
0000
0010
0100
,
0020
1030
0002
2003
,
3100
1000
0100
0000
0010
0001
0010
0000
,
0001
0000
0100
0001
0100
0000
0010
0000
,
1000
0001
0010
0001
,
1000
0000
0010
1000
0010
0000
0100
0000
,
0001
0010
1000
0010
,
0001
0000
0100
0001
0100
0000
0010
0000
,
1000
0100
0010
0001
,
1000
0010
1000
0000
0001
0010
0001
0000
,
1001
0110
2002
3003
;

//---------------dance-single - ----------------
#NOTES:
     dance-single:
     :
     Beginner:
     2:
     0.135,0.178,0.012,0.000,0.000:
0000
0000
0000
0000
,
0000
0000
0000
0000
,
0000
0000
0000
0000
,
0000
0000
0000
0000
,
1000
0000
0000
0000
,
0001
0000
0001
0000
,
0001
0000
0000
0000
,
0010
0000
0010
0000
,
0010
0000
0000
0000
,
0100
0000
0000
0000
,
1000
0000
1000
0000
,
1000
0000
0000
0000
,
0001
0000
0000
0000
,
0010
0000
0010
0000
,
0010
0000
0000
0000
,
0001
0000
0000
0000
,
0100
0000
0000
0000
,
0010
0000
0000
0000
,
1000
0000
1000
0000
,
1000
0000
0000
0000
,
0100
0000
0000
0000
,
0010
0000
0010
0000
,
0010
0000
0000
0000
,
0001
0000
0000
0000
,
1000
0000
0000
0000
,
0100
0000
0100
0000
,
0100
0000
0000
0000
,
0001
0000
0001
0000
,
0001
0000
0000
0000
,
0100
0000
0100
0000
,
0100
0000
0000
0000
,
0010
0000
0010
0000
,
0010
0000
0000
0000
,
1000
0000
1000
0000
,
1000
0000
0000
0000
,
0001
0000
0000
0000
,
1000
0000
0000
0000
,
0010
0000
0010
0000
,
0010
0000
0000
0000
,
0100
0000
0100
0000
,
0100
0000
0000
0000
,
0001
0000
0000
0000
,
1000
0000
0000
0000
,
0010
0000
0000
0000
,
1000
0000
0000
0000
,
0100
0000
0100
0000
,
0100
0000
0000
0000
,
0010
0000
0000
0000
,
0001
0000
0000
0000
,
1000
0000
0000
0000
,
0010
0000
0000
0000
,
1000
0000
0000
0000
,
0001
0001
0001
0000
,
0000
0000
0001
0000
,
1000
1000
1000
0000
,
0000
0000
1000
0000
,
0010
0010
0010
0000
,
0000
0000
0010
0000
,
0100
0000
0100
0000
,
0001
0000
1001
0000
;

//---------------dance-single - ----------------
#NOTES:
     dance-single:
     :
     Easy:
     4:
     0.330,0.356,0.060,0.000,0.000: // measure 1
0000
0000
0000
0000
,  // measure 2
0000
0000
0000
0000
,  // measure 3
0000
0000
0000
0000
,  // measure 4
0000
0000
0000
0000
,  // measure 5
1000
0001
0010
0000
,  // measure 6
0001
0100
0010
1000
,  // measure 7
0100
0100
0010
0010
,  // measure 8
0001
1000
1001
0000
,  // measure 9
0001
0010
0001
0000
,  // measure 10
1000
0010
1000
0000
,  // measure 11
0001
0100
0001
0000
,  // measure 12
1000
0100
1000
0000
,  // measure 13
0010
1000
0001
0000
,  // measure 14
0010
0001
1000
0000
,  // measure 15
0100
1000
0001
0000
,  // measure 16
0010
0000
0011
0000
,  // measure 17
0001
0100
0010
0000
,  // measure 18
1000
0100
0001
0000
,  // measure 19
0100
1000
0010
0000
,  // measure 20
0100
0001
0010
0000
,  // measure 21
0001
0100
0010
0000
,  // measure 22
1000
0001
0010
0000
,  // measure 23
0001
1000
0010
0000
,  // measure 24
0100
0100
0100
0100
,  // measure 25
0001
0010
0001
0010
,  // measure 26
1000
0010
1000
0010
,  // measure 27
0001
0100
0001
0100
,  // measure 28
1000
0100
1000
0100
,  // measure 29
0001
0010
0100
1000
,  // measure 30
0010
0100
0001
1000
,  // measure 31
0010
1000
0100
0010
,  // measure 32
0001
0100
0010
1000
,  // measure 33
0001
0010
0001
1000
,  // measure 34
0010
1000
0100
0001
,  // measure 35
0100
1000
0010
0100
,  // measure 36
0001
0010
0100
1000
,  // measure 37
1001
0000
1000
0010
,  // measure 38
1000
0000
0001
0010
,  // measure 39
0001
0000
1000
0000
,  // measure 40
0010
0100
0001
0100
,  // measure 41
0010
0000
1000
0000
,  // measure 42
0100
0000
0001
0100
,  // measure 43
0001
0000
0100
0000
,  // measure 44
1000
0010
0100
0001
,  // measure 45
1001
0000
0001
0010
,  // measure 46
1000
0010
0001
0100
,  // measure 47
0010
0000
1000
0100
,  // measure 48
0010
0000
0001
0100
,  // measure 49
0010
0000
1000
0010
,  // measure 50
1000
0001
0010
0001
,  // measure 51
1000
0000
0010
1000
,  // measure 52
0100
0010
0001
0100
,  // measure 53
0010
1000
0001
0000
,  // measure 54
0010
0001
0100
0010
,  // measure 55
1000
0100
0001
0000
,  // measure 56
0100
1000
0010
0100
,  // measure 57
0001
0010
0001
0000
,  // measure 58
0100
0010
1000
0100
,  // measure 59
0010
0010
0001
0001
,  // measure 60
1000
0010
0110
0000
;
