#TITLE:Samurai Blue;
#SUBTITLE:;
#ARTIST:Go 2;
#TITLETRANSLIT:;
#SUBTITLETRANSLIT:;
#ARTISTTRANSLIT:;
#CREDIT:348;
#BANNER:Samurai Blue Banner.png;
#BACKGROUND:Samurai Blue Background.png;
#LYRICSPATH:Samurai Blue.lrc;
#CDTITLE:;
#MUSIC:Samurai Blue.mp3;
#OFFSET:-0.894;
#SAMPLESTART:58.893;
#SAMPLELENGTH:15.000;
#SELECTABLE:YES;
#BPMS:0.000=150.000;
#STOPS:;
#BGCHANGES:;

//---------------dance-single - ----------------
#NOTES:
     dance-single:
     :
     Beginner:
     1:
     0.092,0.135,0.000,0.000,0.000: // measure 1
0000
0000
0000
0000
,  // measure 2
0000
0000
0000
0000
,  // measure 3
0000
0000
0000
0000
,  // measure 4
0000
0000
0000
0000
,  // measure 5
0000
0000
0000
0000
,  // measure 6
1000
0000
0000
0000
,  // measure 7
1000
0000
0000
0000
,  // measure 8
0001
0000
0000
0000
,  // measure 9
0001
0000
0000
0000
,  // measure 10
0100
0000
0000
0000
,  // measure 11
0100
0000
0000
0000
,  // measure 12
0010
0000
0000
0000
,  // measure 13
0010
0000
0000
0000
,  // measure 14
1000
0000
0000
0000
,  // measure 15
0100
0000
0000
0000
,  // measure 16
0010
0000
0000
0000
,  // measure 17
0001
0000
0000
0000
,  // measure 18
1000
0000
0001
0000
,  // measure 19
1000
0000
0000
0000
,  // measure 20
0010
0000
0100
0000
,  // measure 21
0010
0000
0000
0000
,  // measure 22
1000
0000
0000
0000
,  // measure 23
1000
0000
0000
0000
,  // measure 24
0010
0000
0000
0000
,  // measure 25
0010
0000
0000
0000
,  // measure 26
0100
0000
0000
0000
,  // measure 27
0100
0000
0000
0000
,  // measure 28
0001
0000
0000
0000
,  // measure 29
0001
0000
0000
0000
,  // measure 30
1000
0000
1000
0000
,  // measure 31
0000
0001
0001
0000
,  // measure 32
0100
0000
0100
0000
,  // measure 33
0000
0010
0010
0000
,  // measure 34
0100
0000
0001
0000
,  // measure 35
1000
0000
0010
0000
,  // measure 36
1000
0000
0000
0000
,  // measure 37
0001
0000
0000
0000
,  // measure 38
1000
0000
0000
0000
,  // measure 39
0100
0000
0000
0000
,  // measure 40
1000
0000
0000
0000
,  // measure 41
0010
0000
0000
0000
,  // measure 42
0000
0100
0000
0001
,  // measure 43
0000
0010
0000
0001
,  // measure 44
0000
1000
1000
0000
,  // measure 45
0010
0000
0000
0000
,  // measure 46
1000
0000
0000
0000
,  // measure 47
0100
0000
0000
0000
,  // measure 48
0010
0000
0000
0000
,  // measure 49
0001
0000
0000
0000
,  // measure 50
0100
0000
0000
0000
,  // measure 51
0001
0000
0000
0000
,  // measure 52
0010
0000
0000
0000
,  // measure 53
0001
0000
0000
0000
,  // measure 54
0000
1000
0000
0100
,  // measure 55
0000
1000
0000
0010
,  // measure 56
0000
0100
0100
0000
,  // measure 57
0001
0000
1000
0000
;

//---------------dance-single - ----------------
#NOTES:
     dance-single:
     :
     Easy:
     4:
     0.250,0.280,0.153,0.172,0.000: // measure 1
0000
0000
0000
0000
,  // measure 2
0000
0000
0000
0000
,  // measure 3
0000
0000
0000
0000
,  // measure 4
0000
0000
0000
0000
,  // measure 5
0000
0000
0000
0000
,  // measure 6
1000
0001
1000
0000
,  // measure 7
0010
0100
0010
0000
,  // measure 8
0100
0001
0100
0000
,  // measure 9
0010
1000
0010
0000
,  // measure 10
2000
0000
3100
0000
,  // measure 11
0020
0000
0031
0000
,  // measure 12
0002
0000
0013
0000
,  // measure 13
0200
0000
1300
0000
,  // measure 14
0001
0010
0001
1100
,  // measure 15
0001
0010
0001
0000
,  // measure 16
1000
0100
1000
0011
,  // measure 17
1000
0100
1000
0000
,  // measure 18
0020
0030
0200
0300
,  // measure 19
0001
1000
0001
0000
,  // measure 20
1000
0100
0010
0001
,  // measure 21
1001
0000
0110
0000
,  // measure 22
1000
0000
0100
0000
,  // measure 23
1000
0100
1000
0000
,  // measure 24
0001
0010
0001
0010
,  // measure 25
0001
0000
0110
0000
,  // measure 26
1000
0000
0010
0000
,  // measure 27
0100
0001
1000
0010
,  // measure 28
1000
0000
0001
0100
,  // measure 29
0001
0000
1001
0000
,  // measure 30
1000
0100
0010
0100
,  // measure 31
2000
0000
0001
3001
,  // measure 32
0001
0010
0100
0010
,  // measure 33
0002
0000
1000
1003
,  // measure 34
1000
0000
0001
0000
,  // measure 35
0100
0010
0100
0010
,  // measure 36
1000
0001
1000
0001
,  // measure 37
0110
0000
1000
0001
,  // measure 38
2000
0000
3001
0010
,  // measure 39
1000
0010
0001
0000
,  // measure 40
0200
0000
0310
1000
,  // measure 41
0001
1000
0010
0000
,  // measure 42
1100
0000
0011
0000
,  // measure 43
1010
0000
0101
0000
,  // measure 44
0001
1000
0010
0100
,  // measure 45
1001
0000
0100
0010
,  // measure 46
2000
0000
3010
0000
,  // measure 47
0200
0000
0301
0000
,  // measure 48
0002
0000
0103
0000
,  // measure 49
0020
0000
1030
0000
,  // measure 50
0001
0100
1000
0020
,  // measure 51
0000
0031
1000
0000
,  // measure 52
0010
1000
0010
0002
,  // measure 53
0000
0013
0100
0000
,  // measure 54
0001
0000
0101
0000
,  // measure 55
1010
0000
1000
0000
,  // measure 56
0001
0010
1000
0010
,  // measure 57
0001
1000
0110
0220
,  // measure 58
0000
0000
0000
0000
,  // measure 59
0000
0000
0330
0000
;

//---------------dance-single - ----------------
#NOTES:
     dance-single:
     :
     Medium:
     6:
     0.383,0.392,0.278,0.172,0.000: // measure 1
0000
0000
0000
0000
,  // measure 2
0000
0000
0000
0000
,  // measure 3
0000
0000
0000
0000
,  // measure 4
0000
0000
0000
0000
,  // measure 5
0000
0000
0000
0000
,  // measure 6
1000
0100
0010
0001
,  // measure 7
1000
0100
0001
0100
,  // measure 8
1000
0001
0100
0010
,  // measure 9
1000
1000
0001
0001
,  // measure 10
1000
0100
1000
1100
,  // measure 11
0010
0001
0011
0001
,  // measure 12
1000
0001
1000
1001
,  // measure 13
0100
0010
0110
0010
,  // measure 14
1000
0000
0100
0000
0001
0000
0100
1000
,  // measure 15
0000
1000
0001
0000
1100
0000
0011
0000
,  // measure 16
0100
0000
0001
0000
1000
0000
0001
0020
,  // measure 17
0000
1030
0010
0000
0101
0000
1010
0000
,  // measure 18
0001
0000
0010
0000
0100
1000
0100
0000
,  // measure 19
1000
0001
0010
0001
,  // measure 20
1000
0000
0100
0000
0010
0001
0010
0000
,  // measure 21
0001
0000
1000
0000
0002
0020
0000
0003
,  // measure 22
0031
0000
0000
0000
0001
0010
0100
0000
,  // measure 23
0100
0000
0000
0000
0100
1000
0001
0000
,  // measure 24
1000
1000
0100
1000
,  // measure 25
0001
0010
0001
0010
0001
0000
1100
0000
,  // measure 26
0001
1000
0011
1100
,  // measure 27
0001
0010
0001
0000
0001
0100
0001
0000
,  // measure 28
0001
0000
0001
0100
1000
0000
0100
0000
,  // measure 29
0001
0000
1000
0100
1000
0100
1000
0000
,  // measure 30
0002
1000
0100
1003
,  // measure 31
0200
0010
0001
0310
,  // measure 32
0020
1000
1000
0130
,  // measure 33
2000
3001
0110
1001
,  // measure 34
2000
0100
0010
3001
,  // measure 35
0020
0100
1000
1030
,  // measure 36
1000
0001
0100
0000
0100
0001
1000
0000
,  // measure 37
0220
0000
0330
1000
0000
1000
1000
0000
,  // measure 38
0011
0000
1000
0000
0100
0000
1000
0200
,  // measure 39
0000
0301
0100
1000
0000
0001
0001
0000
,  // measure 40
1100
0000
0001
0000
0010
0000
0100
1000
,  // measure 41
0000
0100
1000
0000
0101
0000
1100
0000
,  // measure 42
0001
0000
0000
0010
0001
0000
0000
0100
,  // measure 43
0001
0000
1000
0000
1000
0010
0100
0000
,  // measure 44
0001
0000
1000
0000
0010
0100
0010
0200
,  // measure 45
0000
0000
0000
0001
0000
0001
0301
0000
,  // measure 46
0101
1000
0001
1010
,  // measure 47
0020
0130
0110
1001
,  // measure 48
1100
0010
0100
0011
,  // measure 49
2000
3001
1001
0110
,  // measure 50
1001
0000
1000
0000
0001
0010
0001
0020
,  // measure 51
0000
0031
1000
1001
,  // measure 52
1000
0000
0100
0000
1000
0100
1000
0200
,  // measure 53
0000
1300
0010
0110
,  // measure 54
0001
0000
0001
0000
1000
0100
1000
0000
,  // measure 55
0010
0000
0010
0000
1000
0100
1000
0000
,  // measure 56
1000
0100
0001
0000
0001
0100
1000
0000
,  // measure 57
1000
0001
1000
0000
1000
2000
0000
0000
,  // measure 58
0000
0000
0000
0000
,  // measure 59
0000
0000
3000
0000
;

//---------------dance-single - ----------------
#NOTES:
     dance-single:
     :
     Hard:
     7:
     0.466,0.448,0.239,0.201,0.000: // measure 1
0000
0000
0000
0000
,  // measure 2
0000
0000
0000
0000
,  // measure 3
0000
0000
0000
0000
,  // measure 4
0000
0000
0000
0000
,  // measure 5
0000
0000
0000
0000
,  // measure 6
0000
1000
0000
0100
0000
0001
0000
0100
,  // measure 7
0000
1000
0000
0100
0000
0001
0000
0010
,  // measure 8
0000
1000
0000
0100
0000
0010
0000
0001
,  // measure 9
0000
1000
0000
0010
0000
1000
0000
0001
,  // measure 10
1000
0000
0001
0010
0001
0000
0011
0000
,  // measure 11
0100
1000
0100
0000
1100
0000
1001
0000
,  // measure 12
0001
0000
1000
0010
1000
0000
1010
0000
,  // measure 13
0001
0100
0001
0000
0101
0000
0110
0000
,  // measure 14
1000
0100
1000
0000
0001
0010
0100
1000
,  // measure 15
0000
1000
0001
1000
0000
1000
0001
0000
,  // measure 16
0100
0001
1000
0000
1000
0010
0100
0002
,  // measure 17
0000
1003
0100
0000
1100
0000
0011
0000
,  // measure 18
1000
0100
0020
0000
0031
0100
0010
0000
,  // measure 19
1000
0001
0200
0000
0310
1000
0001
0000
,  // measure 20
1000
0100
1000
0010
1000
0001
1000
0100
,  // measure 21
0010
0001
1000
0001
1000
2000
0000
0000
,  // measure 22
3001
0000
1000
0000
0001
0010
0001
0100
,  // measure 23
0020
0000
1030
0000
1000
0001
0100
0010
,  // measure 24
0200
0301
2000
3010
,  // measure 25
0001
1000
0100
1000
0001
0000
0110
0000
,  // measure 26
1001
0000
0001
0000
1000
0100
1000
0010
,  // measure 27
2000
0000
3001
0000
0100
0001
1000
0010
,  // measure 28
2000
3100
0020
0031
,  // measure 29
1000
0100
0010
0100
1000
0001
0010
0000
,  // measure 30
0001
0000
1100
0000
0001
0010
0001
1000
,  // measure 31
0000
1000
0010
0000
0010
1000
0001
0100
,  // measure 32
0000
0100
0001
0000
1000
0001
1000
0000
,  // measure 33
0010
0101
0100
1010
,  // measure 34
0002
0000
1003
0000
0001
0010
0100
1000
,  // measure 35
0000
1000
0010
0100
0001
0000
1001
0000
,  // measure 36
0001
0010
0001
0100
0010
1000
0100
1000
,  // measure 37
0002
0000
0000
1003
0000
1000
0001
0010
,  // measure 38
0001
0000
1100
0000
0001
0010
1000
0010
,  // measure 39
0001
0010
0100
1000
0010
0100
0001
0000
,  // measure 40
1000
0000
0011
0000
1000
0100
1000
0100
,  // measure 41
0001
0100
1000
0100
0010
0001
1000
0002
,  // measure 42
0000
0103
0010
0200
0000
0301
1000
0020
,  // measure 43
0000
0130
0001
2000
0000
3001
0010
0001
,  // measure 44
1000
0100
0001
0100
1000
0100
0010
0001
,  // measure 45
2000
0000
0000
0010
0000
0010
3010
0000
,  // measure 46
1001
0000
1000
0100
0001
0000
1100
0000
,  // measure 47
0001
0010
1000
0000
0011
0000
1001
0000
,  // measure 48
0110
0000
1000
0010
0001
0000
1010
0000
,  // measure 49
0001
0100
1000
0000
0101
0000
0110
0000
,  // measure 50
2000
0000
3001
0000
0001
0010
0100
0000
,  // measure 51
0100
0001
1000
0010
0000
0010
0100
0001
,  // measure 52
0200
0000
0310
0000
0010
1000
0001
0000
,  // measure 53
0001
0010
0100
1000
0000
1000
0001
0000
,  // measure 54
1000
0100
0010
0000
0010
0100
1000
0000
,  // measure 55
0001
1000
0010
0000
0010
1000
0001
0000
,  // measure 56
1000
0100
0010
0001
1000
0010
0100
0001
,  // measure 57
1000
0001
1000
0001
0100
0220
0000
0000
,  // measure 58
0000
0000
0000
0000
,  // measure 59
0000
0000
0330
0000
;

//---------------dance-single - ----------------
#NOTES:
     dance-single:
     :
     Challenge:
     9:
     0.600,0.644,0.373,0.297,0.191:
0000
0000
0000
0000
,
0000
0000
0000
0000
,
0000
0000
0000
0000
,
0000
0000
0000
0000
,
0000
0000
0000
0000
,
1000
0001
0000
1100
0000
0001
0010
0001
,
0000
0100
0000
1010
0000
1000
0010
0100
,
0000
0001
0000
1010
0000
0001
0010
0100
,
0000
0010
0000
1001
0000
1000
0100
0010
,
0001
0000
1000
0100
1000
0100
1100
0000
,
0010
0001
0010
0001
0011
0000
1001
0000
,
0110
0000
1000
0010
1000
0010
1010
0000
,
0100
0000
0001
0000
0100
0000
0001
0000
1000
0100
1000
0100
1000
0000
0001
0000
,
0020
0000
0031
0000
1000
0100
0010
0100
,
1000
0000
0100
0000
0010
0000
0001
0000
0100
0010
0100
0010
0100
0000
0001
0000
,
2000
0000
3100
0000
0100
1000
0010
0100
,
0001
0000
0010
0000
0001
0000
1000
0000
0001
0010
0001
0010
0001
0000
1000
0000
,
0001
0010
0002
0000
1003
0100
0020
0000
,
0031
0100
1000
0100
0001
1000
0200
0000
,
1300
0100
0001
0100
1000
0100
0010
0001
,
1000
0100
1000
0100
1000
0000
0001
0000
0011
0000
0022
0000
0000
0000
0033
0000
,
1001
0000
0000
1000
0200
0000
0000
0000
0310
0000
0001
0000
1000
0000
0001
0100
,
0001
0000
0000
0010
0002
0000
0000
0000
1003
0000
0100
0000
1000
0000
0010
0100
,
0010
0000
0000
1000
0100
0000
0000
0000
1001
0000
0000
0100
0001
0000
0000
0000
,
1100
1010
0101
0011
,
0110
0000
0000
0001
2000
0000
0000
0000
3010
0000
1000
0000
0001
0000
0100
0001
,
0100
0000
0000
0001
0020
0000
0000
0000
0031
0000
1000
0000
0100
0000
0010
0001
,
0010
0000
0000
0100
1000
0000
0000
0000
0110
0000
0000
0001
1000
0000
0000
0000
,
0220
0000
0000
0000
0330
0000
0000
0000
1000
0100
0010
0100
1000
0000
0001
0000
,
1000
0100
0020
0000
0031
0100
1000
0010
,
0001
1000
0200
0000
1300
0010
0001
0010
,
0100
0001
2000
0000
3100
1000
0002
0000
,
1003
0000
0100
0000
0010
0000
0001
0000
0100
0001
1000
0001
0100
0000
0001
0000
,
1000
0100
0002
0000
0103
1000
0020
0000
,
1030
0100
1000
0010
0100
0001
2000
0000
,
3001
0010
0001
0010
0001
0000
1000
0100
1000
0100
1000
0000
0001
1000
0001
1000
,
0002
0000
0000
0103
0000
0001
1000
0010
,
0100
0001
0200
0000
0301
0010
1000
0010
,
0001
1000
0100
0010
1001
0000
1100
0000
,
0001
0010
0001
0000
1000
0100
0010
0100
,
1000
0001
0010
0001
1000
0001
1001
0000
,
0001
0010
0011
0000
0100
1000
1100
0000
,
1000
0010
1010
0000
0100
0001
0101
0000
,
1000
0100
0010
0001
1000
0010
0100
0001
,
0010
0001
0010
0100
0010
0000
0002
0000
0000
0000
1003
0000
0100
0000
0010
0000
,
1001
0000
0100
0010
0100
0010
0110
0000
,
1000
0001
1000
0001
1001
0000
0110
0000
,
1100
0000
0001
0100
0010
1000
0101
0000
,
1000
0000
0010
0000
0100
0000
0001
0000
1000
0100
0001
0100
1000
0000
0001
0000
,
0010
0001
0100
0010
1000
0100
2000
0000
,
3001
0000
0010
0000
0100
0000
1000
0000
0001
0010
0100
0010
0001
0000
1000
0000
,
0001
0100
0010
0100
0001
1000
0002
0000
,
1003
0000
0100
0000
1000
0000
0100
0000
0010
0001
0100
0001
0010
0000
0001
0000
,
0000
2100
0000
3001
0000
0012
0000
1003
,
0000
0210
0000
0301
0000
0120
0000
1030
,
0100
0010
0100
1000
0001
0010
1000
0010
,
0001
0010
1000
0010
0001
0000
1000
0000
1001
0000
2002
0000
0000
0000
0000
0000
,
0000
0000
0000
0000
,
0000
0000
3003
0000
;
