#TITLE:ロミオとシンデレラ (秋葉工房REMIX);
#SUBTITLE:;
#ARTIST:うさ&花たん;
#TITLETRANSLIT:Romeo & Cinderella (DJ COMMAND Remix);
#SUBTITLETRANSLIT:;
#ARTISTTRANSLIT:Usa & Hana tan;
#GENRE:EUROBEAT;
#CREDIT:AznPunk07 / GuardianFrozen;
#MENUCOLOR:#f13f8f;
#METERTYPE:DDR;
#BANNER:Romeo & Cinderella (DJ COMMAND Remix)-bn.png;
#BACKGROUND:Romeo & Cinderella (DJ COMMAND Remix)-bg.png;
#LYRICSPATH:;
#CDTITLE:!cdtitle.png;
#MUSIC:Romeo & Cinderella (DJ COMMAND Remix).mp3;
#OFFSET:-0.046;
#SAMPLESTART:14.200;
#SAMPLELENGTH:11.340;
#SELECTABLE:YES;
#LISTSORT:;
#BPMS:0.000=170.000;
#STOPS:;
#BGCHANGES:0.000=Romeo & Cinderella (DJ COMMAND Remix)-bg.png=1.000=1=1=0,
99999=-nosongbg-=1.000=0=0=0 // don't automatically add -songbackground-
;
#ATTACKS:;

//---------------dance-single - ----------------
#NOTES:
     dance-single:
     :
     Hard:
     8:
     0.579,0.560,0.141,0.163,0.022: // measure 1
0000
0000
0000
0000
,  // measure 2
0000
0000
0000
0000
,  // measure 3
1000
0000
0100
0000
,  // measure 4
0010
0000
0000
0000
0001
1000
0001
1000
,  // measure 5
0001
0000
0000
0100
0000
0010
0000
1000
,  // measure 6
0100
1000
0001
0100
,  // measure 7
0010
0000
0000
0100
0000
0000
0001
0000
,  // measure 8
1000
0001
0010
0100
,  // measure 9
1000
0001
0000
0000
0000
0000
0000
0000
,  // measure 10
0000
0001
0010
0100
1000
0000
0001
0000
,  // measure 11
1000
0100
0010
0100
1000
0001
0100
0001
,  // measure 12
0000
0010
0100
0010
0001
1000
0001
0100
,  // measure 13
0010
0000
1000
0000
0001
1000
0000
1100
,  // measure 14
0000
0100
0010
0001
0000
0011
0000
0000
,  // measure 15
0000
0100
0010
0100
1000
0001
0100
0001
,  // measure 16
0000
0100
0010
0100
0001
1000
0100
1000
,  // measure 17
0001
0000
0100
0000
0001
1000
0000
1001
,  // measure 18
0000
1000
0010
0100
0000
0110
0000
0000
,  // measure 19
0000
1000
0100
0000
0010
0001
0010
0001
,  // measure 20
0100
0000
0001
0100
0000
0010
0000
1000
,  // measure 21
0000
1000
0001
1000
0100
0000
0010
0100
,  // measure 22
1000
0000
0001
1000
0000
0001
0100
0010
,  // measure 23
0000
1000
0010
1000
0100
0010
0000
0000
,  // measure 24
0000
0000
0001
0000
1000
0000
0001
0000
1000
0000
0000
1000
0100
0000
0000
0000
,  // measure 25
0110
0000
0000
0010
0100
0000
0000
0011
,  // measure 26
0000
1000
0100
1000
0001
0100
0001
0010
,  // measure 27
0000
0100
1000
0100
1000
0010
0000
0100
,  // measure 28
0001
0000
1000
0100
0000
0010
0100
1000
,  // measure 29
0000
0001
1000
0010
0001
0010
0100
0001
,  // measure 30
1000
0000
1000
0100
0000
1000
0010
0001
,  // measure 31
0000
0010
0100
0010
0100
0000
0000
0000
,  // measure 32
0000
0000
0001
0000
0010
0000
1000
0000
0010
0000
0000
0010
0001
0000
0000
0000
,  // measure 33
1001
0000
0000
0100
0001
0000
0000
1100
,  // measure 34
0000
0010
0100
1000
0001
0010
0100
1000
,  // measure 35
0010
0000
0100
0001
0020
0100
0030
0100
,  // measure 36
1000
0001
0000
0100
0002
1000
0003
1000
,  // measure 37
0010
2000
0000
3010
0100
0020
0000
0230
,  // measure 38
0000
0301
2000
0000
3002
0010
0003
0000
,  // measure 39
0100
0001
0000
0100
0000
0010
0000
1000
,  // measure 40
0001
0010
0000
0100
0000
0010
0000
0001
,  // measure 41
0100
0000
0001
0010
0000
0100
1000
0100
,  // measure 42
0000
1000
0010
0001
1000
0100
0001
1000
,  // measure 43
0010
0000
0010
1000
0200
0010
0300
0010
,  // measure 44
0001
1000
0000
0010
2000
0001
3000
0001
,  // measure 45
0100
0002
0000
0103
0010
0200
0000
0320
,  // measure 46
0000
1030
0002
0000
2003
0100
3000
0000
,  // measure 47
0010
1000
0010
0100
0000
0001
0000
0010
,  // measure 48
0100
0010
0001
0100
0000
0010
0000
1010
,  // measure 49
0000
1000
0001
1000
0100
0010
0001
1000
,  // measure 50
0000
0010
0001
0010
0100
0001
0010
0100
,  // measure 51
2000
0000
3000
0000
,  // measure 52
0001
0000
0100
0000
,  // measure 53
0010
0000
1000
0000
,  // measure 54
0100
0000
0010
0001
,  // measure 55
1000
0000
0000
0010
0000
0100
0000
0001
,  // measure 56
1000
0000
0010
0100
0000
0010
1000
0000
,  // measure 57
0100
0000
0010
0001
0000
0100
0000
0010
,  // measure 58
1000
0010
0000
1000
0000
0001
0010
0100
,  // measure 59
0010
0000
0001
1000
0000
1001
0000
0001
,  // measure 60
0100
0000
0010
1000
0010
1000
0100
0010
,  // measure 61
0100
0100
1000
0001
0000
0001
0010
1000
,  // measure 62
0010
0000
0100
0010
0000
1100
0000
0001
,  // measure 63
0100
0000
0010
1000
0000
0110
0000
0001
,  // measure 64
0100
0000
0010
1000
0000
0001
1000
0100
,  // measure 65
0010
0010
0001
0010
0000
0100
1000
0001
,  // measure 66
1000
1000
0000
0010
0000
0100
0001
1000
,  // measure 67
0001
0000
0010
0100
0000
0011
0000
0100
,  // measure 68
0010
0000
0001
1000
0001
0100
1000
0100
,  // measure 69
0000
0010
0001
0010
0000
0100
0001
0010
,  // measure 70
1000
0000
0010
0100
0000
1000
0010
0001
,  // measure 71
0010
0000
0100
0010
0000
1010
0000
0100
,  // measure 72
0001
0000
1000
0100
0000
0100
1000
0001
,  // measure 73
0100
0001
1000
0010
0000
0100
0001
1000
,  // measure 74
0100
0010
0100
0001
0000
0100
0100
1000
,  // measure 75
0001
0100
1000
0100
0000
0010
0000
1000
,  // measure 76
0001
0000
0010
0100
0000
0010
0001
0010
,  // measure 77
0100
0000
0000
0100
1000
0000
0000
1000
0001
0000
0000
0001
0100
0000
0000
0100
,  // measure 78
0020
0000
0100
0000
0100
0000
0130
0001
,  // measure 79
0100
0001
0000
1000
0000
0101
0000
0001
,  // measure 80
1000
0100
0010
0100
1000
0001
0100
0001
,  // measure 81
0000
0010
0010
0100
1000
0010
0001
1000
,  // measure 82
0100
0000
0010
0010
1000
0100
0000
1100
,  // measure 83
0000
0100
0010
0001
0000
0011
0000
0000
,  // measure 84
0000
0100
0010
0100
1000
0001
0100
0001
,  // measure 85
0000
1000
0010
0001
0010
0100
0001
0010
,  // measure 86
1000
0000
0010
0010
0100
0100
0000
0011
,  // measure 87
0000
1000
0100
0010
0000
1100
0000
0000
,  // measure 88
0000
0001
0100
0000
0001
0000
0010
0100
,  // measure 89
0000
1000
0100
0000
1000
0010
1000
0000
,  // measure 90
0000
0001
0100
0000
0010
1000
0000
0001
,  // measure 91
2000
0000
3200
0020
0300
0032
0000
2003
,  // measure 92
0000
3010
0100
0000
0001
1000
0001
0100
,  // measure 93
0000
0010
1000
0100
0010
0001
0010
0100
,  // measure 94
1000
0001
1000
0000
0010
0100
0000
0001
,  // measure 95
0000
1000
0001
0020
0030
0000
0000
0000
;

//---------------dance-single - ----------------
#NOTES:
     dance-single:
     :
     Medium:
     6:
     0.434,0.560,0.133,0.244,0.000: // measure 1
0000
0000
0000
0000
,  // measure 2
0000
0000
0000
0000
,  // measure 3
0002
0000
0003
0000
,  // measure 4
0200
0000
0300
0000
,  // measure 5
0020
0000
0030
0000
,  // measure 6
2000
0000
3000
0000
,  // measure 7
0200
0000
0310
0001
,  // measure 8
2000
0010
3002
0100
,  // measure 9
0023
0000
0030
0000
,  // measure 10
0000
0001
1000
0010
,  // measure 11
0110
0000
1000
0000
0001
0010
0001
0000
,  // measure 12
0100
0000
0010
0000
1000
0100
1000
0000
,  // measure 13
0010
0000
0010
0000
0100
0100
0000
0001
,  // measure 14
0000
1000
0000
0001
0000
0010
0000
0000
,  // measure 15
0000
0000
0100
0000
0010
0001
0010
0000
,  // measure 16
0100
0000
1000
0000
0001
0000
0100
0010
,  // measure 17
1000
0000
0100
0000
1000
1000
0000
0001
,  // measure 18
0000
0100
0000
0010
0000
1000
0000
0000
,  // measure 19
0100
0000
0010
0000
0001
0100
1000
0000
,  // measure 20
0100
0010
1000
0001
,  // measure 21
0010
0000
0100
0000
1000
0010
0001
0000
,  // measure 22
0010
0100
0001
1000
,  // measure 23
0001
0000
0010
0100
1000
0000
0000
0000
,  // measure 24
0000
0000
0100
0010
0001
0000
0100
0000
,  // measure 25
0110
0000
0000
0000
0010
0000
0000
1000
,  // measure 26
0000
1000
0001
0000
0001
0100
0010
0000
,  // measure 27
0000
0100
0001
1000
,  // measure 28
0100
0000
0010
0001
0000
1000
0000
0001
,  // measure 29
0000
0001
0100
0000
0010
0000
1000
0100
,  // measure 30
1000
0000
0100
0010
0000
0001
0000
1000
,  // measure 31
0000
1000
0010
0000
1010
0000
0000
0000
,  // measure 32
0000
0001
0100
0000
0101
0000
0010
0000
,  // measure 33
1000
0000
0000
0001
0010
0000
0100
0000
,  // measure 34
1000
0000
0001
0000
0100
0010
0100
0010
,  // measure 35
0100
0000
0001
0000
1000
2002
0000
3003
,  // measure 36
0000
0000
0010
0000
0100
0220
0000
0330
,  // measure 37
0001
0000
0022
0000
0033
0100
0000
2200
,  // measure 38
0000
3300
0010
0000
0202
0000
0303
0000
,  // measure 39
0010
0000
1000
0000
0100
0000
0010
0001
,  // measure 40
1000
0000
0001
0000
0100
0000
0010
1000
,  // measure 41
0010
0000
0100
0001
0000
0000
0000
0010
,  // measure 42
0000
0000
0100
0000
0010
0100
1000
0000
,  // measure 43
0010
0000
1000
0000
0001
2002
0000
3003
,  // measure 44
0000
0000
0100
0000
0010
0220
0000
0330
,  // measure 45
1000
0000
2020
0000
3030
0100
0000
0202
,  // measure 46
0000
0303
0010
0000
2020
0000
3030
0000
,  // measure 47
0100
0000
0001
1000
0001
0000
0100
0001
,  // measure 48
0010
0000
0100
1000
0000
1000
0000
0001
,  // measure 49
0000
0100
0001
0000
1000
0000
0000
0100
,  // measure 50
0000
1000
0200
0000
0000
0000
0000
0000
,  // measure 51
0020
0000
0330
0000
,  // measure 52
0001
0000
0100
0000
,  // measure 53
0001
1000
0001
0000
,  // measure 54
1000
0000
0100
0000
,  // measure 55
0010
0100
1000
0000
,  // measure 56
0010
0000
0100
0000
,  // measure 57
0001
1000
0010
0100
,  // measure 58
0001
0000
1000
0100
,  // measure 59
0011
0000
0000
0100
0000
0110
0000
0000
,  // measure 60
1000
0000
0010
0000
1000
0000
0001
0100
,  // measure 61
0010
0000
1000
0010
0000
0100
0001
0000
,  // measure 62
0010
0000
0100
1000
0000
0100
0000
0010
,  // measure 63
0001
0000
1000
0001
0000
0100
0000
0010
,  // measure 64
1000
0000
0100
1000
0000
0010
1000
0000
,  // measure 65
0001
0000
0010
0001
0000
0100
0001
0000
,  // measure 66
0010
0100
0000
0010
0000
0001
0000
1000
,  // measure 67
0010
0000
0010
1000
0000
0100
0000
0000
,  // measure 68
0010
0000
0100
1000
0100
0000
0010
0001
,  // measure 69
0000
1000
0010
1000
0000
0010
0000
0010
,  // measure 70
0100
0000
0001
0100
0000
0010
0000
1000
,  // measure 71
0100
0000
0010
0001
0000
1000
0000
0001
,  // measure 72
0100
0000
0001
0100
0000
0001
0100
0000
,  // measure 73
0010
0000
1000
0100
0000
1000
0000
0100
,  // measure 74
0010
0000
0100
1000
0000
0001
1000
0001
,  // measure 75
0100
0000
0100
0010
0000
0010
0000
0010
,  // measure 76
1000
0000
0100
0000
0010
0000
0100
1000
,  // measure 77
0100
0010
0011
0100
,  // measure 78
2200
0000
0000
3300
,  // measure 79
0001
0100
0001
1000
,  // measure 80
0000
0000
1000
0000
0001
0010
0001
0000
,  // measure 81
0100
0000
0010
0000
1000
0100
1000
0000
,  // measure 82
0010
0000
0010
0000
0100
0100
0000
0001
,  // measure 83
0000
1000
0000
0001
0000
0010
0000
0000
,  // measure 84
0000
0000
0100
0000
0010
0001
0010
0000
,  // measure 85
0100
0000
1000
0000
0001
0000
0100
0010
,  // measure 86
1000
0000
0100
0000
1000
1000
0000
0001
,  // measure 87
0000
0100
0000
0010
0000
1000
0000
0000
,  // measure 88
0000
0001
1000
0100
,  // measure 89
0010
0100
1000
0001
,  // measure 90
0000
0100
0001
1000
,  // measure 91
0100
0010
0100
1000
,  // measure 92
0000
0010
0100
0001
,  // measure 93
1000
0001
0010
0100
,  // measure 94
0000
0000
0010
0000
0001
0000
1000
0010
,  // measure 95
0000
0100
0000
0020
0030
0000
0000
0000
;

//---------------dance-single - ----------------
#NOTES:
     dance-single:
     :
     Beginner:
     2:
     0.112,0.208,0.081,0.000,0.000: // measure 1
0000
0000
0000
0000
,  // measure 2
0000
0000
0000
0000
,  // measure 3
1000
0000
0000
0000
,  // measure 4
0000
0000
0000
0000
,  // measure 5
0001
0000
0000
0000
,  // measure 6
0000
0000
0000
0000
,  // measure 7
0100
0000
0000
0000
,  // measure 8
0000
0000
0000
0000
,  // measure 9
0010
0000
0000
0000
,  // measure 10
0000
0000
0000
0000
,  // measure 11
1000
0000
0000
0000
,  // measure 12
0100
0000
0000
0000
,  // measure 13
1000
0000
0000
0000
,  // measure 14
0001
0000
0000
0000
,  // measure 15
0010
0000
0000
0000
,  // measure 16
0100
0000
0000
0000
,  // measure 17
0010
0000
0000
0000
,  // measure 18
0001
0000
0000
0000
,  // measure 19
0000
1000
0000
0000
,  // measure 20
0000
0000
0000
0000
,  // measure 21
0000
0001
0000
0000
,  // measure 22
0000
0000
0000
0000
,  // measure 23
0100
0000
0010
0000
,  // measure 24
0000
0000
1000
0000
,  // measure 25
0001
0000
0010
0000
,  // measure 26
0100
0000
0000
0000
,  // measure 27
0001
0000
0000
0000
,  // measure 28
0100
0000
0000
0000
,  // measure 29
0010
0000
0000
0000
,  // measure 30
1000
0000
0100
0000
,  // measure 31
1000
0000
0000
0000
,  // measure 32
0010
0000
0000
0000
,  // measure 33
0100
0000
0000
0000
,  // measure 34
0000
0000
0000
0000
,  // measure 35
1001
0000
0000
0000
,  // measure 36
0110
0000
0000
0000
,  // measure 37
1001
0000
0000
0000
,  // measure 38
0110
0000
0000
0000
,  // measure 39
0001
0000
0000
0000
,  // measure 40
1000
0000
0000
0000
,  // measure 41
0100
0000
0000
0000
,  // measure 42
0010
0000
0000
0000
,  // measure 43
0001
0000
0000
0000
,  // measure 44
0100
0000
0000
0000
,  // measure 45
0010
0000
1000
0000
,  // measure 46
0100
0000
0000
0000
,  // measure 47
0010
0000
0000
0000
,  // measure 48
0001
0000
0000
0000
,  // measure 49
1000
0000
0010
0000
,  // measure 50
0110
0000
0000
0000
,  // measure 51
1001
0000
0000
0000
,  // measure 52
0001
0000
0000
0000
,  // measure 53
0000
0000
0000
0000
,  // measure 54
1000
0000
0000
0000
,  // measure 55
0000
0000
0000
0000
,  // measure 56
0100
0000
0000
0000
,  // measure 57
0010
0000
0000
0000
,  // measure 58
0001
0000
1000
0000
,  // measure 59
1001
0000
0000
0000
,  // measure 60
0010
0000
0000
0000
,  // measure 61
0100
0000
0000
0000
,  // measure 62
0001
0000
0000
0000
,  // measure 63
1000
0000
0000
0000
,  // measure 64
0100
0000
0000
0000
,  // measure 65
0010
0000
0000
0000
,  // measure 66
0001
0000
0000
0000
,  // measure 67
1000
0000
0000
0000
,  // measure 68
0010
0000
0010
0000
,  // measure 69
0010
0000
0000
0000
,  // measure 70
0100
0000
0100
0000
,  // measure 71
0100
0000
0000
0000
,  // measure 72
1001
0000
0000
0000
,  // measure 73
0110
0000
0000
0000
,  // measure 74
0001
0000
1000
0000
,  // measure 75
1001
0000
0010
0000
,  // measure 76
0100
0000
0100
0000
,  // measure 77
0010
0000
0010
0000
,  // measure 78
1000
0000
0001
0000
,  // measure 79
1000
0000
0000
0000
,  // measure 80
0001
0000
0010
0000
,  // measure 81
0100
0000
0000
0000
,  // measure 82
1000
0000
0010
0000
,  // measure 83
0100
0000
0000
0000
,  // measure 84
0001
0000
1000
0000
,  // measure 85
0100
0000
0000
0000
,  // measure 86
0010
0000
0001
0000
,  // measure 87
1000
0000
0000
0000
,  // measure 88
0010
0000
0000
0000
,  // measure 89
0000
0000
0000
0000
,  // measure 90
0000
0000
0000
0000
,  // measure 91
0000
0000
0000
0000
,  // measure 92
0000
0000
0000
0000
,  // measure 93
0000
0000
0000
0000
,  // measure 94
0000
0000
0000
1001
;

//---------------dance-single - ----------------
#NOTES:
     dance-single:
     :
     Easy:
     3:
     0.251,0.451,0.141,0.118,0.000: // measure 1
0000
0000
0000
0000
,  // measure 2
0000
0000
0000
0000
,  // measure 3
0010
0000
0000
0000
,  // measure 4
0100
0000
0000
0000
,  // measure 5
0001
0000
0000
0000
,  // measure 6
1000
0000
0000
0000
,  // measure 7
0100
0000
0000
0000
,  // measure 8
0010
0000
0000
0000
,  // measure 9
0001
0000
0000
0000
,  // measure 10
0000
0000
1000
0001
,  // measure 11
1001
0000
0100
0000
,  // measure 12
0010
0000
1000
0000
,  // measure 13
0001
0000
0010
0000
,  // measure 14
1000
0010
0001
0000
,  // measure 15
0000
1000
0100
0000
,  // measure 16
0001
0100
0010
0000
,  // measure 17
1000
0000
0001
0000
,  // measure 18
1000
0100
0001
0100
,  // measure 19
0000
0001
0100
0001
,  // measure 20
0000
1000
0010
1000
,  // measure 21
0000
0100
0010
0100
,  // measure 22
0000
1000
0001
0100
,  // measure 23
0010
0000
1000
0000
,  // measure 24
0000
0001
0010
0100
,  // measure 25
1000
0000
0001
0000
,  // measure 26
1000
0001
1000
0001
,  // measure 27
0000
1000
0010
0000
,  // measure 28
0100
0001
0010
0100
,  // measure 29
0000
0010
0100
0000
,  // measure 30
1000
0001
0100
0001
,  // measure 31
0000
0010
0100
0000
,  // measure 32
0000
0010
0001
1000
,  // measure 33
0010
0000
0100
0000
,  // measure 34
0110
0000
0001
1000
,  // measure 35
2002
0000
3003
0000
,  // measure 36
0220
0000
0330
0000
,  // measure 37
2002
3003
0220
0330
,  // measure 38
1000
0001
1001
0000
,  // measure 39
0001
0010
0100
0000
,  // measure 40
1000
0010
0100
0000
,  // measure 41
0010
0000
1000
0000
,  // measure 42
0001
1000
0100
0010
,  // measure 43
0220
0000
0330
0000
,  // measure 44
2002
0000
3003
0000
,  // measure 45
0220
0330
2002
3003
,  // measure 46
0010
0001
1000
0010
,  // measure 47
0100
0000
0010
0000
,  // measure 48
1000
0000
0001
0000
,  // measure 49
0010
0010
0001
1000
,  // measure 50
0010
0100
0000
0000
,  // measure 51
0110
0000
0000
0000
,  // measure 52
1000
0000
0000
0000
,  // measure 53
0001
0000
0000
0000
,  // measure 54
0100
0000
0010
0000
,  // measure 55
1000
0000
0000
0000
,  // measure 56
0100
0000
0000
0000
,  // measure 57
0010
0000
0000
0000
,  // measure 58
0001
0000
1000
0000
,  // measure 59
0001
0000
0000
0000
,  // measure 60
1001
0000
0010
0000
,  // measure 61
0110
0000
0001
0000
,  // measure 62
1000
0000
0100
0000
,  // measure 63
0010
0100
1000
0001
,  // measure 64
0100
0000
0010
0000
,  // measure 65
0100
0001
1000
0000
,  // measure 66
0001
0000
0010
0000
,  // measure 67
0100
0010
0001
0000
,  // measure 68
1000
0000
0010
0000
,  // measure 69
0100
0100
0001
1000
,  // measure 70
0100
0000
0010
0000
,  // measure 71
0100
0010
0001
0000
,  // measure 72
1000
0000
0010
0000
,  // measure 73
0100
0001
1000
0000
,  // measure 74
0001
0001
0010
0000
,  // measure 75
0100
0000
0110
0000
,  // measure 76
0001
0010
0100
1000
,  // measure 77
0001
0010
0100
0000
,  // measure 78
1000
0010
0100
0001
,  // measure 79
1000
0010
0100
0000
,  // measure 80
0001
1000
0100
0000
,  // measure 81
0100
1000
0001
0000
,  // measure 82
0100
0100
0010
0000
,  // measure 83
1000
0010
1010
0000
,  // measure 84
0000
0001
0010
0000
,  // measure 85
0100
0010
0001
1000
,  // measure 86
0000
0010
0100
0000
,  // measure 87
0001
0100
0101
0000
,  // measure 88
1001
0000
0000
0000
,  // measure 89
0000
0000
0000
0000
,  // measure 90
0000
0000
0000
0000
,  // measure 91
0000
0000
0000
0000
,  // measure 92
0000
0000
0000
0000
,  // measure 93
0000
0000
0000
0000
,  // measure 94
0000
0000
0000
1001
;
