#TITLE:New Horizon;
#SUBTITLE:;
#ARTIST:Ken Blast;
#TITLETRANSLIT:;
#SUBTITLETRANSLIT:;
#ARTISTTRANSLIT:;
#CREDIT:348;
#BANNER:New Horizon Banner.png;
#BACKGROUND:New Horizon Background.png;
#LYRICSPATH:New Horizon.lrc;
#CDTITLE:;
#MUSIC:New Horizon.mp3;
#OFFSET:-1.123;
#SAMPLESTART:64.827;
#SAMPLELENGTH:15.000;
#SELECTABLE:YES;
#BPMS:0.000=162.000;
#STOPS:;
#BGCHANGES:;

//---------------dance-single - ----------------
#NOTES:
     dance-single:
     :
     Beginner:
     1:
     0.073,0.124,0.000,0.000,0.000: // measure 1
0000
0000
0000
0000
,  // measure 2
0000
0000
0000
0000
,  // measure 3
0000
0000
0000
0000
,  // measure 4
0000
0000
0000
0000
,  // measure 5
0000
0000
0000
0000
,  // measure 6
0000
0000
0000
0000
,  // measure 7
0000
0000
0000
0000
,  // measure 8
1000
0000
0000
0000
,  // measure 9
0000
0000
0000
0000
,  // measure 10
0001
0000
0000
0000
,  // measure 11
0000
0000
0000
0000
,  // measure 12
0100
0000
0000
0000
,  // measure 13
0100
0000
0000
0000
,  // measure 14
0001
0000
0000
0000
,  // measure 15
0001
0000
0000
0000
,  // measure 16
1000
0000
0000
0000
,  // measure 17
1000
0000
0000
0000
,  // measure 18
0010
0000
0000
0000
,  // measure 19
0010
0000
0000
0000
,  // measure 20
1000
0000
0000
0000
,  // measure 21
0000
0000
0000
0000
,  // measure 22
0001
0000
0010
0000
,  // measure 23
0001
0000
0000
0000
,  // measure 24
0100
0000
0000
0000
,  // measure 25
0000
0000
0000
0000
,  // measure 26
0010
0000
1000
0000
,  // measure 27
0010
0000
0000
0000
,  // measure 28
1000
0000
0000
0000
,  // measure 29
0001
0000
0000
0000
,  // measure 30
1000
0000
0000
0000
,  // measure 31
0001
0000
0000
0000
,  // measure 32
0100
0000
0000
0000
,  // measure 33
0010
0000
0000
0000
,  // measure 34
0100
0000
0000
0000
,  // measure 35
0010
0000
0000
0000
,  // measure 36
1000
0000
0000
0000
,  // measure 37
0000
0000
0000
0000
,  // measure 38
0001
0000
0100
0000
,  // measure 39
0010
0000
0000
0000
,  // measure 40
1000
0000
0100
0000
,  // measure 41
0010
0000
0001
0000
,  // measure 42
1000
0000
0000
0000
,  // measure 43
0000
0000
0000
0000
,  // measure 44
0001
0000
0000
0000
,  // measure 45
0000
0000
0000
0000
,  // measure 46
1000
0000
0000
0000
,  // measure 47
0000
0000
0000
0000
,  // measure 48
0010
0000
0000
0000
,  // measure 49
0000
0000
0000
0000
,  // measure 50
0100
0000
0000
0000
,  // measure 51
0000
0000
0000
0000
,  // measure 52
0001
0000
1000
0000
,  // measure 53
0001
0000
0000
0000
,  // measure 54
0100
0000
0010
0000
,  // measure 55
0100
0000
0000
0000
,  // measure 56
0001
0000
0000
0000
,  // measure 57
0100
0000
0000
0000
,  // measure 58
0010
0000
0000
0000
,  // measure 59
1000
0000
0000
0000
,  // measure 60
0001
0000
0000
0000
,  // measure 61
0000
0000
0000
0000
,  // measure 62
1000
0000
0000
0000
,  // measure 63
0000
0000
0000
0000
,  // measure 64
0001
0000
0000
0000
;

//---------------dance-single - ----------------
#NOTES:
     dance-single:
     :
     Easy:
     3:
     0.172,0.255,0.069,0.039,0.000: // measure 1
0000
0000
0000
0000
,  // measure 2
0000
0000
0000
0000
,  // measure 3
0000
0000
0000
0000
,  // measure 4
0000
0000
0000
0000
,  // measure 5
0000
0000
0000
0000
,  // measure 6
0000
0000
0000
0000
,  // measure 7
0000
0000
0000
0000
,  // measure 8
1000
0000
0000
0000
,  // measure 9
0001
0000
0000
0000
,  // measure 10
0100
0000
0000
0000
,  // measure 11
0010
0000
0000
0000
,  // measure 12
1000
0000
0100
0000
,  // measure 13
0010
0000
0001
0000
,  // measure 14
0100
0000
0010
0000
,  // measure 15
1000
0000
0001
0000
,  // measure 16
0100
0000
0001
0000
,  // measure 17
1000
0000
0010
0000
,  // measure 18
1000
0000
0001
0000
,  // measure 19
0200
0000
0000
0000
,  // measure 20
0301
0000
0000
0000
,  // measure 21
1000
0100
1000
0000
,  // measure 22
0010
0000
0000
0000
,  // measure 23
0100
0001
0100
0000
,  // measure 24
0010
0000
0000
0000
,  // measure 25
1000
0001
1000
0000
,  // measure 26
0001
0000
0000
0000
,  // measure 27
0100
0010
0100
0000
,  // measure 28
0001
0000
0000
0000
,  // measure 29
1000
0000
0000
0000
,  // measure 30
0001
0000
1000
0000
,  // measure 31
0001
0000
0000
0000
,  // measure 32
0100
0000
0000
0000
,  // measure 33
0010
0000
0000
0000
,  // measure 34
0100
0000
0010
0000
,  // measure 35
0100
0000
0000
0000
,  // measure 36
0002
0000
0000
0003
,  // measure 37
1000
0100
0010
0001
,  // measure 38
2000
0000
0000
3000
,  // measure 39
0010
1000
0001
0100
,  // measure 40
0001
0000
1100
0000
,  // measure 41
1000
0000
0011
0000
,  // measure 42
1001
0000
0000
0000
,  // measure 43
0100
0000
0010
0000
,  // measure 44
1000
0100
1000
0000
,  // measure 45
0001
0000
0010
0000
,  // measure 46
0001
0010
0001
0000
,  // measure 47
1000
0000
0100
0000
,  // measure 48
1000
0010
0100
0000
,  // measure 49
0001
0000
1000
0000
,  // measure 50
0001
0100
0010
0000
,  // measure 51
0100
0000
0010
0000
,  // measure 52
1000
0000
0100
0000
,  // measure 53
1000
0001
0100
0000
,  // measure 54
0010
1000
0001
0000
,  // measure 55
0001
0000
0010
0000
,  // measure 56
0001
0000
0100
0000
,  // measure 57
0010
0100
0001
0000
,  // measure 58
0100
0010
1000
0000
,  // measure 59
0010
0000
1000
0000
,  // measure 60
1001
0000
1000
0000
,  // measure 61
1010
0000
0001
0000
,  // measure 62
0101
0000
0100
0000
,  // measure 63
1001
0000
0010
0000
,  // measure 64
0200
0000
0000
0000
,  // measure 65
0000
0000
0000
0300
;

//---------------dance-single - ----------------
#NOTES:
     dance-single:
     :
     Medium:
     5:
     0.369,0.383,0.099,0.237,0.000: // measure 1
0000
0000
0000
0000
,  // measure 2
0000
0000
0000
0000
,  // measure 3
0000
0000
0000
0000
,  // measure 4
0000
0000
0000
0000
,  // measure 5
0000
0000
0000
0000
,  // measure 6
0000
0000
0000
0000
,  // measure 7
0000
0000
0000
0000
,  // measure 8
1000
0000
0000
0200
0000
0000
0300
0000
,  // measure 9
0010
0000
0000
0002
0000
0000
0003
0000
,  // measure 10
1000
0000
0000
0002
0000
0000
0000
0103
,  // measure 11
0000
0000
0020
0130
,  // measure 12
0100
0001
0100
1000
,  // measure 13
0100
0001
1000
0010
,  // measure 14
1000
0100
0001
0100
,  // measure 15
1000
0100
0010
0001
,  // measure 16
1000
0100
1000
0001
,  // measure 17
1000
0001
0010
0001
,  // measure 18
1000
0001
0100
0010
,  // measure 19
2002
0000
0000
3003
,  // measure 20
1000
0100
1000
0010
,  // measure 21
0100
0000
0001
0000
0010
0000
0001
0010
,  // measure 22
0001
0010
0001
0100
,  // measure 23
0010
0000
1000
0100
1000
0100
1000
0000
,  // measure 24
0001
0010
1000
0010
,  // measure 25
0001
0000
1000
0000
0100
0000
1000
0010
,  // measure 26
1000
0000
0100
0000
0001
0000
0100
1000
,  // measure 27
0000
0001
0000
0100
0000
0020
0000
0000
,  // measure 28
1030
0100
1000
0011
,  // measure 29
1000
0010
1000
0000
0001
0000
0010
0000
,  // measure 30
0001
0000
0100
0000
0010
0000
1000
0002
,  // measure 31
0000
0103
0010
1001
,  // measure 32
1000
0100
0010
0100
,  // measure 33
1000
0100
0010
0000
0001
0000
1000
0000
,  // measure 34
0001
0010
0100
0000
1000
0000
0001
0000
,  // measure 35
2000
0000
0010
3010
,  // measure 36
1000
0000
0100
0000
0001
0000
0100
1000
,  // measure 37
0001
0010
0001
1100
,  // measure 38
0001
0000
0010
0000
0100
0000
0010
0001
,  // measure 39
0010
0001
1000
0110
,  // measure 40
0002
1003
2000
3100
,  // measure 41
0200
0310
0020
0031
,  // measure 42
0101
0000
0000
0000
1100
0000
0000
1000
,  // measure 43
0000
0010
0000
0100
0000
0002
0000
0000
,  // measure 44
1003
0000
0100
0000
1000
0010
1000
0000
,  // measure 45
0001
0010
0100
0000
0010
0000
0001
0000
,  // measure 46
1000
0000
0001
0000
1000
0001
1000
0000
,  // measure 47
0010
0000
0100
0001
0100
0000
0011
0000
,  // measure 48
1000
0100
0200
0310
,  // measure 49
0010
0001
0002
1003
,  // measure 50
1000
0100
1000
0000
1000
0010
1000
0000
,  // measure 51
0001
0000
0010
0001
0010
0001
0010
0000
,  // measure 52
0001
1000
0001
1100
,  // measure 53
0001
0010
0001
0000
0001
1000
0001
0000
,  // measure 54
0002
1003
0100
1000
,  // measure 55
0001
0010
0001
1010
,  // measure 56
0001
0100
0100
0001
,  // measure 57
1000
0010
0100
0000
0100
0010
1000
0000
,  // measure 58
0001
1000
2000
3001
,  // measure 59
0002
0000
0000
1000
0000
1003
0000
0000
,  // measure 60
2000
0000
0000
0010
0000
0000
3010
0000
,  // measure 61
0020
0000
0000
1000
0000
0000
0130
0000
,  // measure 62
0200
0000
0000
0010
0000
0000
0301
0000
,  // measure 63
0002
0000
0000
1000
0000
0000
1003
0000
,  // measure 64
2000
0000
0000
0000
,  // measure 65
0000
0000
0000
3000
;

//---------------dance-single - ----------------
#NOTES:
     dance-single:
     :
     Hard:
     8:
     0.545,0.543,0.404,0.246,0.000: // measure 1
0000
0000
0000
0000
,  // measure 2
0000
0000
0000
0000
,  // measure 3
0000
0000
0000
0000
,  // measure 4
0000
0000
0000
0000
,  // measure 5
0000
0000
0000
0000
,  // measure 6
0000
0000
0000
0000
,  // measure 7
0000
0000
0000
0000
,  // measure 8
1000
0000
0000
0110
0000
0000
0001
0010
,  // measure 9
0001
0000
0000
1001
0000
0000
1000
0100
,  // measure 10
1000
0000
0000
0011
0000
0000
1000
0200
,  // measure 11
0000
0000
0000
0000
0310
0001
0010
0000
,  // measure 12
0001
0010
0100
0000
0100
0010
0001
0000
,  // measure 13
1000
0100
0001
0100
1000
0100
0010
0000
,  // measure 14
0001
1000
0200
0000
0310
0001
1000
0000
,  // measure 15
0001
0010
1000
0010
0001
1000
0001
0000
,  // measure 16
1000
0100
0010
0000
0010
0100
1000
0000
,  // measure 17
0001
0010
0100
1000
0010
0100
0002
0000
,  // measure 18
1003
0100
0010
0001
1000
0010
0100
0001
,  // measure 19
2000
0000
0020
3030
,  // measure 20
0011
0000
1100
0000
0001
0010
0100
0010
,  // measure 21
0001
1000
0100
1000
0001
0100
0010
0000
,  // measure 22
1001
0000
1000
0100
0001
0100
1000
0100
,  // measure 23
0010
0001
0100
0010
1000
0001
0100
0010
,  // measure 24
1010
0000
0101
0000
0001
0010
1000
0010
,  // measure 25
0001
0010
0100
0010
0001
1000
0001
0000
,  // measure 26
0110
0000
1000
0100
0010
0001
1000
0001
,  // measure 27
0000
1100
0000
0101
0000
2002
0000
3003
,  // measure 28
1000
0000
0011
0000
1000
0100
0010
0000
,  // measure 29
0010
0100
1000
0001
0100
0010
1000
0000
,  // measure 30
0001
0000
1100
0000
0001
0010
0100
1000
,  // measure 31
0001
0010
0001
1000
0100
0000
1001
0000
,  // measure 32
0002
1003
0200
0310
,  // measure 33
0010
1000
0001
0000
1000
0001
0100
0000
,  // measure 34
0001
0010
0001
0100
0010
1000
0100
2000
,  // measure 35
0000
3001
0110
1001
,  // measure 36
0001
0010
0100
0010
0000
0001
1000
0100
,  // measure 37
0000
1000
0002
0000
1003
0000
1100
0000
,  // measure 38
0001
0010
1000
0010
0001
0000
1010
0000
,  // measure 39
1000
0001
0100
0001
1000
0000
0101
0000
,  // measure 40
1000
0100
0002
0000
0103
1000
0020
0000
,  // measure 41
0130
0001
1000
0010
1000
0001
0100
0000
,  // measure 42
0011
0000
1100
0000
1001
0000
0100
0020
,  // measure 43
0000
0000
1030
0000
0001
0100
0001
0000
,  // measure 44
0100
0000
0110
0000
0001
0100
0010
0100
,  // measure 45
0000
0010
1000
0100
0010
0000
1001
0000
,  // measure 46
0001
1000
0200
0000
0310
0001
2000
0000
,  // measure 47
3001
0010
0001
0100
0010
1000
0100
0000
,  // measure 48
1010
0000
0011
0000
1000
0100
0010
0100
,  // measure 49
1000
0001
0100
0001
1000
0010
2000
0000
,  // measure 50
3001
1000
0100
1000
0001
0010
0100
1000
,  // measure 51
0000
0101
0000
1010
0000
0220
0000
0330
,  // measure 52
1000
0100
0001
0000
0001
0100
1000
0000
,  // measure 53
1000
0100
0001
0100
1000
0010
0001
0010
,  // measure 54
2000
0000
3002
0000
0103
0001
0101
0000
,  // measure 55
1000
0100
0010
0100
1000
0010
0001
0010
,  // measure 56
1000
0010
0001
0000
0001
0010
1000
0000
,  // measure 57
1000
0100
0010
0100
1000
0010
1010
0000
,  // measure 58
0001
0010
1000
0010
0001
0100
1000
0100
,  // measure 59
0001
1000
0000
0110
0000
0110
0000
2002
,  // measure 60
0000
0000
3003
1100
0000
0000
0010
0100
,  // measure 61
0001
0000
0000
0011
0000
0000
1000
0001
,  // measure 62
0100
0000
0000
1010
0000
0000
0001
1000
,  // measure 63
0010
0000
0000
0101
0000
0000
1001
0000
,  // measure 64
0220
0000
0000
0000
,  // measure 65
0000
0000
0000
0330
;

//---------------dance-single - ----------------
#NOTES:
     dance-single:
     :
     Challenge:
     9:
     0.652,0.638,0.266,0.187,0.192: // measure 1
0000
0000
0000
0000
,  // measure 2
0000
0000
0000
0000
,  // measure 3
0000
0000
0000
0000
,  // measure 4
0000
0000
0000
0000
,  // measure 5
0000
0000
0000
0000
,  // measure 6
0000
0000
0000
0000
,  // measure 7
0000
0000
0000
0000
,  // measure 8
1001
0000
0000
0110
0000
0000
1000
0100
,  // measure 9
0020
0000
0000
0000
0000
0000
0031
0000
0000
0000
1000
0100
0000
1000
0010
1000
,  // measure 10
0000
0000
0000
0101
0000
0000
0001
0100
,  // measure 11
0020
0000
1030
0000
0001
1000
1001
0000
,  // measure 12
0001
0010
1000
0010
0001
0100
1000
0100
,  // measure 13
0001
0010
0100
1000
0010
0100
0001
1000
,  // measure 14
0010
1000
0010
0001
0010
0100
0001
1000
,  // measure 15
0100
1000
0100
0001
0100
1000
0010
0001
,  // measure 16
0010
1000
0100
0010
0001
0100
0010
1000
,  // measure 17
0001
0010
0001
0100
0010
1000
0100
1000
,  // measure 18
0100
1000
0010
0001
0010
1000
0001
2002
,  // measure 19
0000
0000
3003
0000
0010
0100
0110
0000
,  // measure 20
1000
0010
1000
0000
0001
0000
0010
0000
0001
0000
0100
0000
0010
0000
0100
0000
,  // measure 21
0001
0000
0100
0010
0100
0000
0001
0000
1000
0000
0100
0000
0010
0000
0100
0000
,  // measure 22
1000
0100
1000
0100
1000
0000
0001
0000
0010
0000
0001
0000
0100
0000
0010
0000
,  // measure 23
0100
0001
1000
0010
0100
0010
2000
0001
,  // measure 24
3001
0010
0001
0000
0100
0000
0010
0000
1000
0000
0100
0000
0010
0000
0001
0000
,  // measure 25
0100
0000
0010
1000
0010
0000
0100
0000
0001
0000
1000
0000
0010
0000
0100
0000
,  // measure 26
0001
0010
0001
0010
0001
0000
1000
0000
0010
0000
0100
0000
0001
0000
1000
0000
,  // measure 27
0000
0001
0100
1010
0000
2002
0000
3003
,  // measure 28
0001
0000
0010
0000
1000
0000
0010
0000
0001
0000
1000
0010
1000
0000
0001
0000
,  // measure 29
0100
0010
0100
0001
1000
0010
1010
0000
,  // measure 30
0001
0000
0100
0000
0010
0000
1000
0000
0010
0000
1000
0100
1000
0000
0020
0000
,  // measure 31
0000
1030
0100
0001
0100
1000
0110
0000
,  // measure 32
1000
0000
0100
0000
0010
0000
0100
0000
1000
0000
0001
0010
0001
0000
1000
0000
,  // measure 33
0001
0000
0010
0000
0001
0000
0100
0000
0010
0000
1000
0010
1000
0000
0100
0000
,  // measure 34
0010
0001
1000
0010
0000
0101
0000
1010
,  // measure 35
0000
0001
1000
0010
0100
0010
0110
0000
,  // measure 36
1000
0000
0100
0000
0010
0000
0001
0000
1000
0100
1000
0000
0001
0000
0010
0000
,  // measure 37
1000
0000
0010
0000
0001
0000
1000
0000
0001
0010
0001
0000
2000
0000
0000
0000
,  // measure 38
3001
0000
0010
0000
0100
0000
0010
0000
0001
1000
0001
0000
0100
0000
0010
0000
,  // measure 39
1000
0000
0100
0000
0001
0000
0100
0000
1000
0000
0010
0000
0100
0010
0100
0010
,  // measure 40
0100
0001
0100
0000
0010
1000
0010
0000
,  // measure 41
1000
0100
1000
0000
0001
0010
0001
0000
,  // measure 42
1000
0000
0100
0000
0010
0000
0001
0000
1000
0000
0010
0100
0010
0000
2000
0000
,  // measure 43
0000
3001
0010
0100
1000
0000
0110
0000
,  // measure 44
0001
0000
1000
0000
0100
0000
1000
0010
1000
0000
0001
0000
0100
0000
0001
0000
,  // measure 45
1000
0000
0100
0000
0010
0000
0001
1000
0001
0000
0010
0000
0100
0000
1000
0000
,  // measure 46
0010
0000
0100
0000
0010
0000
1000
0001
1000
0001
1000
0000
0001
0000
0100
0000
,  // measure 47
0010
1000
0001
0100
0000
1001
0000
0010
,  // measure 48
1000
0000
0100
0000
0010
0000
0001
0010
0001
0000
0100
0000
0010
0000
1000
0000
,  // measure 49
0100
0000
1000
0000
0001
0000
0010
0001
0010
0000
0001
0000
1000
0000
0010
0000
,  // measure 50
1000
0000
0001
0000
0010
0000
0001
0100
0001
0000
1000
0000
0010
0000
0100
0000
,  // measure 51
0000
0101
0000
1010
0000
0220
0000
0330
,  // measure 52
1000
0000
0100
0000
0010
0000
0100
1000
0001
0000
0010
0000
0001
0000
0100
0000
,  // measure 53
0001
0000
0010
0000
1000
0000
0010
0001
0010
0000
0001
0000
1000
0000
0010
0000
,  // measure 54
0100
0000
0001
0000
1000
0000
0010
1000
0010
1000
0010
0000
1000
0000
0200
0000
,  // measure 55
0000
0320
0000
0032
0000
1003
0100
0010
,  // measure 56
0100
0000
1000
0001
1000
0000
0100
0000
1000
0000
0100
0000
0001
0000
0100
0000
,  // measure 57
0001
0000
0100
0000
1000
0000
0100
0001
0100
0000
1000
0000
0001
0000
0010
0000
,  // measure 58
0001
0010
0001
1000
0010
0100
0010
1000
,  // measure 59
0001
0110
0000
1001
0000
1001
0000
0220
,  // measure 60
0000
0330
0000
1001
0000
0000
0001
1000
,  // measure 61
0100
0000
0000
0000
0000
0000
1001
0000
0000
0000
0100
0001
0000
1000
0010
1000
,  // measure 62
0000
0000
0000
0110
0000
0000
1000
0001
,  // measure 63
0100
0000
0000
0000
0000
0000
1001
0000
0000
0000
0001
0100
0000
0010
1000
0000
,  // measure 64
2002
0000
0000
0000
,  // measure 65
0000
0000
0000
3003
;
