#TITLE:ミコリザ4世 (秋葉工房REMIX);
#SUBTITLE:;
#ARTIST:ALBATROSICKS;
#TITLETRANSLIT:Mikoriza IV (DJ COMMAND REMIX);
#SUBTITLETRANSLIT:;
#ARTISTTRANSLIT:;
#GENRE:EUROBEAT;
#CREDIT:AznPunk07 / GuardianFrozen;
#MENUCOLOR:#757575;
#METERTYPE:DDR;
#BANNER:Mikoriza IV (DJ COMMAND REMIX)-bn.png;
#BACKGROUND:Mikoriza IV (DJ COMMAND REMIX)-bg.png;
#LYRICSPATH:;
#CDTITLE:!cdtitle.png;
#MUSIC:Mikoriza IV (DJ COMMAND REMIX).mp3;
#OFFSET:-0.034;
#SAMPLESTART:61.500;
#SAMPLELENGTH:12.940;
#SELECTABLE:YES;
#LISTSORT:;
#BPMS:0.000=168.000;
#STOPS:;
#BGCHANGES:0.000=Mikoriza IV (DJ COMMAND REMIX)-bg.png=1.000=1=1=0,
99999=-nosongbg-=1.000=0=0=0 // don't automatically add -songbackground-
;
#ATTACKS:;

//---------------dance-single - ----------------
#NOTES:
     dance-single:
     :
     Hard:
     9:
     0.583,0.719,0.207,0.026,0.164: // measure 1
0000
0000
0000
0000
,  // measure 2
0000
0000
0000
0000
,  // measure 3
0000
0000
0000
0000
,  // measure 4
0000
0000
0000
0000
,  // measure 5
1000
0000
0100
0000
1000
0100
0000
0000
,  // measure 6
0001
0000
0100
0000
0001
0100
0000
0000
,  // measure 7
0010
0000
0100
0000
0010
0100
0000
1001
,  // measure 8
0000
0010
1000
0100
0000
0010
0001
1000
,  // measure 9
0010
0000
0100
0001
1000
0100
0000
0000
,  // measure 10
1010
0000
0100
0001
0010
1000
0000
0000
,  // measure 11
0101
0000
0001
1000
0010
0001
0000
1010
,  // measure 12
0000
0010
1000
0100
0000
0010
0100
1000
,  // measure 13
0001
0000
0100
0001
0000
0100
0010
1000
,  // measure 14
0000
0100
0000
0010
0100
0000
1000
0001
,  // measure 15
0100
0010
0100
0010
0100
0000
0001
0000
0000
0001
1000
0000
0000
0000
0000
0000
,  // measure 16
0001
0010
0000
0001
0000
1000
0010
1000
,  // measure 17
0001
0010
0000
0001
0100
0000
0010
1000
0000
0000
0100
0000
0010
0000
0001
0000
,  // measure 18
1000
0000
0000
0001
0000
0000
1000
0000
0000
0000
0010
0000
0100
0000
0010
0000
,  // measure 19
0000
0000
1000
0001
1000
0001
1000
0000
0010
0000
0100
0000
0001
0000
0010
0000
,  // measure 20
0100
0000
0000
0010
0000
0000
0001
0000
0000
0000
1000
0000
0010
0000
0100
0000
,  // measure 21
0001
0000
0001
0000
0100
0001
0000
1000
,  // measure 22
0000
0100
0000
0010
0000
0100
1000
0001
,  // measure 23
0000
0000
0010
0000
0100
0010
0000
0001
,  // measure 24
0000
1000
0001
0100
0000
0010
1000
0100
,  // measure 25
0000
0010
1000
0100
0000
0010
1000
0001
,  // measure 26
0000
0010
1000
0001
0000
0100
0001
0010
,  // measure 27
0000
0100
0001
0010
0000
0100
0001
1000
,  // measure 28
0000
0000
0100
0000
0001
0000
1000
0000
0100
0000
0010
0001
0010
0001
0010
0000
,  // measure 29
0100
0000
1100
0000
0010
0100
0000
1000
,  // measure 30
0000
0001
0000
0100
0000
0100
0010
0001
,  // measure 31
0000
0010
1000
0100
,  // measure 32
0010
0001
0010
0000
0100
1000
0100
0000
0110
0000
0001
0000
1000
0000
0001
0000
,  // measure 33
0000
0100
0010
0100
0000
0010
1000
0010
,  // measure 34
0000
0100
0010
0100
0000
0001
0010
0001
,  // measure 35
0000
1000
0100
1000
0000
0010
0100
0010
,  // measure 36
1000
0000
0000
1000
0100
0000
0000
0100
0010
0000
0000
0010
0001
0000
0000
0001
,  // measure 37
0100
0000
0010
0000
1000
0001
1000
0001
,  // measure 38
0000
0010
0000
0100
0010
0001
1000
0001
,  // measure 39
0100
0100
0100
0010
1000
0010
0100
0001
,  // measure 40
0000
1000
0110
1010
,  // measure 41
0101
0000
0010
0000
1000
0100
1000
0100
,  // measure 42
0000
0000
0010
0000
0001
0000
0100
0000
0001
0000
0000
0001
0010
0000
0000
0100
,  // measure 43
1000
0000
0000
0000
0010
0000
0000
0000
0100
0000
0000
0001
0000
0000
1000
0000
,  // measure 44
0200
0010
0010
0310
,  // measure 45
0001
0000
0100
0010
1000
0000
1000
0100
,  // measure 46
0000
1000
0000
0001
0100
0000
0010
1000
,  // measure 47
0100
0000
0010
0001
1000
0000
0001
1000
,  // measure 48
0000
0010
0000
0100
0010
0000
0100
0000
,  // measure 49
0001
0000
0001
1000
0000
1000
0100
0000
,  // measure 50
0110
0000
0001
0010
0100
0000
1000
0001
,  // measure 51
0100
0000
0010
0000
1000
0100
1000
0001
,  // measure 52
0000
0000
0010
0000
0100
0000
0000
0000
1000
0000
0001
1000
0001
0000
1000
0000
,  // measure 53
0010
0000
0100
0001
0010
0000
0100
0010
,  // measure 54
0000
0010
0100
0000
0000
0100
1000
0000
0010
0000
0000
0000
0100
0000
0000
0000
,  // measure 55
0001
0000
0010
1000
0010
0000
0100
0010
,  // measure 56
0000
0010
0001
0000
0000
0001
1000
0000
0010
0000
0000
0000
0100
0000
0000
0000
,  // measure 57
0001
0000
0001
0100
0000
0100
0010
0000
,  // measure 58
1010
0000
0100
0001
0100
0000
0001
0000
,  // measure 59
0011
0000
1100
0000
1000
0100
0010
0001
,  // measure 60
1000
0000
0001
0000
1000
0000
0001
0000
0100
0000
0010
0100
0010
0000
0100
0000
,  // measure 61
0001
0010
0100
1000
0000
1100
0000
0110
,  // measure 62
0000
1000
0001
1000
0000
0101
0000
0110
,  // measure 63
0000
0001
1000
0001
0000
1010
0000
1001
,  // measure 64
0000
1000
0001
0010
0100
0000
0010
0000
,  // measure 65
0001
0100
0010
1000
0001
0010
0000
0100
,  // measure 66
0000
0010
0001
1000
0001
0100
0000
0010
,  // measure 67
0000
1000
0100
1000
0010
0100
0000
0001
,  // measure 68
0000
0000
0010
0000
0100
0000
1000
0000
0001
0000
1000
0100
1000
0000
0001
0100
,  // measure 69
0001
0010
0100
1000
0001
0100
1000
0100
,  // measure 70
0010
1000
0010
1000
0100
0000
0010
0000
0001
0000
1000
0000
0010
0000
0100
0000
,  // measure 71
0001
0010
0001
0010
0100
0000
1000
0000
0100
0000
0010
0000
0100
0000
1000
0000
,  // measure 72
0001
0000
0010
0011
0000
1001
0000
1100
,  // measure 73
0010
0100
0010
0100
1000
0000
0001
0000
1000
0000
0001
0000
0100
0000
1000
0000
,  // measure 74
0100
0001
0100
0001
1000
0000
0001
0000
0010
0000
0100
0000
1000
0000
0010
0000
,  // measure 75
1000
0000
0101
0000
1010
0001
1000
0100
,  // measure 76
0010
0000
0000
0001
0000
0000
1000
0000
0000
0000
0010
0000
1000
0000
0001
0000
,  // measure 77
0200
0020
0000
0000
0000
0000
0000
0000
,  // measure 78
0000
0000
0000
0000
,  // measure 79
0000
0000
0000
0000
,  // measure 80
0000
0000
0330
0000
;

//---------------dance-single - ----------------
#NOTES:
     dance-single:
     :
     Medium:
     6:
     0.380,0.377,0.190,0.026,0.009: // measure 1
0000
0000
0000
0000
,  // measure 2
0000
0000
0000
0000
,  // measure 3
0000
0000
0000
0000
,  // measure 4
0000
0000
0000
0000
,  // measure 5
0010
0100
1000
0000
,  // measure 6
0010
0100
0001
0000
,  // measure 7
0010
0100
1000
0000
,  // measure 8
0010
0100
0001
1000
,  // measure 9
0001
0010
0001
0000
,  // measure 10
1000
0010
1000
0000
,  // measure 11
0100
0000
0010
0000
0100
0000
0000
1001
,  // measure 12
0000
0000
0000
0110
0000
0000
1001
0000
,  // measure 13
0010
1000
0100
1100
,  // measure 14
0010
0001
0100
0110
,  // measure 15
0001
1000
0001
0010
,  // measure 16
0100
1000
0000
0001
0000
0100
0000
0001
,  // measure 17
0010
0001
1000
0010
,  // measure 18
0100
0000
0000
0001
0000
0000
1000
0000
0000
0000
0100
0000
0000
0000
0100
0000
,  // measure 19
0000
0000
0000
0010
0000
0000
0001
0000
,  // measure 20
1000
0010
0100
0001
,  // measure 21
1001
0100
0100
0010
,  // measure 22
0010
0000
1000
0000
0001
0000
1000
0100
,  // measure 23
0000
0010
0100
1000
,  // measure 24
0001
0000
0100
0000
0010
0000
1000
0100
,  // measure 25
0000
0000
0010
0100
0000
0000
1000
0100
,  // measure 26
0000
0000
0010
0100
0000
0000
0010
0001
,  // measure 27
0000
0000
0001
0100
0000
0000
0100
0010
,  // measure 28
0000
0000
0010
1000
0000
1000
0001
1000
,  // measure 29
0001
0001
0100
0100
,  // measure 30
0010
0000
1000
0000
0001
0000
0010
0100
,  // measure 31
0000
0010
0001
1000
,  // measure 32
0010
0000
0100
0000
0001
0000
0010
0100
,  // measure 33
0000
0000
0010
0001
0000
0000
0010
0100
,  // measure 34
0000
0000
0010
0001
0000
0000
0001
1000
,  // measure 35
0000
0000
0001
0100
0000
0000
0010
1000
,  // measure 36
0000
0000
0010
0100
0010
0000
0010
0000
,  // measure 37
0110
1000
0001
1000
,  // measure 38
0100
0010
0100
1000
,  // measure 39
0001
0100
0010
0100
,  // measure 40
0001
1000
0001
0010
,  // measure 41
1100
0000
0010
0100
,  // measure 42
0101
0000
0110
0000
,  // measure 43
1001
0000
0000
0000
0000
0000
0000
0000
0010
0000
0000
0010
0000
0000
0010
0000
,  // measure 44
0020
0030
0000
0000
,  // measure 45
0001
0000
0100
0001
0100
0000
0010
0000
,  // measure 46
1000
0100
0010
0100
,  // measure 47
1000
0000
0010
1000
0100
0000
0010
0000
,  // measure 48
0001
1000
0001
0100
,  // measure 49
0010
0000
0000
1000
0000
0000
0001
0000
,  // measure 50
0010
0000
0001
0010
0100
0000
0010
0000
,  // measure 51
0001
0000
1000
0000
0000
0001
1000
0001
,  // measure 52
0000
0100
0010
0110
,  // measure 53
1000
0000
0100
0010
0100
0000
1000
0000
,  // measure 54
0010
0000
0100
0010
0001
0000
0010
0000
,  // measure 55
0100
0000
0001
1000
0001
0000
0010
0000
,  // measure 56
0100
0000
0010
0001
1000
0000
0010
0000
,  // measure 57
0100
0000
0000
0001
0000
0000
1000
0000
,  // measure 58
0100
0000
0010
0100
1000
0000
0001
0000
,  // measure 59
0100
0000
0000
0000
0000
0010
1000
0001
,  // measure 60
0000
0000
0010
0000
,  // measure 61
0100
0110
0001
1000
,  // measure 62
0010
0101
0001
1000
,  // measure 63
0100
1100
0010
0001
,  // measure 64
1000
0011
1000
0010
,  // measure 65
0100
1010
0001
1000
,  // measure 66
0010
0110
1000
0001
,  // measure 67
0010
1100
0010
1000
,  // measure 68
0001
1001
0100
0010
,  // measure 69
1000
0000
0100
0000
1000
0100
0000
0000
,  // measure 70
0010
0000
0001
0000
0100
0001
0000
0000
,  // measure 71
1000
0000
0010
0000
0100
0010
0000
0000
,  // measure 72
1000
0000
0001
0000
0010
0100
0000
0000
,  // measure 73
0010
0000
0001
0000
1000
0010
0000
0100
,  // measure 74
0001
0000
1000
0000
0001
0010
0000
0100
,  // measure 75
1000
0000
0001
0000
0100
0010
0000
1000
,  // measure 76
0100
0000
0000
0110
0000
0000
0001
0000
,  // measure 77
2002
0000
0000
0000
,  // measure 78
0000
0000
0000
0000
,  // measure 79
0000
0000
0000
0000
,  // measure 80
0000
0000
3003
0000
;

//---------------dance-single - ----------------
#NOTES:
     dance-single:
     :
     Beginner:
     1:
     0.085,0.164,0.026,0.000,0.000: // measure 1
0000
0000
0000
0000
,  // measure 2
0000
0000
0000
0000
,  // measure 3
0000
0000
0000
0000
,  // measure 4
0000
0000
0000
0000
,  // measure 5
1000
0000
0000
0000
,  // measure 6
0000
0000
0000
0000
,  // measure 7
0001
0000
0000
0000
,  // measure 8
0000
0000
0000
0000
,  // measure 9
0100
0000
0000
0000
,  // measure 10
0100
0000
0000
0000
,  // measure 11
0010
0000
0000
0000
,  // measure 12
0010
0000
0000
0000
,  // measure 13
1000
0000
0000
0000
,  // measure 14
0000
0000
0000
0000
,  // measure 15
0001
0000
0000
0000
,  // measure 16
0010
0000
0000
0000
,  // measure 17
0001
0000
0000
0000
,  // measure 18
0000
0000
0000
0000
,  // measure 19
0100
0000
0000
0000
,  // measure 20
0010
0000
0000
0000
,  // measure 21
1000
0000
0000
0000
,  // measure 22
0000
0000
0000
0000
,  // measure 23
0001
0000
0000
0000
,  // measure 24
0000
0000
0000
0000
,  // measure 25
0010
0000
0000
0000
,  // measure 26
0000
0000
0000
0000
,  // measure 27
0100
0000
0000
0000
,  // measure 28
0000
0000
0000
0000
,  // measure 29
0010
0000
0000
0000
,  // measure 30
0000
0000
0000
0000
,  // measure 31
0001
0000
0000
0000
,  // measure 32
0000
0000
0000
0000
,  // measure 33
1000
0000
0000
0000
,  // measure 34
0000
0000
0000
0000
,  // measure 35
0010
0000
0000
0000
,  // measure 36
0000
0000
0000
0000
,  // measure 37
0100
0000
0100
0000
,  // measure 38
0100
0000
0000
0000
,  // measure 39
0001
0000
0000
0000
,  // measure 40
0010
0000
1000
0000
,  // measure 41
0100
0000
0000
0000
,  // measure 42
0010
0000
0000
0000
,  // measure 43
0001
0000
0000
0000
,  // measure 44
1001
0000
0000
0000
,  // measure 45
0010
0000
0010
0000
,  // measure 46
0010
0000
0000
0000
,  // measure 47
0100
0000
0100
0000
,  // measure 48
0100
0000
0000
0000
,  // measure 49
0001
0000
0001
0000
,  // measure 50
0001
0000
0000
0000
,  // measure 51
1000
0000
1000
0000
,  // measure 52
1000
0000
0000
0000
,  // measure 53
0010
0000
0000
0000
,  // measure 54
0100
0000
0000
0000
,  // measure 55
0001
0000
0000
0000
,  // measure 56
1000
0000
0100
0000
,  // measure 57
0010
0000
0000
0000
,  // measure 58
0100
0000
0000
0000
,  // measure 59
1000
0000
0000
0000
,  // measure 60
0001
0000
0000
0000
,  // measure 61
1000
0000
0000
0000
,  // measure 62
0000
0000
0000
0000
,  // measure 63
0001
0000
0000
0000
,  // measure 64
0000
0000
0100
0000
,  // measure 65
0100
0000
0000
0000
,  // measure 66
0000
0000
0000
0000
,  // measure 67
0001
0000
0000
0000
,  // measure 68
0000
0000
0010
0000
,  // measure 69
0010
0000
0000
0000
,  // measure 70
0100
0000
0000
0000
,  // measure 71
1000
0000
0000
0000
,  // measure 72
0001
0000
0000
0000
,  // measure 73
0100
0000
0000
0000
,  // measure 74
0010
0000
0000
0000
,  // measure 75
1000
0000
0000
0000
,  // measure 76
1001
0000
0000
0000
,  // measure 77
1001
0000
0000
0000
;

//---------------dance-single - ----------------
#NOTES:
     dance-single:
     :
     Easy:
     4:
     0.272,0.327,0.086,0.060,0.000: // measure 1
0000
0000
0000
0000
,  // measure 2
0000
0000
0000
0000
,  // measure 3
0000
0000
0000
0000
,  // measure 4
0000
0000
0000
0000
,  // measure 5
1000
0100
1100
0000
,  // measure 6
0001
0100
0101
0000
,  // measure 7
1000
0010
1010
0000
,  // measure 8
0001
0010
0011
0000
,  // measure 9
1000
1000
0100
0000
,  // measure 10
0010
0010
0001
0000
,  // measure 11
0001
0001
0100
0000
,  // measure 12
0010
0000
1000
0000
,  // measure 13
0001
0000
1000
0000
,  // measure 14
0100
0010
0001
0000
,  // measure 15
0100
0000
0010
0000
,  // measure 16
1000
0010
0100
0010
,  // measure 17
1000
0000
0001
0000
,  // measure 18
0010
0000
0100
0000
,  // measure 19
0010
0000
0001
0000
,  // measure 20
1000
1000
0001
0001
,  // measure 21
0100
0000
0010
0000
,  // measure 22
1000
0000
0001
0000
,  // measure 23
0010
0000
0001
0000
,  // measure 24
1000
0000
0010
0100
,  // measure 25
0020
0000
0030
0000
,  // measure 26
0200
0000
0300
0000
,  // measure 27
0002
0000
0003
0000
,  // measure 28
2000
0000
3000
0000
,  // measure 29
0011
0000
0100
0000
,  // measure 30
1000
0000
0001
0000
,  // measure 31
0200
0000
0000
0000
,  // measure 32
0310
0010
0000
1000
,  // measure 33
1000
0000
0001
0000
,  // measure 34
0010
0000
0100
0000
,  // measure 35
0010
0000
0001
0000
,  // measure 36
1000
0000
0001
0000
,  // measure 37
1010
0000
0100
0000
,  // measure 38
0001
0000
1000
0000
,  // measure 39
0001
0000
0010
0000
,  // measure 40
0100
0000
0010
0001
,  // measure 41
1000
0000
0010
0010
,  // measure 42
1000
0000
0100
0100
,  // measure 43
0010
0000
0001
1000
,  // measure 44
1001
0000
0000
0000
,  // measure 45
0001
0010
0100
0010
,  // measure 46
0001
0010
0100
0000
,  // measure 47
1000
0010
0001
0010
,  // measure 48
1000
0010
0001
0000
,  // measure 49
0010
0100
0001
0100
,  // measure 50
0010
0100
0001
0000
,  // measure 51
1000
0100
0001
0100
,  // measure 52
1000
0100
0001
0000
,  // measure 53
0010
0000
0100
0000
,  // measure 54
1000
0010
0100
0000
,  // measure 55
0001
0000
1000
0000
,  // measure 56
0001
0010
0100
0010
,  // measure 57
0001
0000
1000
0010
,  // measure 58
1000
0000
0110
0000
,  // measure 59
1000
0000
0000
0001
,  // measure 60
1000
0000
0100
0100
,  // measure 61
1000
0010
0100
0010
,  // measure 62
1000
0001
1000
0100
,  // measure 63
0010
0100
1000
0001
,  // measure 64
0100
0010
2000
0100
,  // measure 65
3001
0100
0010
1000
,  // measure 66
0001
0010
0100
0010
,  // measure 67
0001
1000
0010
0100
,  // measure 68
0001
1000
0200
0010
,  // measure 69
1300
0001
0010
0001
,  // measure 70
0100
0010
1000
0001
,  // measure 71
0010
0001
0100
0001
,  // measure 72
1000
0100
0010
0100
,  // measure 73
1000
0001
0100
0010
,  // measure 74
1000
1000
0001
0001
,  // measure 75
0110
0001
1000
0010
,  // measure 76
0100
0000
0010
0000
,  // measure 77
1001
0000
0000
0000
;
