#TITLE:Go Racin' Go;
#SUBTITLE:;
#ARTIST:Fastway;
#TITLETRANSLIT:;
#SUBTITLETRANSLIT:;
#ARTISTTRANSLIT:;
#GENRE:;
#CREDIT:;
#BANNER:Go Racin Go-bn.png;
#BACKGROUND:Go Racin Go-bg.png;
#LYRICSPATH:;
#CDTITLE:;
#MUSIC:Go Racin' Go.mp3;
#OFFSET:-8.130;
#SAMPLESTART:40.530;
#SAMPLELENGTH:12.000;
#SELECTABLE:YES;
#BPMS:0.000=160.000
,168.000=80.000
,179.000=160.000
;
#STOPS:;
#BGCHANGES:;
#KEYSOUNDS:;
#ATTACKS:;

//---------------dance-single - ----------------
#NOTES:
     dance-single:
     :
     Hard:
     9:
     0.696,0.984,0.306,0.356,0.356,426.000,31.000,36.000,0.000,0.000,0.000,0.696,0.984,0.306,0.356,0.356,426.000,31.000,36.000,0.000,0.000,0.000: // measure 0
1001
0000
1000
0100
0000
0100
0010
0000
0001
0000
0001
0000
0100
0000
0100
0000
,  // measure 1
0001
0000
1000
0100
0000
1000
0100
0000
0010
0000
0001
0000
0010
0000
0100
0000
,  // measure 2
1000
0000
0001
0100
0000
0001
0100
0000
0010
0000
1000
0000
0010
0000
1000
0000
,  // measure 3
0001
0000
1000
0010
0000
1000
0010
0000
0100
0000
0001
0010
0000
0001
0010
0000
,  // measure 4
0100
0000
1000
0001
0000
1000
0001
0000
0010
0000
0100
0000
1000
0000
0100
0000
,  // measure 5
0010
0000
0001
0100
0000
0010
1000
0000
0100
0000
0010
0000
0001
0000
0010
0000
,  // measure 6
0100
0000
1000
0010
0000
1000
0010
0000
0100
0000
0001
0000
0100
0000
0010
0000
,  // measure 7
1000
0000
0001
0100
0000
0001
0100
0000
0010
0000
0000
1000
0000
0000
0001
0000
,  // measure 8
1001
0100
0010
0001
0100
1000
0100
0001
,  // measure 9
1000
0100
1000
0001
1000
0100
0100
0100
,  // measure 10
1000
0010
0001
0010
1000
0100
0001
0100
,  // measure 11
1000
0100
0010
0001
1000
0100
0001
0100
,  // measure 12
0010
1000
0001
1000
0001
1000
0100
0010
,  // measure 13
0001
0010
0100
1000
0100
0010
0010
0020
,  // measure 14
0000
0031
1000
0001
2000
0000
3001
0000
,  // measure 15
1001
0000
0100
0000
0110
0000
0002
0003
,  // measure 16
1001
1000
0100
0010
0001
0010
0100
1000
,  // measure 17
0200
0000
0010
0010
0320
0000
0130
0010
,  // measure 18
0001
0010
0100
1000
0010
0100
0001
0100
,  // measure 19
2000
0000
0000
0000
3001
0000
1000
0000
0002
0000
0000
0000
1003
0000
0100
0010
,  // measure 20
0001
1000
1001
0000
0001
0100
0101
0000
,  // measure 21
1000
0000
0001
0000
1000
0000
0100
1000
0000
0000
0001
0000
0010
0000
0001
0000
,  // measure 22
0002
0000
0000
0023
0000
0230
0000
2300
,  // measure 23
0000
3100
0010
0001
0100
0010
1000
0010
,  // measure 24
0200
0000
0000
0002
0000
0303
0000
1000
,  // measure 25
0001
1000
0001
0010
0000
0010
0100
0010
,  // measure 26
2002
0000
3003
0020
0000
2030
0000
0002
,  // measure 27
3000
1003
0100
0010
0100
0010
0100
0010
,  // measure 28
0100
0000
1000
0000
0001
0000
1000
0000
0010
0000
1000
0000
0010
1000
0010
0000
,  // measure 29
1000
0000
0100
0000
0010
0000
0001
0000
0001
1000
0001
0000
1000
0001
1000
0001
,  // measure 30
1000
0000
0000
2001
0000
3002
0000
2000
,  // measure 31
0003
3100
0010
0001
0010
0100
1000
0100
,  // measure 32
0020
0000
0000
0032
0000
0000
0000
0103
,  // measure 33
1000
0100
0010
0100
0000
0001
0100
0010
,  // measure 34
2001
0000
0000
3002
0000
2000
0003
0200
,  // measure 35
3000
0310
0001
1000
0001
0010
0100
0010
,  // measure 36
0200
0000
0000
0000
0000
0300
1001
0000
,  // measure 37
1001
0100
0010
0200
0000
0000
0000
0300
,  // measure 38
1001
0000
0001
0100
0000
0001
0100
0000
0010
0000
0010
0000
1000
0000
1000
0000
,  // measure 39
0001
0000
0010
0100
0000
0100
1000
0000
0100
0000
0010
0000
0001
0000
0101
0000
,  // measure 40
1001
0000
1000
0100
0000
0100
0010
0000
0001
0000
0010
0000
0100
0000
1000
0000
,  // measure 41
1000
0000
0000
1000
0000
0000
1000
0000
0010
0000
0000
0010
0000
0000
0010
0000
,  // measure 42
1001
0001
1000
0010
1000
0001
1000
0001
2000
0000
3100
0010
0100
0000
0010
0110
,  // measure 43
0110
0000
0001
0000
1000
0000
0100
0000
1000
0000
0100
0000
0010
0000
0100
0000
0020
0000
0000
0000
0031
0000
1000
0000
0002
0000
0000
0000
0103
0000
0001
0100
,  // measure 44
0001
0000
1000
0000
1001
0000
0100
0000
0110
0000
0010
0000
0001
0000
0000
0000
1001
0000
1000
0000
0001
0000
1000
0001
0010
0000
0010
0000
0100
0000
0100
0000
,  // measure 45
2001
0000
0000
0000
0000
3200
0000
0320
,  // measure 46
0000
0031
0100
1000
0100
0010
0100
0001
,  // measure 47
2000
0000
3000
1001
,  // measure 48
0100
0100
0100
1001
0000
0000
0000
0000
,  // measure 49
1100
0000
1000
0100
0000
0010
0001
0000
0001
0000
0010
0000
0100
0000
1000
0000
,  // measure 50
0100
0000
1000
0100
0000
0010
0001
0000
1000
0000
0100
0000
0010
0000
0001
0000
,  // measure 51
1000
0000
0010
0100
0000
0100
0010
0000
1000
0000
1000
0000
0001
0000
0001
0000
,  // measure 52
0010
0000
0001
0010
0000
0001
0010
0000
0001
0000
1000
0100
0000
1000
0001
0000
,  // measure 53
1000
0000
0001
0010
0000
0100
1000
0000
1000
0000
0001
0000
0010
0000
0100
0000
,  // measure 54
1000
0000
0001
0010
0000
0100
1000
0000
0001
0000
0001
0000
0100
0000
0010
0000
,  // measure 55
1000
0000
1000
0100
0000
0010
0001
0000
1000
0000
1000
0000
0001
0000
0001
0000
,  // measure 56
1100
0000
0000
1100
0000
0000
1100
0000
1001
0000
0000
1001
0000
0000
1001
0000
;

//---------------dance-single - Blank----------------
#NOTES:
     dance-single:
     Blank:
     Medium:
     6:
     0.394,0.450,0.297,0.020,0.000,247.000,30.000,2.000,0.000,0.000,0.000,0.394,0.450,0.297,0.020,0.000,247.000,30.000,2.000,0.000,0.000,0.000:
1001
0000
1000
0001
,
1001
0000
0100
0010
,
0110
0000
0001
1000
,
1001
0000
0110
0000
,
0001
0000
0000
0000
1000
0100
1000
0001
,
1000
0000
0000
0000
0001
0100
0010
1000
,
0001
0000
0000
0000
1000
0001
1000
0001
,
1000
0000
0001
0000
,
1001
0000
1000
0001
1000
0000
0100
0000
,
0010
0001
0000
1000
0000
0001
1000
0001
,
0000
0010
0100
1000
0001
0000
0100
0000
,
0010
0000
1000
0000
0001
1000
0001
0000
,
1000
0001
1000
0100
,
0001
0001
1000
0001
,
0100
0010
1000
0001
,
1001
0010
1001
0100
,
1001
0000
0001
0010
0001
1000
0001
1000
,
0001
0100
1000
0100
,
0010
0000
0001
1000
0001
0100
0010
1000
,
0001
0100
0010
0100
,
0100
0110
0001
1001
,
1000
0000
0001
0000
1000
0001
1000
0001
,
2000
0000
0000
3001
0000
0000
0000
0000
,
0010
0100
1000
0001
,
0100
0010
1000
0001
,
1000
0010
1000
0001
,
1001
0100
0010
0100
,
1000
0001
0100
0010
,
1000
0001
1000
0100
,
0010
0100
0010
0100
0000
1000
0001
1000
,
0001
0000
0000
1000
0000
0000
0100
0000
,
0010
0001
0100
0010
,
1000
0001
1000
0001
,
0010
0001
1000
0001
0000
1000
0100
0010
,
0002
0000
0000
1003
0000
0100
0000
0010
,
0000
0100
1000
0010
0100
0001
1000
0100
,
0010
0001
1000
0001
,
1000
0001
1000
0001
0000
0000
0000
0000
,
1001
0000
0000
0000
0100
0010
0100
0000
,
0110
0000
0000
0000
0001
1000
0001
0000
,
1001
0000
0100
0000
,
0110
0000
1001
0000
,
0001
1000
0010
0001
1000
0100
0010
0001
,
1000
0100
0010
0001
0001
0100
0100
0001
,
1001
0000
0110
0000
0001
1000
0001
1000
,
1001
0000
0000
0000
0000
0010
0000
0100
,
0000
1000
0001
0000
0100
0000
0010
0000
,
1000
0000
0000
1001
,
0100
0000
0000
0010
0000
0000
0000
0000
,
1001
0000
0100
0000
0010
0001
0010
0000
,
1001
0000
0010
0000
0100
0010
0100
0000
,
1001
0000
0100
0000
0010
0100
0010
0000
,
1001
0000
1100
0000
,
1001
0000
0100
0000
0010
0001
0010
0000
,
0100
0000
1000
0000
1000
0010
0001
0000
,
0001
0000
0001
0000
0001
0010
1000
0000
,
1001
0000
0000
0000
0110
0000
0000
1001
;

//---------------dance-single - Blank----------------
#NOTES:
     dance-single:
     Blank:
     Easy:
     3:
     0.229,0.224,0.138,0.059,0.000,142.000,14.000,6.000,0.000,0.000,0.000,0.229,0.224,0.138,0.059,0.000,142.000,14.000,6.000,0.000,0.000,0.000:
1001
0000
0100
0000
,
0010
0000
1000
0000
,
0001
0000
1000
0000
,
0100
0000
0010
0000
,
0001
0000
1000
1000
,
0001
0000
1000
1000
,
0001
0000
1000
1000
,
0001
0000
0100
0000
,
1001
0000
0001
0000
,
1000
0000
0100
0000
,
0010
0000
1000
0000
,
0010
1000
0010
0000
,
0000
0000
0001
0000
,
0000
0000
1000
0001
,
0000
0001
1000
0100
,
0010
0001
1000
0000
,
0001
0000
1000
0000
,
0001
1000
0001
0000
,
1000
0000
0100
0000
,
0010
0000
0001
0000
,
1000
0000
1001
0000
,
0100
0100
0100
0010
,
0110
0000
0000
0000
,
0001
1000
0001
1000
,
0002
0000
0000
0000
,
1003
0000
0100
0010
,
0110
0000
0000
0000
,
0001
1000
0001
1000
,
0200
0000
0000
0300
,
0010
0000
0000
0001
,
0200
0000
0000
0000
,
0310
0001
1000
0001
,
2000
0000
0000
3100
,
0010
0001
1000
0001
,
1001
0000
0000
0000
,
0100
0010
0001
1000
,
0002
0000
0000
1003
,
0000
0000
0000
0000
,
1001
0000
0100
0010
,
0110
0000
0001
1000
,
0001
0000
1000
1000
,
0002
0000
0000
0000
,
1003
0100
0010
0001
,
1000
0001
1000
0001
,
1001
0100
0010
0010
,
0001
1001
0000
0000
,
0000
0100
0010
0100
,
0010
0100
0000
0000
,
0110
0000
0000
0000
,
0000
1001
0000
0100
,
0010
0100
0000
1000
,
0100
0001
0000
0001
,
0100
1000
0000
0001
,
0000
1000
1000
0100
,
0100
0010
0010
0001
,
0001
0100
0100
0010
,
0010
1001
0000
0110
;
