#TITLE:FRONTAL IMPACT;
#SUBTITLE:;
#ARTIST:DANIEL;
#TITLETRANSLIT:;
#SUBTITLETRANSLIT:;
#ARTISTTRANSLIT:;
#GENRE:EUROBEAT!;
#CREDIT:Telperion;
#BANNER:fi-bn.png;
#BACKGROUND:fi-bg.png;
#LYRICSPATH:;
#CDTITLE:;
#MUSIC:fi.ogg;
#OFFSET:-0.080998;
#SAMPLESTART:37.487999;
#SAMPLELENGTH:12.573000;
#SELECTABLE:YES;
#DISPLAYBPM:162.000000;
#BPMS:0.000000=162.000000,267.000000=81.000000,283.000000=162.000000;
#STOPS:;
#DELAYS:;
#TIMESIGNATURES:0.000000=4=4
;
#BGCHANGES:;
#KEYSOUNDS:;
#ATTACKS:;

//---------------dance-single - Telperion----------------
#NOTES:
     dance-single:
     Telperion:
     Hard:
     8:
     0.557,0.535,0.397,0.302,0.048,403.000,50.000,38.000,3.000,0.000,0.000,0.000,0.557,0.535,0.397,0.302,0.048,403.000,50.000,38.000,3.000,0.000,0.000,0.000:
0000
0000
0000
0000
,
0000
0000
0000
0000
,
0000
1001
0000
0000
,
0000
0001
1000
0000
0000
0000
0000
0000
,
0000
1001
0000
0000
,
0000
1000
0001
0000
0000
0000
0000
0000
,
0000
0110
0000
0100
,
0000
0000
0100
0000
0010
0000
0100
0100
,
0000
0000
0000
1100
,
0011
0000
2001
0000
0010
0000
3001
0010
,
0100
1000
0020
0000
0001
0000
0130
0001
,
1000
0000
0100
0000
0020
0000
0000
0000
0100
0000
0000
0000
0031
0000
1000
0001
,
0000
1000
0010
0000
0200
0000
0000
0000
0000
0000
0000
0000
0310
0000
0100
0000
,
1000
0100
0002
0000
0010
0000
1003
0001
,
0010
0001
0200
0000
1000
0000
0310
1000
,
0001
0000
0010
0000
0200
0000
0000
0000
0010
0000
0000
0000
1300
0000
0001
0100
,
0000
0001
1000
0000
0100
0000
0000
0010
0000
0000
0220
0000
0000
0000
0000
0000
,
0330
0000
0001
1000
0001
0010
0100
0100
,
0000
2000
3000
0100
0010
0001
0100
0100
,
0000
0020
0030
0010
0100
0001
1000
0100
,
0000
0110
0100
1000
0000
0101
0000
1100
,
0000
0020
0030
0010
0100
0001
1000
1000
,
0000
0002
0003
0010
0100
1000
0001
0001
,
0000
0200
0300
0010
0100
1000
0100
0001
,
0010
0011
0000
1010
0000
0202
0000
0003
,
0300
0000
0001
0100
1000
0100
0001
0010
,
0100
0001
0000
0001
0100
1000
0001
0000
,
0101
0000
1000
0010
0100
0010
0000
1000
,
0000
1000
0000
0001
1000
0000
0011
0001
,
1000
0010
1000
0100
0001
0100
1000
0001
,
0100
1000
0000
1000
0100
0001
1000
0000
,
1100
0000
0000
0001
0010
0100
1000
0001
,
1000
0100
0000
0100
0100
0000
0000
0000
,
0000
0000
0000
1010
,
0101
0000
0011
0010
0000
0001
0010
0100
,
1000
0010
0100
0100
0000
0010
1000
0010
,
0100
0001
0010
0100
0000
0010
0000
0100
,
0000
2000
0000
0000
3000
0000
0011
0000
,
1100
0000
1010
0010
0000
0100
0001
0100
,
0010
1000
0100
0100
0000
0002
0000
0103
,
1000
0001
0100
0000
0010
0100
0000
0001
,
1000
0002
0000
0013
0001
0010
0001
0000
,
1010
0000
0101
0100
0000
0001
0100
0010
,
1000
0010
0100
0100
0000
1001
0000
0001
,
1000
0100
0010
0200
0000
1000
0000
0001
,
0000
0020
0000
0000
0330
0000
0011
0000
,
1010
0000
0101
0100
0000
0010
0100
1000
,
0001
0010
0100
0100
0000
0002
0000
0013
,
0100
1000
0010
0000
0100
0100
0000
0110
,
0000
1001
0000
0001
1000
0001
1000
0000
,
0000
1100
0011
1002
,
0000
0000
0103
0010
1000
0100
0020
0000
,
0001
0000
0130
1000
0010
0100
0002
0000
,
1000
0000
0000
0000
0103
0000
0001
1000
0000
1000
0100
0000
0020
0000
0000
0000
,
0000
0000
0000
0000
0130
0000
0000
1000
0000
1000
0001
0000
0200
0000
0000
0000
,
0010
0000
0301
0010
0100
1000
0002
0000
,
0010
0000
1003
0010
0100
0001
0020
0000
,
0100
0000
0000
0000
0031
0000
1000
0010
0000
1000
0001
0000
0010
0000
0000
0010
,
0000
0220
0000
0000
0330
0000
0001
0100
,
1000
0100
0001
0010
0100
0001
0000
0001
,
0100
1000
0001
0000
1100
0000
0001
0100
,
0010
0010
0000
0100
0001
0010
0000
0001
,
0100
0000
1010
0010
0100
0010
1000
0100
,
0001
0100
1000
0001
0100
1000
0000
1000
,
0100
0001
1000
0000
0101
0000
0000
1000
,
0100
0010
0001
1000
0001
0010
0000
0100
,
0100
0000
1001
0000
1010
0000
M1M1
0001
,
1000
0001
0000
0001
1000
0000
0100
0010
,
0011
1000
0000
1010
0001
0000
0110
0100
,
0001
1000
0000
1000
0001
0000
0010
0100
,
1100
0001
0000
0101
1000
1000
0M11
0001
,
0000
2000
0000
3010
0100
0001
0100
0100
,
0000
2000
0000
3100
0010
1000
0100
0010
,
0000
0100
0000
2000
0000
0002
0000
0000
,
3003
0000
0110
0000
1100
0000
0011
0001
,
0000
2000
0000
3010
0001
0010
0100
0100
,
0000
0002
0000
0013
1000
0010
0100
0000
,
0010
0001
0000
1000
0000
1001
0000
1000
,
0001
1000
0002
0000
0000
0000
0000
0000
,
0000
0003
0000
0000
;

//---------------dance-double - Telperion----------------
#NOTES:
     dance-double:
     Telperion:
     Hard:
     8:
     0.529,0.497,0.341,0.310,0.032,384.000,43.000,39.000,8.000,0.000,0.000,0.000,0.529,0.497,0.341,0.310,0.032,384.000,43.000,39.000,8.000,0.000,0.000,0.000:
00000000
00000000
00000000
00000000
,
00000000
00000000
00000000
00000000
,
00000000
00011000
00000000
00000000
,
00000000
00001000
00010000
00000000
00000000
00000000
00000000
00000000
,
00000000
00011000
00000000
00000000
,
00000000
00010000
00001000
00000000
00000000
00000000
00000000
00000000
,
00000000
00011000
00000000
00001000
,
00000000
00000000
00010000
00000000
00001000
00000000
00010000
00010000
,
00000000
00000000
00000000
00000100
,
00000010
00000000
00001002
00000000
00000000
00000000
00000013
00001000
,
00010000
00100000
02000000
00000000
00000000
00000000
03100000
00010000
,
00001000
00000000
00100000
00000000
02000000
00000000
00000000
00000000
00000000
00000000
00000000
00000000
03010000
00000000
00000000
01000000
,
00000000
00000000
10000000
00000000
00200000
00000000
00000000
00000000
00000000
00000000
00000000
00000000
01300000
00000000
00000000
00100000
,
00000000
01000000
20010000
00000000
00000000
00000000
30100000
00010000
,
00001000
00000010
00000200
00000000
00000000
00000000
00000301
00000100
,
00000010
00000000
00000001
00000000
00000200
00000000
00000000
00000000
00000000
00000000
00000000
00000000
00000310
00000000
00000000
00000100
,
00000000
00000000
00000010
00000000
00001010
00000000
00000000
00010000
00000000
00000000
00022000
00000000
00000000
00000000
00000000
00000000
,
00033000
00000000
00001000
00100000
00010000
10000000
00100000
00100000
,
00000000
02000000
03000000
00100000
10000000
00010000
00100000
00100000
,
00000000
02000000
03000000
00100000
00001000
00010000
00000010
00001000
,
00000000
00000001
00000020
00000100
00000000
00000001
00000000
00001000
,
00000000
00000100
00000030
00000100
00001000
00000001
00000100
00000100
,
00000000
00000002
00000003
00001000
00000100
00010000
00001000
00001000
,
00000000
02000000
03000000
00001000
00010000
01000000
00100000
01000000
,
00000000
10000000
00000000
00110000
00000000
20200000
00000000
00300000
,
30000000
00000000
01000000
00010000
00001000
00000100
00000000
00000001
,
00000010
00000100
00000000
00000010
00000001
00000100
00000110
00000000
,
00001010
00000000
00011000
00010000
00000100
00000001
00000000
00000100
,
00001000
00000001
00000000
00000100
00000010
00000100
00000001
00001000
,
00000100
00010000
00001000
00000000
00001000
00100000
00000000
00010000
,
01000000
00100000
00000000
00100000
01000000
00010000
00100000
01000000
,
20000000
00000000
30000000
10000000
01000000
00100000
00001000
00010000
,
00000010
00000100
00000000
00000010
00000010
00000000
00000000
00000000
,
00000000
00000000
00000000
00000101
,
00001100
00000000
00000011
00000010
00000000
00000001
00000100
00001000
,
00010000
00000100
00001000
00001000
00000000
00000100
00010000
00001000
,
01000000
00100000
00010000
00100000
00000000
02000000
00000000
10000000
,
00000000
00020000
00000000
00000000
03030000
00000000
11000000
00000000
,
01010000
00000000
10100000
00100000
00000000
10000000
01000000
00010000
,
00001000
00000010
00000100
00000100
00000000
00000002
00000000
00000103
,
00000010
00000100
00001000
00000000
00001000
00000001
00000000
00000010
,
00000001
00000200
00000000
00000310
00000100
00001000
00010000
00000000
,
01100000
00000000
10010000
00010000
00000000
01000000
00100000
00010000
,
00001000
00000010
00000100
00000100
00000000
00000002
00000000
00000103
,
00000010
00000001
00000100
00000100
00000000
00000010
00000000
00002000
,
00000000
00000002
00000000
00000000
00003003
00000000
00001100
00000000
,
00000101
00000000
00001010
00000010
00000000
00001000
00000100
00000010
,
00001000
00010000
01000000
01000000
00000000
00100000
00010000
01000000
,
00100000
00010000
00001000
00000000
00100000
00010000
00000000
00011000
,
00000000
00002010
00000000
00003010
00001000
00000010
00001000
00000000
,
00000000
00000010
00000100
00002001
,
00000000
00000000
00003100
00010000
00001000
01000000
00200000
00000000
,
00000000
00000000
00310000
00100000
10000000
00100000
02000000
00000000
,
00000000
00000000
00000000
00000000
03010000
00000000
00000000
00100000
00000000
00000000
01000000
00000000
20000000
00000000
00000000
00000000
,
00000000
00000000
00000000
00000000
31000000
00000000
00000000
00100000
00000000
00000000
01000000
00000000
10020000
00000000
00000000
00000000
,
00000000
00000000
01030000
00100000
00010000
00001000
00000020
00000000
,
00000000
00000000
00000130
00000001
00000100
00010000
00002000
00000000
,
00000000
00000000
00000000
00000000
00003100
00000000
00000000
00000010
00000000
00000000
00000100
00000000
00000101
00000000
00000000
00001000
,
00000000
00022000
00000000
00000000
00033000
00000000
00001000
00100000
,
01000000
00010000
00000000
00001000
00000010
00000001
00000000
00000001
,
00000100
00001000
00010000
00000000
00011000
00000000
01010000
00000000
,
00100000
00100000
00000000
01000000
00010000
00100000
00000000
01000000
,
00100000
00001000
00010000
00000010
00000100
00000010
00010000
00000100
,
00000010
00001000
00000000
00000010
00000001
00000100
00000000
00000010
,
00000100
00000001
00001000
00000000
00011000
00000000
00010000
00000100
,
00000010
00000001
00000010
00001000
00010000
00100000
00000000
00100000
,
00100000
00000000
00000000
00000000
00000000
00000000
1001MMMM
00010000
,
10000000
00100000
00000000
01000000
01100000
00000000
10000000
01000000
,
00010000
00001000
00000000
00100000
00110000
00000000
00001100
00000100
,
00001000
00000001
00000000
00000100
00000010
00000100
00001000
00010000
,
00100000
01000000
10000000
01000000
00010000
00010000
0011MMMM
00100000
,
00000000
01000000
00010000
00001000
00000100
00000001
00000010
00000010
,
00000000
00002000
00000000
00003010
00000001
00000100
00000010
00000100
,
00000000
00001010
00000000
00011000
00000000
00220000
00000000
00000000
,
00330000
00000000
11000000
00000000
01010000
00000000
10100000
00100000
,
00000000
01000000
10000000
01000000
00100000
00010000
00001000
00001000
,
00000000
00000020
00000000
00000130
00000001
00000100
00000010
00000000
,
00000001
00000100
00000000
00000010
00000100
00002000
00000000
00003100
,
00000010
00000100
00000001
00000000
00000000
00000000
00000000
00000000
;

//---------------dance-single - Telperion----------------
#NOTES:
     dance-single:
     Telperion:
     Medium:
     6:
     0.440,0.435,0.310,0.294,0.020,312.000,39.000,37.000,4.000,0.000,0.000,0.000,0.440,0.435,0.310,0.294,0.020,312.000,39.000,37.000,4.000,0.000,0.000,0.000:
0000
0000
0000
0000
,
0000
0000
0000
0000
,
0000
1001
0000
0000
,
0000
0001
1000
0000
0000
0000
0000
0000
,
0000
1001
0000
0000
,
0000
1000
0001
0000
0000
0000
0000
0000
,
0010
0110
0000
0100
,
0000
0000
0100
0000
0100
0000
0200
0300
,
0000
0000
0000
0100
,
0010
0000
1002
0000
0000
0000
1003
0100
,
0010
0000
2001
0000
0000
0000
3001
0100
,
0010
0000
0120
0000
0000
0000
0130
0001
,
1000
0000
0011
0000
0000
0000
0001
0100
,
0010
0000
2001
0000
0000
0000
3010
0100
,
0001
0000
1002
0000
0000
0000
0013
0100
,
1000
0000
2010
0000
0000
0000
3001
0010
,
0001
0000
0100
0000
0010
0000
0000
0010
0000
0000
0010
0000
0000
0000
0000
0000
,
0000
0000
1000
0000
1000
0000
0001
1000
,
0000
1000
0000
0000
0001
0000
1000
0001
,
0000
0010
0000
0000
0010
0000
0100
0010
,
0000
0100
0000
1000
0000
0001
0000
0100
,
0000
0010
0000
0000
0010
0000
0100
0001
,
0000
0001
0000
0000
1000
0000
0001
1000
,
0000
0100
0000
0000
0100
0000
0010
0100
,
0000
1000
0000
0001
0200
0020
0000
0300
,
0030
0000
1000
0000
0100
0001
0000
0100
,
1000
0010
0000
0000
0100
0000
0100
0000
,
0100
0000
1001
0000
0010
0010
0000
0100
,
0010
0001
0000
0000
1000
0000
0001
0010
,
0010
0010
0001
0000
0100
1000
0000
0100
,
0001
0010
0000
0000
0100
0000
0100
0000
,
0100
0000
1000
0001
0010
0000
0001
1000
,
0010
0100
0000
0100
0100
0000
0000
0000
,
0000
0000
0000
0011
,
1000
0000
1020
0030
0000
0200
0000
0301
,
1000
0000
0021
0030
0000
0200
0000
0310
,
0001
0000
1000
0100
0000
0010
0000
0001
,
0000
0200
0000
0000
0300
0000
1010
0000
,
1000
0000
0021
0030
0000
0200
0000
1300
,
0001
0000
0110
0000
0000
0200
0000
0301
,
1000
0000
0100
0000
0100
0010
0000
0100
,
1000
0001
0000
1000
0001
1000
0001
0000
,
0000
0000
0102
0003
0000
2000
0000
3100
,
0010
0000
0110
0000
0000
0002
0000
0103
,
0010
0000
1000
0001
0000
0001
0000
0010
,
0000
0020
0000
0000
0030
0000
0110
0000
,
0101
0000
2100
3000
0000
0002
0000
0103
,
0010
0000
0110
0000
0000
2000
0000
3100
,
0010
0000
0001
0000
0010
0100
0000
0010
,
0001
1000
0000
0001
1000
0001
2000
0000
,
3000
0100
0010
0021
,
0000
0000
0031
0100
0010
0000
1020
0000
,
0000
0000
0130
0001
1000
0000
1200
0000
,
0000
0000
0000
0000
0310
0000
0000
0100
0000
0000
1000
0000
0020
0000
0000
0000
,
0000
0000
0000
0000
0130
0000
0000
0010
0000
0000
0000
0000
0210
0000
0000
0000
,
0000
0000
0301
0010
0100
0000
0210
0000
,
0000
0000
1300
0001
0100
0000
1020
0000
,
0000
0000
0000
0000
0130
0000
0000
0001
0000
0000
0010
0000
0100
0000
0000
0100
,
0000
0100
0000
0000
0000
0000
1000
0000
,
0100
0001
0000
0100
1000
0010
0000
0100
,
0100
0110
0101
1001
,
0010
0010
0000
0100
0010
0001
0000
0000
,
0100
0000
0100
0010
0100
0010
1000
0000
,
0001
0010
0001
0000
1000
0010
0100
0000
,
0010
0100
0001
0000
1000
0001
0000
0010
,
0001
1000
0010
1000
0001
0010
0000
0100
,
0100
0000
0000
1MM1
,
1000
1000
0000
0000
0001
0001
0000
0000
,
0100
0100
0000
0000
0010
0010
1000
0001
,
0010
0010
0000
0001
1000
1000
0000
0010
,
0100
0100
0000
0001
0100
0000
M21M
0000
,
0000
0000
0310
1000
0100
0000
0120
0000
,
0000
0000
0031
0100
0010
0000
1000
0010
,
0000
0100
0000
0001
0000
0020
0000
0000
,
0030
0110
1100
0102
,
0000
0000
0013
0001
0100
0000
2100
0000
,
0000
0000
3010
1000
0100
0000
0010
0000
,
0001
0100
0000
0010
0100
0001
0000
1000
,
0001
1000
0001
0000
0000
0000
0000
0000
;

//---------------dance-single - Telperion----------------
#NOTES:
     dance-single:
     Telperion:
     Easy:
     4:
     0.301,0.311,0.262,0.016,0.008,230.000,33.000,2.000,4.000,0.000,0.000,0.000,0.301,0.311,0.262,0.016,0.008,230.000,33.000,2.000,4.000,0.000,0.000,0.000:
0000
0000
0000
0000
,
0000
0000
0000
0000
,
0000
1001
0000
0000
,
0000
0010
0000
0000
,
0000
1001
0000
0000
,
0000
0010
0000
0000
,
0000
0110
0000
0010
,
0000
0010
0010
0010
,
0000
0000
0000
0100
,
0010
1001
0000
0001
,
0010
1100
0000
0010
,
1000
0101
0000
0010
,
1000
0100
0000
0001
,
0010
1001
0000
1000
,
0100
0110
0000
0001
,
0100
0110
0000
1000
,
0010
0000
0000
0000
0100
0000
0000
0100
0000
0000
0100
0000
0000
0000
0000
0000
,
0000
0001
0010
0100
,
0000
1000
0000
0000
0100
0000
0010
0000
,
0000
0001
0000
0000
0100
0000
0010
0000
,
0000
1000
0000
0010
0000
0200
0000
0300
,
0000
0001
1000
0100
,
0000
0010
0000
0000
0100
0000
1000
0000
,
0000
0010
0000
0000
0100
0000
0001
0000
,
0000
0010
0000
0100
0000
0200
0000
0000
,
0300
1000
0100
0001
,
0000
0100
0010
0001
,
0000
0100
0010
0010
,
0100
0001
0100
0100
,
0000
0001
0100
1000
,
0000
0100
0010
1000
,
1000
0000
0001
0010
,
0100
0010
0000
0010
0010
0000
0000
0000
,
0000
0000
0000
1001
,
0110
1001
0000
1000
,
0010
0101
0000
0010
,
0001
0100
0010
1000
,
0010
0100
0000
0001
,
0010
1001
0000
1000
,
0100
0110
0000
0001
,
0100
0010
0100
0001
,
0010
0100
0000
0010
0100
0010
0100
0000
,
0000
1001
0000
0001
,
0010
1100
0000
0010
,
1000
0100
0010
0100
,
0010
0001
0000
1000
,
0010
1001
0000
1000
,
0100
0110
0000
0001
,
0100
0010
0100
0001
,
1000
0001
0000
1000
0001
1000
0001
0000
,
0000
1001
0110
1001
,
0000
1000
0010
0101
,
0000
0010
0001
1100
,
0000
0010
0001
0100
,
0000
1000
0010
1001
,
0000
0001
0100
0110
,
0000
1000
0100
0110
,
0000
0000
0000
0000
0001
0000
0000
0000
0010
0000
0000
0000
0100
0000
0000
0100
,
0000
0100
0000
0000
0000
0000
1000
0000
,
0100
0001
0000
0100
,
1000
0010
0000
0100
,
0100
0100
0000
0010
,
0100
0001
0010
0001
,
0100
1000
0000
0100
,
0010
0000
1000
0000
0001
0000
0000
0010
,
0001
0000
0001
1000
0000
1000
0000
0001
,
1000
0000
0000
M11M
,
0000
0000
0000
0000
,
0000
0000
0000
0000
1000
0001
0110
0000
,
0000
0000
0000
0000
,
0000
0000
0000
0000
0001
1000
M11M
0000
,
0000
0010
1000
0011
,
0000
0001
1000
0010
,
0100
1000
0100
0010
,
0000
0010
0010
1001
,
0000
0010
0001
1010
,
0000
1000
0001
0010
,
0100
0000
0010
0000
0001
1000
0000
0001
,
1000
0001
1000
0000
0000
0000
0000
0000
;

//---------------dance-single - Telperion----------------
#NOTES:
     dance-single:
     Telperion:
     Beginner:
     1:
     0.100,0.123,0.024,0.000,0.000,85.000,3.000,0.000,0.000,0.000,0.000,0.000,0.100,0.123,0.024,0.000,0.000,85.000,3.000,0.000,0.000,0.000,0.000,0.000: // measure 1
0000
0000
0000
0000
,  // measure 2
0000
0000
0000
0000
,  // measure 3
0000
1001
0000
0000
,  // measure 4
0000
0000
0000
0000
,  // measure 5
0000
1001
0000
0000
,  // measure 6
0000
0000
0000
0000
,  // measure 7
0000
0110
0000
0000
,  // measure 8
0000
0010
0000
0010
,  // measure 9
0000
0000
0000
1000
,  // measure 10
1000
1000
0000
0000
,  // measure 11
0000
0001
0000
0000
,  // measure 12
0000
0100
0000
0000
,  // measure 13
0000
0010
0000
0000
,  // measure 14
0000
1000
0000
0000
,  // measure 15
0000
0010
0000
0000
,  // measure 16
0000
0100
0000
0000
,  // measure 17
0000
0001
0001
0001
,  // measure 18
0000
0010
0000
0000
,  // measure 19
0000
0010
0000
0000
,  // measure 20
0000
0100
0000
0000
,  // measure 21
0000
0010
0000
0000
,  // measure 22
0000
0001
0000
0000
,  // measure 23
0000
0001
0000
0000
,  // measure 24
0000
1000
0000
0000
,  // measure 25
0000
0000
0000
0000
,  // measure 26
0000
0010
0000
0000
,  // measure 27
0000
0100
0000
0000
,  // measure 28
0000
0001
0000
0000
,  // measure 29
0000
1000
0000
0000
,  // measure 30
0000
0100
0000
0000
,  // measure 31
0000
0010
0000
0000
,  // measure 32
0000
0001
0000
0001
,  // measure 33
0000
0001
0000
0000
,  // measure 34
0000
0000
0000
1000
,  // measure 35
1000
1000
0000
0000
,  // measure 36
0000
0100
0000
0000
,  // measure 37
0000
0010
0000
0000
,  // measure 38
0000
0001
0000
0000
,  // measure 39
0000
0001
0000
0000
,  // measure 40
0000
0100
0000
0000
,  // measure 41
0000
0010
0000
0000
,  // measure 42
0000
0100
0000
0001
,  // measure 43
0001
0001
0000
0000
,  // measure 44
0000
0100
0000
0000
,  // measure 45
0000
0010
0000
0000
,  // measure 46
0000
1000
0000
0000
,  // measure 47
0000
0100
0000
0000
,  // measure 48
0000
0010
0000
0000
,  // measure 49
0000
0100
0000
0000
,  // measure 50
0000
1000
1000
1000
,  // measure 51
0000
0000
0000
0010
,  // measure 52
0000
0000
0000
0100
,  // measure 53
0000
0000
0000
0010
,  // measure 54
0000
0000
0000
1000
,  // measure 55
0000
0000
0000
0001
,  // measure 56
0000
0000
0000
0010
,  // measure 57
0000
0000
0000
0100
,  // measure 58
0000
0000
0000
0010
,  // measure 59
0010
0010
0000
0100
,  // measure 60
0000
0000
0000
1000
,  // measure 61
0000
0000
0000
0001
,  // measure 62
0000
0000
0000
0100
,  // measure 63
0000
0000
0000
0010
,  // measure 64
0000
0000
0000
0010
,  // measure 65
0000
0000
0000
0100
,  // measure 66
0000
0100
0000
0100
,  // measure 67
0000
0000
0000
0001
,  // measure 68
0000
0000
0000
0000
,  // measure 69
0000
0000
0000
1000
,  // measure 70
0000
0000
0000
0000
,  // measure 71
0000
0000
0000
0100
,  // measure 72
0000
0000
0000
0010
,  // measure 73
0000
0000
0000
0001
,  // measure 74
0000
0000
0000
1000
,  // measure 75
0000
0000
0000
0010
,  // measure 76
0000
0000
0000
1000
,  // measure 77
0000
0000
0000
0001
,  // measure 78
0000
0010
0000
0100
;
