#TITLE:DOODAH!;
#SUBTITLE:(K.O.G. Re-edit);
#ARTIST:Cartoons;
#TITLETRANSLIT:;
#SUBTITLETRANSLIT:;
#ARTISTTRANSLIT:;
#CREDIT:;
#BANNER:Doodah! (K.O.G Re-edit).png;
#BACKGROUND:Doodah! (K.O.G Re-edit)-bg.png;
#LYRICSPATH:;
#CDTITLE:;
#MUSIC:Doodah! (K.O.G re-edit).mp3;
#OFFSET:-0.040;
#SAMPLESTART:6.360;
#SAMPLELENGTH:15.620;
#SELECTABLE:YES;
#BPMS:0.000=149.800;
#STOPS:;
#BGCHANGES:;

//---------------dance-single - ----------------
#NOTES:
     dance-single:
     :
     Hard:
     9:
     0.663,0.729,0.222,0.000,0.338:
0000
0000
0000
0000
,
0000
0000
0000
0000
,
0000
0000
0000
0000
,
0000
0000
0000
0000
,
1000
0000
0010
0000
0100
0000
0001
0000
0010
0000
0001
0100
0000
0100
0001
0000
,
0100
0000
0010
0000
1000
0000
0100
0000
0001
0000
0100
1000
0000
1000
0100
0000
,
0010
0000
0001
0000
0100
0000
0010
0000
1000
0000
0001
1000
0000
1000
0001
0000
,
1000
0000
0010
0100
0010
0000
0100
0000
0001
0000
0000
0000
0000
0000
0000
0000
,
0010
0000
0001
0000
0100
0000
0010
0000
1000
0000
0100
1000
0000
1000
0010
0000
,
0100
0000
0001
0000
0010
0000
0001
0000
1000
0000
0010
0100
0000
0100
0001
0000
,
0010
0000
0001
0000
1000
0000
0010
0000
1000
0000
0100
0010
0000
0010
0001
0000
,
1000
0000
0001
0100
0001
0000
1000
0000
0010
0000
0000
0000
0000
0000
0000
0000
,
1000
0010
0100
0001
0010
0000
0011
0000
,
0001
0100
0010
1000
0100
0000
1100
0000
,
0100
0000
0010
0000
0001
0000
1000
0000
0010
0000
0100
0001
0000
0001
0100
0000
,
0010
0000
1000
0100
1000
0000
0100
0000
0010
0000
0000
0000
0000
0000
0000
0000
,
0001
0010
0001
0100
0010
0000
0110
0000
,
0010
1000
0100
0010
0001
0000
0011
0000
,
0001
0000
0100
0000
0010
0000
1000
0000
0100
0000
0010
0001
0000
0001
0100
0000
,
0010
0000
1000
0001
1000
0000
0010
0000
0100
0000
0001
0000
0101
0000
0000
0000
,
0100
0010
0100
0000
0010
0000
1000
0000
0100
1000
0100
0000
1000
0010
1000
0000
,
0010
0100
0010
0000
0100
0000
0001
0000
0010
0001
0010
0000
0001
0000
0100
0000
,
0010
1000
0010
0000
0100
0000
0001
0000
1000
0001
1000
0000
0010
1000
0010
0000
,
0100
0001
0000
0010
0000
0100
0000
1000
0011
0000
0010
0000
0001
0000
0000
0000
,
0100
0001
0100
0000
0010
0000
1000
0000
0100
1000
0100
0000
0011
0100
0010
0000
,
0001
0010
0001
0000
1000
0000
0001
0000
0100
0001
0100
0000
0110
0000
1000
0000
,
0100
1000
0100
0000
0010
0000
0001
0000
1000
0010
1000
0000
0001
0100
0001
0000
,
1000
0000
0000
0000
0000
0100
0001
0000
,
0100
0010
1000
0100
0010
0001
0100
0000
,
0101
0000
0110
0010
1000
0100
0001
0100
,
1000
0000
0010
0000
0001
0000
0010
0000
1000
0000
0010
1000
0010
0000
0000
0000
,
0100
0001
0010
0100
1000
0001
1000
0000
,
0010
1000
0001
1000
0010
1000
0100
1000
,
0010
0100
0001
0100
0010
0100
0001
0100
,
0010
1000
0001
1000
0010
0100
0001
0100
,
0010
1000
0100
0010
0001
0000
1001
0000
,
0010
1000
0100
0010
0001
0000
1001
0000
,
0010
1000
0100
0010
0010
1000
1001
1001
,
0010
1000
0100
0010
0001
0000
1001
0000
,
0001
0000
0100
0000
0010
0000
1000
0000
0100
0000
1000
0010
0000
0010
1000
0000
,
0010
0000
0100
0000
0001
0000
0010
0000
1000
0000
0010
0001
0000
0001
0010
0000
,
0100
0000
1000
0000
0010
0000
0100
0000
0001
0000
1000
0001
0000
0001
1000
0000
,
0001
0000
0100
0010
0100
0000
0010
0000
1000
0000
0000
0000
0000
0000
0000
0000
,
0100
0000
1000
0000
0010
0000
0100
0000
0001
0000
0010
0001
0000
0001
0100
0000
,
0010
0000
1000
0000
0100
0000
1000
0000
0001
0000
0100
0010
0000
0010
1000
0000
,
0100
0000
1000
0000
0001
0000
0100
0000
0001
0000
0010
0100
0000
0100
1000
0000
,
0001
0000
1000
0010
1000
0000
0001
0000
0100
0000
0000
0000
0000
0000
0000
0000
,
0001
0100
0010
1000
0100
0000
1100
0000
,
1000
0010
0100
0001
0010
0000
0011
0000
,
0010
0000
0100
0000
1000
0000
0001
0000
0100
0000
0010
1000
0000
1000
0010
0000
,
0100
0000
0001
0010
0001
0000
0010
0000
0100
0000
0000
0000
0000
0000
0000
0000
,
1000
0100
1000
0010
0100
0000
0110
0000
,
0100
0001
0010
0100
1000
0000
1100
0000
,
1000
0000
0010
0000
0100
0000
0001
0000
0010
0000
0100
1000
0000
1000
0010
0000
,
0100
0000
0001
1000
0001
0000
0100
0000
0010
0000
1000
0000
1010
0000
0000
0000
;

//---------------dance-single - ----------------
#NOTES:
     dance-single:
     :
     Medium:
     6:
     0.436,0.425,0.189,0.000,0.000:
0000
0000
0000
0000
,
0000
0000
0000
0000
,
0000
0000
0000
0000
,
0000
0000
0000
0000
,
1000
0100
1000
0000
0001
0100
0001
0000
,
1000
0010
1000
0001
,
0010
0001
0010
0000
0001
0100
0001
0000
,
0100
0000
0010
1000
0010
0000
1010
0000
,
0010
0100
0010
0000
0100
0001
0100
0000
,
0001
0010
0100
1000
,
0010
1000
0010
0000
0100
0001
0100
0000
,
0010
0000
1000
0001
1000
0000
1001
0000
,
0010
0000
1000
0100
1000
0000
0010
0000
,
0100
0000
0001
0010
0001
0000
0100
0000
,
0010
0000
1000
0000
0001
0010
0001
0000
,
1000
0000
0010
1000
0010
0000
1010
0000
,
0010
0000
0100
0001
0100
0000
0010
0000
,
1000
0000
0100
1000
0100
0000
0010
0000
,
0001
0100
0001
0000
1000
0100
1000
0000
,
0010
0000
0100
0001
0100
0000
0101
0000
,
0010
1000
0010
0000
1000
0000
0100
0000
,
0010
0001
0010
0000
0001
1000
0001
0000
,
1000
0010
1000
0000
0010
0000
0100
0000
,
0001
0000
1000
0000
0010
1000
0010
0000
,
0100
0001
0100
0000
0001
0000
0100
0000
,
0010
1000
0010
0000
1000
0100
1000
0000
,
0001
1000
0001
0000
0010
0000
0001
0000
,
1001
0000
0000
1001
,
0001
0010
0001
0000
1000
0010
1000
0000
,
1010
0000
1010
0000
0010
0100
0010
0000
,
0100
0001
0100
0000
0001
0010
0001
0000
,
1000
0000
0010
0000
1000
0010
1000
0000
,
0010
0100
0001
0010
,
1000
0010
0001
0100
,
0010
1000
0100
0010
,
0001
0010
0001
0000
0011
0000
0000
0000
,
0001
0010
0001
0000
0011
0000
0000
0000
,
0001
0010
0001
0000
0001
0010
0011
0000
,
0001
0010
0001
0000
0011
0000
1001
0000
,
0001
0010
0001
0000
1000
0010
1000
0000
,
0001
0100
0001
1000
,
0100
1000
0100
0000
1000
0010
1000
0000
,
0010
0000
0100
0001
0100
0000
0101
0000
,
0100
0010
0100
0000
0010
1000
0010
0000
,
1000
0100
0010
0001
,
0100
0001
0100
0000
0010
1000
0010
0000
,
0100
0000
0001
1000
0001
0000
1001
0000
,
0100
0000
0001
0010
0001
0000
0100
0000
,
0010
0000
1000
0100
1000
0000
0010
0000
,
0100
0000
0001
0000
1000
0100
1000
0000
,
0001
0000
0100
0001
0100
0000
0101
0000
,
0100
0000
0010
1000
0010
0000
0100
0000
,
0001
0000
0010
0001
0010
0000
0100
0000
,
1000
0010
1000
0000
0001
0010
0001
0000
,
0100
0000
0010
1000
0010
0000
1010
0000
;

//---------------dance-single - ----------------
#NOTES:
     dance-single:
     :
     Beginner:
     1:
     0.114,0.152,0.000,0.000,0.000:
0000
0000
0000
0000
,
0000
0000
0000
0000
,
0000
0000
0000
0000
,
0000
0000
0000
0000
,
1000
0000
0000
0000
,
0001
0000
0000
0000
,
0010
0000
0000
0000
,
0001
0000
0001
0000
,
0001
0000
0000
0000
,
1000
0000
0000
0000
,
0100
0000
0000
0000
,
0010
0000
0010
0000
,
0010
0000
0000
0000
,
0001
0000
0001
0000
,
0001
0000
0000
0000
,
1000
0000
1000
0000
,
1000
0000
0000
0000
,
0100
0000
0100
0000
,
0100
0000
0000
0000
,
0010
0000
0000
0000
,
0001
0000
0000
0000
,
1000
0000
1000
0000
,
1000
0000
0000
0000
,
0010
0000
0010
0000
,
0010
0000
0000
0000
,
0100
0000
0100
0000
,
0100
0000
0100
0000
,
0100
0000
0000
0000
,
0010
0000
0000
0000
,
0001
0000
0000
0000
,
1000
0000
0000
0000
,
0010
0000
0010
0000
,
0010
0000
0000
0000
,
0100
0000
0000
0000
,
0001
0000
0000
0000
,
1000
0000
1000
0000
,
0001
0000
0001
0000
,
1000
0000
1000
0000
,
0001
0000
0001
0000
,
1000
0000
0000
0000
,
0010
0000
0000
0000
,
0100
0000
0000
0000
,
0001
0000
0001
0000
,
0001
0000
0000
0000
,
0010
0000
0000
0000
,
0001
0000
0000
0000
,
0100
0000
0100
0000
,
0100
0000
0000
0000
,
0010
0000
0010
0000
,
0010
0000
0000
0000
,
1000
0000
1000
0000
,
1000
0000
0000
0000
,
0100
0000
0100
0000
,
0100
0000
0000
0000
,
0010
0000
0010
0010
;

//---------------dance-single - ----------------
#NOTES:
     dance-single:
     :
     Easy:
     4:
     0.276,0.273,0.022,0.000,0.000: // measure 1
0000
0000
0000
0000
,  // measure 2
0000
0000
0000
0000
,  // measure 3
0000
0000
0000
0000
,  // measure 4
0000
0000
0000
0000
,  // measure 5
1000
0100
1000
0010
,  // measure 6
0100
0000
0001
0000
,  // measure 7
0010
0001
0100
0010
,  // measure 8
1000
0100
0001
0000
,  // measure 9
0100
1000
0010
0100
,  // measure 10
0001
0000
0010
0000
,  // measure 11
0001
0100
0010
1000
,  // measure 12
0001
0010
0001
0000
,  // measure 13
1000
0010
1000
0000
,  // measure 14
0001
0010
0001
0000
,  // measure 15
1000
0100
1000
0001
,  // measure 16
0100
0001
0100
0000
,  // measure 17
0010
1000
0100
0000
,  // measure 18
0010
0001
0100
0000
,  // measure 19
0010
1000
0001
0010
,  // measure 20
0001
1000
0100
0000
,  // measure 21
1000
0010
1000
1000
,  // measure 22
0001
0010
0001
0001
,  // measure 23
1000
0100
1000
1000
,  // measure 24
0001
0100
0001
0001
,  // measure 25
1000
0010
0100
0100
,  // measure 26
0001
0010
0100
0100
,  // measure 27
1000
0001
0010
0010
,  // measure 28
0001
0000
0000
1001
,  // measure 29
1000
0000
0010
0100
,  // measure 30
0001
0000
0010
0001
,  // measure 31
0100
0000
0010
1000
,  // measure 32
0100
0000
0010
0001
,  // measure 33
1000
0010
1000
0010
,  // measure 34
0001
0010
0001
0010
,  // measure 35
1000
0100
1000
0100
,  // measure 36
0001
0100
0001
0000
,  // measure 37
1000
0100
1000
0000
,  // measure 38
0001
0010
0001
1000
,  // measure 39
0010
1000
0001
0000
,  // measure 40
1000
0100
0010
0001
,  // measure 41
0100
0000
0010
0000
,  // measure 42
1000
0001
0010
0001
,  // measure 43
1000
0100
0010
0000
,  // measure 44
0001
0100
0010
1000
,  // measure 45
0100
0000
0010
0000
,  // measure 46
0001
1000
0010
1000
,  // measure 47
0001
0010
0001
0000
,  // measure 48
1000
0100
1000
0000
,  // measure 49
0001
0100
0001
0000
,  // measure 50
1000
0010
1000
0001
,  // measure 51
0010
0001
1000
0000
,  // measure 52
0010
1000
0100
0000
,  // measure 53
0010
0001
0100
0000
,  // measure 54
0010
1000
0001
0010
,  // measure 55
0001
1000
0001
1001
;
