#TITLE:Tom Sawyer;
#SUBTITLE:;
#ARTIST:Mindless Self Indulgence;
#TITLETRANSLIT:;
#SUBTITLETRANSLIT:;
#ARTISTTRANSLIT:;
#CREDIT:348;
#BANNER:;
#BACKGROUND:;
#LYRICSPATH:;
#CDTITLE:;
#MUSIC:Tom Sawyer.mp3;
#OFFSET:-0.365;
#SAMPLESTART:3.894;
#SAMPLELENGTH:15.000;
#SELECTABLE:YES;
#BPMS:0.000=136.000;
#STOPS:115.250=0.331
;
#BGCHANGES:;

//---------------dance-single - ----------------
#NOTES:
     dance-single:
     :
     Beginner:
     1:
     0.085,0.137,0.000,0.000,0.000:
0000
0000
0000
0000
,
0000
0000
0000
0000
,
1000
0000
0000
0000
,
0001
0000
0000
0000
,
0100
0000
0000
0000
,
0010
0000
0000
0000
,
1000
0000
0100
0000
,
0010
0000
0001
0000
,
1000
0000
0000
0000
,
0010
0000
0000
0000
,
0100
0000
0000
0000
,
0001
0000
0000
0000
,
0100
0000
0000
0000
,
0010
0000
0000
0000
,
0000
0000
0000
0000
,
0100
0000
0000
0000
,
0001
0000
0000
0000
,
1000
0000
0000
0000
,
0010
0000
0000
0000
,
0100
0000
0000
0000
,
0010
0000
0000
0000
,
1000
0000
0000
1000
,
1000
0000
0000
0001
,
0001
0000
0000
0100
,
0100
0000
0000
0000
,
0010
0000
0000
0000
,
1000
0000
0000
0000
,
0001
0000
0000
0000
,
0100
0000
0000
0000
,
0000
0000
0000
0100
,
0000
0010
0000
0100
,
0000
0010
0000
1000
,
0000
0001
0000
1000
,
0000
0001
0000
0010
,
0000
0000
0000
0001
,
0000
0000
0000
1000
,
0000
0000
0000
0100
,
0000
0000
0000
1000
,
0000
0000
0000
1000
,
0000
0000
0000
0000
,
0000
0000
0000
0001
,
0000
0000
0000
0000
,
0000
0000
0000
0000
,
0010
0000
0000
0100
,
0000
0000
0000
0010
,
0000
0000
0000
0001
,
0000
0000
0000
1000
,
0000
0000
0000
0000
,
0000
0000
0000
0001
,
0000
0000
0000
1000
,
0000
0000
0000
0100
,
0000
0000
0000
0010
,
0000
0001
0000
1000
,
0000
0000
0000
0001
,
0000
0000
0000
1000
,
0000
0000
0000
0001
,
0000
0000
0000
0100
,
0000
0000
0000
0010
,
0000
0000
0000
0100
,
0000
0000
0000
0010
,
0000
0000
0000
1000
,
0000
0010
0000
0100
,
0000
0001
0000
0100
,
0000
0000
0000
0001
,
0000
0000
0000
0100
,
0000
0000
0000
0010
,
0000
0000
0000
1000
;

//---------------dance-single - ----------------
#NOTES:
     dance-single:
     :
     Easy:
     3:
     0.203,0.222,0.147,0.107,0.000:
0000
0000
0000
0000
,
0000
0000
0000
0000
,
1000
0000
0100
0000
,
0010
0000
0001
0000
,
1000
0000
0001
0001
,
0100
0000
0010
0010
,
1000
0000
0010
0000
,
0100
0000
0001
0000
,
0200
0000
0000
0300
,
0002
0003
2000
3000
,
0011
0000
1100
0000
,
1001
0000
0000
0000
,
1010
0000
0101
0000
,
0110
0000
0000
0000
,
0200
0300
0020
0030
,
0100
0000
0001
0000
,
1000
0000
0010
0000
,
1000
0100
0100
0000
,
0100
0010
0010
0000
,
0010
0001
0001
0000
,
0001
1000
1000
0000
,
0001
0000
1000
0000
,
0001
0000
1000
0000
,
0010
0000
0100
0000
,
0010
0000
0100
0000
,
0001
0000
0010
0000
,
0100
0000
1000
0000
,
0010
0000
0100
0000
,
0001
0000
2000
0000
,
0000
3001
0000
0001
,
0000
0010
1000
0010
,
0000
0001
1000
1000
,
0000
0100
0001
0100
,
0000
1000
0001
2000
,
3000
0020
0030
1010
,
0000
1100
0000
0002
,
0003
0200
0300
0101
,
0000
0011
0000
2000
,
0000
0000
3000
0001
,
0000
0001
0001
1000
,
0000
1000
1000
0010
,
0000
0010
0000
0100
,
0000
0100
0000
0010
,
0010
0010
0000
0100
,
0100
0100
0000
0001
,
0000
1000
0000
1000
,
0000
0001
0000
0002
,
0000
0000
0003
0020
,
0000
0000
0030
1001
,
0000
0110
0000
1100
,
0000
1010
0000
1001
,
0000
0000
0000
0011
,
0000
0101
0000
0110
,
0000
0000
0000
1000
,
0000
0001
0000
1000
,
0100
0000
1000
0001
,
0010
0000
0001
1000
,
0000
0001
0100
0001
,
0000
1000
0000
0001
,
0000
1000
0100
1000
,
0000
0001
0000
0001
,
0000
0100
0000
0100
,
0000
0010
0000
0010
,
0000
1000
0000
1000
,
0000
0100
0000
0010
,
0000
0001
0000
1000
,
0000
0010
0000
0100
,
0000
0001
0000
1000
;

//---------------dance-single - ----------------
#NOTES:
     dance-single:
     :
     Medium:
     5:
     0.384,0.443,0.377,0.246,0.016:
0000
0000
0000
0000
,
0000
0000
0000
0000
,
0001
0000
0001
0010
0001
0000
0001
0000
,
1000
0000
1000
0100
1000
0000
1000
0000
,
0011
1010
2000
3001
,
1100
0101
0200
0310
,
1000
1100
0010
0011
,
0001
0101
0100
1010
,
2002
3003
0220
0330
,
1000
0100
0001
0100
,
1000
0000
0001
0000
0100
0000
0010
0200
,
0000
0000
0001
0301
,
0101
0000
1010
0000
,
1001
0000
0000
1000
,
0001
0010
0100
1000
,
0010
0000
0010
0000
1000
0010
1000
0000
,
0100
0000
0100
0000
1000
0001
1000
0000
,
0002
0010
0010
0013
,
2000
0100
0100
3100
,
0020
1000
1000
1030
,
0200
0001
0001
0301
,
0001
0000
0000
0001
0000
0001
1000
0000
,
1000
0000
0000
1000
0000
1000
0010
0000
,
0010
0000
0000
0010
0000
0010
0100
0000
,
0100
0000
0110
1001
,
0001
0010
1000
0010
,
0001
0000
1000
0000
0001
0010
0001
0000
,
1000
0100
1000
0000
0010
0100
0010
0000
,
1000
0000
0000
0000
0001
0000
0000
0000
0000
0100
0000
0000
0000
0020
0000
0000
,
0000
0100
0130
0110
,
0000
1100
0000
0110
,
0000
0011
0000
1001
,
0000
0101
0000
1001
,
0000
1010
0000
0001
,
0100
0001
1010
1000
,
0010
1000
0101
1000
,
0100
0010
0011
0001
,
0100
0010
1100
0020
,
0000
0100
0000
0000
0130
0000
0100
0000
,
0001
0000
1000
0100
1000
0000
0001
0000
,
1000
0000
0001
0010
0001
0000
1000
0000
,
1000
0001
0100
0000
0100
0000
0100
0000
,
0100
0001
0010
0000
0010
0000
0022
0000
,
0033
2200
3300
2020
,
3030
0202
0303
1000
,
1100
0000
1000
0010
1000
0000
0001
0000
,
0011
0000
0001
0100
0001
0000
0200
0000
,
0000
0001
0000
0320
,
0000
1000
0000
1030
,
0100
0001
0010
0001
,
0100
0000
1000
0000
0001
2000
0000
0000
,
0000
0001
3001
1100
,
0000
0011
0000
0110
,
0000
0000
0000
1000
0001
0000
1000
0000
,
0110
0001
0110
1000
,
0101
0001
1100
0010
,
0011
0100
1010
1000
,
0100
1000
0100
0000
0010
0100
0010
0000
,
0001
0010
0001
0000
0100
0000
1001
0000
,
1001
0000
0001
0010
0001
0000
1000
0100
,
1000
0010
0100
0002
,
0100
0010
0100
2003
,
0010
0100
3010
0220
,
0330
2002
3003
1000
,
0100
0001
0100
1000
,
0001
0000
1000
0010
0100
0000
0001
0100
,
0010
0000
1000
0001
1000
0000
0001
0000
,
1000
0000
0000
0000
0000
0010
0000
0000
0000
0100
0000
0000
0000
0000
0000
0000
;

//---------------dance-single - ----------------
#NOTES:
     dance-single:
     :
     Hard:
     7:
     0.514,0.498,0.270,0.254,0.123: // measure 1
0000
0000
0000
0000
,  // measure 2
0000
0000
0000
0000
,  // measure 3
1000
0100
1000
0010
1000
0001
1000
0000
,  // measure 4
0001
0010
1000
0010
0001
1000
0001
0000
,  // measure 5
0110
0000
0000
1000
0001
0000
0000
0000
1000
0000
0100
0000
0010
0000
0100
0000
,  // measure 6
1001
0000
0000
0100
0010
0000
0000
0000
1000
0000
0001
0000
0010
0000
0001
0000
,  // measure 7
1000
0100
0010
0000
0010
0100
1000
0000
,  // measure 8
0001
0010
0001
0100
0010
0100
0001
1000
,  // measure 9
0012
1003
2100
3010
,  // measure 10
0110
1010
0110
0101
,  // measure 11
1001
0000
0110
0000
1001
0000
0001
0020
,  // measure 12
0000
0031
1000
0000
1000
0100
0010
0001
,  // measure 13
2200
3300
0022
0033
,  // measure 14
2002
0000
3003
0000
0001
0100
0010
0000
,  // measure 15
0010
0100
0001
0000
0001
1000
0001
0000
,  // measure 16
1000
0100
0001
0100
1000
0100
0010
0001
,  // measure 17
0100
0010
1000
0001
0010
0001
1000
0000
,  // measure 18
1000
0000
1000
0000
1000
0000
1000
0100
,  // measure 19
0001
0000
0001
0000
0001
0000
0001
0100
,  // measure 20
1000
1000
0010
0010
,  // measure 21
0100
0100
0001
0001
,  // measure 22
2000
0000
0100
0000
0100
0000
0000
0100
0000
0000
0100
0000
3100
0000
0000
0000
,  // measure 23
0020
0000
0001
0000
0001
0000
0000
0001
0000
0000
0001
0000
0031
0000
0000
0000
,  // measure 24
2000
0000
0001
0000
0001
0000
0000
0001
0000
0000
0001
0000
3001
0000
0000
0000
,  // measure 25
0001
0000
0100
0000
1000
0000
0000
1000
0000
0000
0100
0000
0001
0000
0000
0000
,  // measure 26
1000
0100
0001
0000
1000
0010
0001
0000
,  // measure 27
1000
0100
0001
0000
0001
0100
1000
0000
,  // measure 28
1000
0100
0010
0001
0100
0010
1000
0001
,  // measure 29
0100
0000
0001
0000
1000
0000
0001
0100
0000
0001
0000
1000
0000
0010
0000
0000
,  // measure 30
1000
0000
0000
0000
0001
0000
0000
0000
1001
0000
0000
0000
0110
0000
0000
1000
,  // measure 31
0100
0000
0000
0000
0010
0000
0001
0000
0001
0000
0010
0000
0011
0000
0000
1000
,  // measure 32
0001
0000
0000
0000
1000
0000
0100
0000
0100
0000
1000
0000
1100
0000
0000
0001
,  // measure 33
1000
0000
0000
0000
0010
0000
1000
0000
1000
0000
0010
0000
0110
0000
0000
0010
,  // measure 34
1000
0000
0001
0100
0100
0001
1000
0100
,  // measure 35
1000
0000
0000
0001
1000
0000
0100
0000
1000
0000
0000
0000
0001
0000
0010
0000
,  // measure 36
0001
0000
0000
1000
0001
0000
0010
0000
0001
0000
0000
0000
0100
0000
0001
0000
,  // measure 37
0100
0000
0000
0100
0010
0000
1000
0000
0010
0000
0000
0000
1000
0000
0010
0000
,  // measure 38
1000
0000
0000
1000
0001
0000
0010
0000
0001
0000
0000
0000
0200
0000
0000
0001
,  // measure 39
0000
0000
1000
0000
0000
0001
0000
0000
0310
0000
0000
0000
1000
0000
0100
0000
,  // measure 40
0010
0000
0010
0100
1000
0000
0001
0010
,  // measure 41
0100
0000
0000
0000
0100
0000
0010
0000
0001
0000
0000
0000
1000
0000
0000
0100
,  // measure 42
0000
0000
1000
0000
0002
0000
0010
0000
0013
0000
0000
0000
0100
0000
0000
0001
,  // measure 43
0000
0000
0100
0000
0020
0000
1000
0000
1030
0000
0000
0000
1000
0000
0000
0010
,  // measure 44
0000
0000
0001
0000
0001
0000
0000
0010
0000
0000
1000
0000
0001
0000
0000
0100
,  // measure 45
0000
0000
1000
0000
1000
0000
0000
0100
0000
0000
0001
0000
0001
0000
0000
0000
,  // measure 46
0001
0000
1000
0100
1000
0000
0010
0000
,  // measure 47
0010
0000
1000
0001
1000
0000
0012
0000
,  // measure 48
0100
0010
0103
2100
,  // measure 49
0010
0100
3010
1001
,  // measure 50
1100
1001
0011
0110
,  // measure 51
1001
0000
0110
0000
1000
0200
0000
1300
,  // measure 52
0010
0000
0100
0001
1000
0010
2020
0000
,  // measure 53
3030
0202
0303
0220
,  // measure 54
0330
0000
0001
0100
1000
0000
0001
0010
,  // measure 55
1000
0000
0001
0100
0001
0000
2000
0000
,  // measure 56
3100
0000
0100
1000
0001
0000
0001
1000
,  // measure 57
0010
0000
0010
0100
0010
0000
1000
0010
,  // measure 58
0100
0010
2000
0000
3001
0000
0001
0010
,  // measure 59
0100
0010
0002
0000
0013
0000
1100
0000
,  // measure 60
0101
0000
1000
0010
0100
0001
2000
0000
,  // measure 61
0100
0010
3001
0002
,  // measure 62
0100
1000
0013
0020
,  // measure 63
0001
1000
0130
0200
,  // measure 64
1000
0001
0310
0010
,  // measure 65
0001
0000
1000
0001
1000
0000
0001
0010
,  // measure 66
0100
0000
1000
0010
0100
0000
0001
0010
,  // measure 67
1000
0010
0001
0100
0010
0100
0001
1000
,  // measure 68
0100
0000
0010
0001
0000
0010
0000
0100
0000
1000
0000
0000
0000
0000
0000
0000
;

//---------------dance-single - ----------------
#NOTES:
     dance-single:
     :
     Challenge:
     9:
     0.668,0.581,0.287,0.303,0.401: // measure 1
0000
0000
0000
0000
,  // measure 2
0000
0000
0000
0000
,  // measure 3
1000
0000
0001
0010
0001
0000
1000
0100
1000
0000
0001
0000
0010
0000
0000
0000
,  // measure 4
0001
0000
1000
0100
0010
0000
0001
0010
0100
0000
1000
0000
0001
0000
0000
0000
,  // measure 5
1000
0100
0000
0010
0002
0000
0000
0000
0100
0000
0100
0000
1000
0000
1000
0000
,  // measure 6
0103
0001
0000
1000
0020
0000
0000
0000
1000
0000
1000
0000
0100
0000
0100
0000
,  // measure 7
1030
0000
0001
0010
0001
0000
0010
0001
0010
0000
0001
0000
0010
0000
0100
0000
,  // measure 8
1000
0000
0010
1000
0010
0000
0100
0001
0100
0000
0001
0000
1000
0000
0001
0000
,  // measure 9
1000
0000
0100
0000
1000
0000
0000
0001
0000
0010
0001
0000
0011
0000
0000
0000
,  // measure 10
1000
0001
0110
0000
0001
1000
0110
0000
,  // measure 11
1000
1000
0200
0000
0301
0001
0100
2000
,  // measure 12
0000
3001
0010
0000
0001
0011
0001
0101
,  // measure 13
2002
3003
0220
0330
,  // measure 14
0001
0000
0010
0000
0100
0000
0000
0100
1000
0000
0001
0000
0010
0000
0000
0000
,  // measure 15
0001
0000
1000
0000
0010
0000
0000
0010
1000
0000
0001
0000
0010
0000
0000
0000
,  // measure 16
0001
0000
0010
0000
0100
0000
1000
0010
1000
0000
0100
0000
0010
0000
0001
0000
,  // measure 17
1000
0000
0100
0000
1000
0000
0001
0100
0001
0000
1000
0000
0010
0000
1000
0000
,  // measure 18
0002
0010
0013
0000
2000
0100
3100
0000
,  // measure 19
0020
0100
0100
0100
1000
1000
1030
0000
,  // measure 20
0200
0001
0301
0000
0020
1000
1030
0000
,  // measure 21
2000
0010
0010
0010
0001
0001
3001
0000
,  // measure 22
0001
0000
1000
0100
1000
0100
0000
1000
0000
1000
0010
1000
0010
0000
0000
0000
,  // measure 23
1000
0000
0001
0010
0001
0100
0000
0001
0000
1000
0100
1000
0010
0000
0000
0000
,  // measure 24
0100
0000
0001
1000
0001
1000
0000
0010
0000
0100
0010
0100
0010
0000
0000
0000
,  // measure 25
2000
0000
0100
0000
3010
0200
0000
0001
0000
0301
0010
0001
0010
0000
0000
0000
,  // measure 26
0001
0000
0010
0000
1000
0000
0010
0000
0001
0000
0100
0000
0010
0000
0100
0001
,  // measure 27
0100
0000
0001
0000
1000
0000
0010
0000
1000
0000
0001
0000
0100
0000
0001
1000
,  // measure 28
0001
0000
1000
0000
0100
0000
0010
0000
0100
0000
1000
0000
0100
0000
0001
0100
,  // measure 29
1000
0000
0100
0000
0010
0000
0001
1000
0000
0011
0000
1100
0000
1002
0000
0000
,  // measure 30
1000
0000
0000
0000
0100
0000
0000
0000
0013
0000
0000
0000
0010
0001
0000
1000
,  // measure 31
0200
0000
0000
0000
1000
0000
1000
0000
1000
0000
1000
0000
1300
0010
0000
0100
,  // measure 32
0002
0000
0000
0000
0100
0000
0100
0000
0010
0000
0010
0000
0103
0001
0000
1000
,  // measure 33
0020
0000
0000
0000
0100
0000
0100
0000
1000
0000
1000
0000
0130
0010
0000
0010
,  // measure 34
2000
0000
0000
0000
0001
0000
0001
0000
0001
0000
0001
0000
3001
0010
0001
0010
,  // measure 35
0002
0000
0000
0000
0103
0000
0010
0000
0100
0000
0000
0000
0010
1000
0010
1000
,  // measure 36
0020
0000
0000
0000
1030
0000
0001
0000
1000
0000
0000
0000
1000
0100
1000
0100
,  // measure 37
2000
0000
0000
0000
3001
0000
0100
0000
0001
0000
0000
0000
0100
0001
0100
0001
,  // measure 38
0200
0000
0000
0000
0310
0000
1000
0000
0010
0000
0000
0000
1000
0100
0000
0100
,  // measure 39
0010
0000
0010
0001
0000
0001
1000
0000
0001
1000
0001
0000
1000
0000
0100
0000
,  // measure 40
1000
0000
0001
0010
0001
0000
1000
0100
,  // measure 41
0001
0000
0100
0000
1000
0000
0001
0000
0100
0000
0000
0000
1001
0000
0000
1000
,  // measure 42
0100
0000
1000
0000
0011
0000
0000
1000
0010
0000
0100
0000
0110
0000
0000
0001
,  // measure 43
1000
0000
0001
0000
1100
0000
0000
0000
0011
0000
0000
0000
1000
0000
1000
0100
,  // measure 44
0000
0010
0001
0000
0001
0000
0001
0100
0000
0010
1000
0000
0010
0000
0010
1000
,  // measure 45
0000
0001
0100
0000
0100
0000
0100
0001
0000
1000
0010
0000
1000
0000
0100
0000
,  // measure 46
0001
0100
1000
0010
0001
0010
1000
0100
,  // measure 47
0001
0100
1000
0010
0001
0010
1000
0100
,  // measure 48
0010
0000
0000
0010
0000
0001
0100
0000
1010
0000
0000
0000
0001
0000
0010
0000
,  // measure 49
0100
0000
0000
0100
0000
1000
0100
0000
0011
0000
0000
0000
0001
0000
0010
0000
,  // measure 50
1100
0000
1000
0010
0101
0000
1000
0100
,  // measure 51
1100
0000
0010
0001
1000
0102
0000
1003
,  // measure 52
0010
0000
1000
1100
1000
1010
0220
0000
,  // measure 53
0330
2002
3003
0220
,  // measure 54
0000
0330
0000
1000
0001
0000
0001
0010
,  // measure 55
1000
0010
0002
0000
1003
0000
0200
0000
,  // measure 56
0310
0000
0000
0100
0010
0000
1000
0100
,  // measure 57
0001
0000
0100
0000
2000
0000
0000
0000
3001
0000
0000
0000
0001
0000
1000
0100
,  // measure 58
1000
0000
0001
0010
0001
0000
1000
0100
0010
0000
0001
0010
0100
0000
1000
0010
,  // measure 59
0100
0000
0001
0100
0010
0000
1000
0000
0001
0000
0000
0000
1010
0000
0000
0000
,  // measure 60
0101
0000
0000
1000
0100
0000
0010
0000
0001
0000
1000
0000
0101
0000
0000
0000
,  // measure 61
1010
0000
1100
0000
0011
0000
1000
0100
,  // measure 62
0001
0000
1000
0010
0001
0000
1000
0100
,  // measure 63
0010
0000
0100
0000
0001
0000
0100
0000
1000
0000
0000
0000
0001
0010
0001
0010
,  // measure 64
0002
0000
0000
0000
1003
0100
1000
0100
2000
0000
0000
0000
3010
0000
1000
0000
,  // measure 65
0100
0000
0010
0000
1000
0000
0010
0000
0001
0000
1000
0100
1000
0000
0100
0000
,  // measure 66
0001
0000
0100
0000
1000
0000
0100
0000
0010
0000
0100
0010
0001
0000
1000
0000
,  // measure 67
0001
0000
1000
0000
0001
0000
0100
0000
0010
0000
0100
0001
0100
0000
0001
0000
,  // measure 68
1000
0000
0001
1000
0000
0101
0000
1010
0000
1001
0000
0000
0000
0000
0000
0000
;
