#TITLE:Pluto Relinquish;
#SUBTITLE:;
#ARTIST:2MB;
#TITLETRANSLIT:;
#SUBTITLETRANSLIT:;
#ARTISTTRANSLIT:;
#GENRE:;
#CREDIT:;
#BANNER:DDR Edit - Pluto Relinquish.png;
#BACKGROUND:DDR Edit - Pluto Relinquish-bg.png;
#LYRICSPATH:;
#CDTITLE:./CDTITLES/DanceDanceRevolution SuperNOVA2.png;
#MUSIC:DDR Edit - Pluto Relinquish.mp3;
#OFFSET:0.519;
#SAMPLESTART:0.040;
#SAMPLELENGTH:15.000;
#SELECTABLE:YES;
#DISPLAYBPM:100.000:200.000;
#BPMS:0.000=200.000
,82.000=100.000
,98.000=200.000
,162.000=100.000
,177.000=200.000
;
#STOPS:;
#BGCHANGES:;
#KEYSOUNDS:;
#ATTACKS:;

//---------------dance-single - Blank----------------
#NOTES:
     dance-single:
     Blank:
     Hard:
     10:
     0.810,1.000,0.399,0.317,0.475,485.000,39.000,31.000,0.000,0.000,0.000,0.810,1.000,0.399,0.317,0.475,485.000,39.000,31.000,0.000,0.000,0.000:
0000
0000
0000
0000
1001
0000
0000
0001
,
0001
0000
0000
0011
0000
0011
0000
0001
,
1001
0000
0000
0000
1010
0000
0000
0100
,
0001
0000
0000
0000
1000
0000
0000
0010
1000
0000
0010
0000
0100
0000
0010
0000
,
2020
0000
3030
0000
1001
0000
0000
0001
,
0001
0000
0000
1001
0000
1001
0000
0010
,
0010
0000
1000
0001
1000
0001
0010
1000
,
0010
0000
0001
0000
0010
0000
0100
0010
0100
0000
1000
0000
0001
0000
1000
0000
,
1002
0000
0000
0000
1003
0010
1000
0010
1000
0000
0000
0000
0000
0000
0001
0000
,
1001
0000
0000
1100
0000
1100
0000
1000
,
0010
0000
0000
0000
0110
0000
0000
0000
0001
1000
0001
1000
0001
0000
0100
0000
,
0010
0000
0000
0000
1000
0000
0000
1000
0001
0000
0010
0000
0100
0000
1000
0000
,
2002
0000
3003
0000
1001
0000
0000
0001
,
0001
0000
0000
1001
0000
1001
0000
1000
,
0001
0000
1000
0100
1000
0010
1000
0010
,
1000
0000
0100
0000
1000
0000
0001
0100
0001
0000
1000
0000
0010
0000
0100
0000
,
0001
0000
0000
0000
1000
0100
1000
0100
1000
0000
0010
0000
1000
0000
0010
0000
,
0100
0001
0100
0010
1000
0100
0010
0001
,
0010
0000
0000
0100
0000
0000
1000
0000
0000
0001
0000
0000
1000
0000
0010
0000
1000
0000
0010
0000
1000
0000
0010
0000
,
0100
0001
0100
0001
0100
0001
1000
0100
1000
0100
1000
0100
,
0010
0001
0010
0001
0010
0001
2000
0000
0000
3002
0000
0000
,
0203
0320
2030
3002
,
2003
0000
3000
0000
0002
0000
0003
0000
0011
0000
1000
0000
0001
1000
0000
0000
,
0100
0010
0001
0010
0000
0100
0000
0000
1000
0100
1000
0000
1000
0100
0000
0000
,
1000
0100
1000
0100
0000
1000
0000
0000
1001
0000
0000
0000
0001
0000
0100
0000
,
1000
0100
0001
2000
0000
0001
0000
0010
,
0010
3000
2010
0000
0000
0001
0000
3001
,
1001
0001
0012
1000
,
1000
0000
1003
0000
1001
0000
0001
0010
,
0100
1000
0002
1000
0000
1000
0000
1003
,
0100
0000
0120
0000
0000
0100
0000
0130
,
0010
1000
2001
0001
,
0001
0000
3001
0000
1001
0000
0001
1000
,
0001
1000
0100
0010
0000
0002
0000
0100
,
0100
0000
1003
0000
0000
0100
0000
0001
,
2000
0000
0001
3000
1001
0000
1001
0000
,
1001
0000
1001
0000
0110
0000
0001
1000
,
0001
1000
0001
1000
0000
1000
0000
1000
,
0100
0000
0100
1000
1001
0000
0001
0000
,
0001
0000
0001
1000
0010
0100
0001
0010
,
0100
0000
1000
0000
0100
0000
1000
0000
1100
0000
0000
0010
0010
0000
0000
0001
,
0000
0000
0100
0000
0000
0000
0001
0000
0001
0000
0000
0000
0000
0000
0000
0000
0001
1000
0001
1000
0001
0000
1000
0000
0100
0000
1000
0000
0000
0000
0100
0000
,
0010
0000
0001
0000
1000
0000
0100
0000
1000
0000
0000
0000
0000
0001
0100
0010
1000
0000
0000
0000
0001
0000
0100
0000
0000
0000
0000
0000
0000
0000
0010
0000
,
0000
0000
0010
0000
0000
0000
0010
0000
1000
0000
0000
0000
0000
0000
0000
0000
0001
0000
0000
0000
0000
0000
1000
0000
0001
0000
0000
0000
0000
0000
0000
1000
,
0001
1000
0001
1000
1001
0000
0000
0000
0000
0000
0000
0000
1001
0000
0001
0000
,
0200
0000
0310
1000
0002
0000
0103
0010
,
0200
0000
0301
0010
0200
0000
1300
0010
,
0200
0000
0301
0010
0002
0000
1003
0100
,
0020
0000
0130
0010
0001
0000
1000
0100
,
2000
0000
3001
1000
0001
0100
0010
1000
,
0100
0000
0000
0000
0001
0100
0000
0001
0100
0000
0001
1000
0001
0000
1000
0000
,
0001
0100
0001
1000
0001
0100
0010
0010
,
0100
0000
0100
0000
1001
0000
0001
1000
,
0001
1000
0001
1000
0001
0100
0001
1000
,
0001
0000
0100
0000
0001
0100
0000
0001
1000
0000
0001
1000
0001
0000
0100
0000
,
0010
1000
0010
0100
0001
0100
0010
1000
,
0001
0100
0001
0000
0001
0000
1001
1000
,
0010
0100
0001
1000
0010
0100
0001
1000
,
0100
0000
0010
0000
0001
0100
0000
0001
0100
0000
0001
1000
0001
0000
0010
0000
,
0100
1000
0100
1000
0001
0010
0100
1000
,
0100
0010
0100
0000
0100
0000
1000
1000
,
0001
0001
0100
0100
0010
0010
1000
0001
,
1000
0001
0100
0001
1000
1000
0100
0100
,
0010
0010
0001
0001
1000
1000
0001
0100
,
0010
0000
1000
0000
0001
0000
1000
0000
0001
1000
0001
1000
0001
1000
0001
1000
,
0001
1000
0001
1000
0001
1000
0001
1000
0001
1000
0001
1000
0001
1000
0001
1000
,
0001
1000
0001
1000
0001
1000
0001
1000
0001
1000
0001
1000
0001
1000
0001
1000
,
0001
1000
0001
1000
0001
1000
0001
1000
0001
1000
0001
1000
0001
0000
0000
0000
,
0001
0001
2002
0000
,
0000
0000
0000
0000
0000
0000
0000
3003
;

//---------------dance-single - Blank----------------
#NOTES:
     dance-single:
     Blank:
     Challenge:
     11:
     0.889,1.000,0.429,0.286,0.618,539.000,42.000,28.000,0.000,0.000,0.000,0.889,1.000,0.429,0.286,0.618,539.000,42.000,28.000,0.000,0.000,0.000:
0000
0000
0000
0000
1001
0000
0000
0001
,
0001
0000
0000
0011
0000
0011
0000
0001
,
1001
1000
1000
0000
1010
0010
0010
0100
,
0001
0000
0100
0000
0100
0000
0000
0010
1000
0000
0010
0000
0100
0000
0010
0000
,
2020
0000
3030
0000
1001
0001
1000
0001
,
1000
0100
0010
0100
0010
0100
0010
0100
,
0010
0001
0100
1000
0100
0001
0010
1000
,
0010
0000
0001
0000
0010
0000
0100
0010
0100
0000
1000
0000
0001
0000
1000
0000
,
1002
0000
0000
0000
1003
0010
1000
0010
1000
0000
0000
0000
0000
0000
0001
0000
,
1001
0000
0000
1100
0000
1100
0000
1000
,
0010
0000
0000
0000
0110
0000
0000
0000
0001
1000
0001
1000
0001
0000
0100
0000
,
0010
0000
0000
0000
1000
0000
0000
1000
0001
0000
0010
0000
0100
0000
1000
0000
,
2002
0000
3003
0000
1001
0000
0000
0001
,
0001
0000
0000
1001
0000
1001
0000
0001
,
0101
0000
1000
0100
1000
0100
0001
0100
,
0001
0000
0100
0000
1000
0000
0001
0100
0001
0000
1000
0000
0010
0000
0100
0000
,
0001
0000
0000
0000
1000
0100
1000
0100
1000
0000
0010
0000
1000
0000
0010
0000
,
0100
0001
0100
0010
1000
0100
0010
0001
,
0010
0000
0000
0100
0000
0000
1000
0000
0000
0001
0000
0000
1000
0000
0010
0000
1000
0000
0001
0000
0100
0000
0001
0000
,
1000
0001
1000
0001
0010
0001
1000
0100
1000
0100
0010
0001
,
0010
0100
1000
0100
0010
0100
0210
0000
0000
0302
0000
0000
,
0203
0320
2030
3002
,
2003
0000
3000
0000
0002
0000
0003
0000
0011
0001
1000
0000
0001
1000
0000
0000
,
0100
0010
0001
0010
0000
0100
0000
0000
1000
0100
1000
0000
1000
0100
0000
0000
,
1000
0100
1000
0100
0000
1000
0000
0000
1001
0000
0000
0000
0001
0000
0100
0000
,
1000
0100
0001
2000
0000
0001
0000
0010
,
0010
3000
2010
0000
0000
0001
0000
3001
,
1001
0001
0012
1000
,
1000
0000
1003
0000
1001
0000
0001
0010
,
0100
1000
0002
1000
0000
1000
0000
1003
,
0100
0000
0120
0000
0000
0100
0000
0130
,
0010
1000
2001
0001
,
0001
0000
3001
0000
1001
0000
0001
1000
,
0001
1000
0100
0010
0011
0002
0000
0100
,
0100
0000
1003
0000
0110
0100
0000
0001
,
2000
0000
0001
3000
1001
0000
1001
0000
,
1001
0000
1001
0000
0110
0000
0001
1000
,
0001
1000
0001
1000
0000
1000
0000
1000
,
0100
0000
0100
1000
1001
0000
0001
0000
,
0001
0000
0001
1000
0010
0100
0001
0010
,
0100
0000
1000
0000
0100
0000
1000
0000
1100
0001
0010
0010
0100
1000
1000
0010
,
0100
0000
0001
0000
0001
0000
0100
0000
0001
0000
0100
0000
0100
0000
0000
0000
0001
1000
0001
1000
0001
0000
1000
0000
0100
0000
1000
0000
0000
0000
0100
0000
,
0010
0000
0001
0000
1000
0000
0100
0000
1000
0000
0000
0000
0000
0001
0100
0010
1000
0000
0001
0000
0001
0000
0100
0000
0010
0000
1000
0000
1000
0000
0010
0000
,
0100
0000
0001
0000
0001
0000
0100
0000
0010
0000
1000
0000
1000
0000
0010
0000
1000
0000
0001
0000
0001
0000
0100
0000
0010
0000
1000
0000
0001
0000
0000
1000
,
0001
1000
0001
1000
1001
0000
0000
0000
0000
0000
0000
0000
1001
0000
0001
0000
,
0200
0000
0310
1000
0002
0000
0103
0010
,
0200
0000
0301
0010
0200
0000
1300
0010
,
0200
0000
0301
0010
0002
0000
1003
0100
,
0002
0000
0103
0010
0001
0000
1001
0100
,
0001
0000
0001
1000
0001
0100
0010
1000
,
0100
0000
0000
0000
0001
0100
0000
0001
0100
0000
0001
1000
0001
0000
1000
0000
,
0001
0100
0001
1000
0001
0100
0010
0010
,
0100
0000
0100
0000
1001
0000
0001
1000
,
0001
1000
0001
1000
0001
0100
0001
1000
,
0001
0000
0100
0000
0001
0100
0000
0001
1000
0000
0001
1000
0001
0000
0100
0000
,
0010
1000
0010
0100
0001
0100
0010
1000
,
0001
0100
0001
0000
0001
0000
1001
1000
,
0010
0100
0001
1000
0010
0100
0001
1000
,
0100
0000
0010
0000
0001
0100
0000
0001
0100
0000
0001
1000
0001
0000
0010
0000
,
0100
1000
0100
1000
0001
0010
0100
1000
,
0100
0000
0010
0000
0100
0000
0000
0000
0100
0000
0000
0000
1000
0001
1000
0001
,
0010
0100
0010
0100
1000
0010
1000
0010
0100
0001
0100
0001
0010
0000
0100
0000
,
1000
0000
0100
0000
0010
0000
0001
0000
1000
0001
0010
0100
1000
0100
0010
0001
,
1000
0001
1000
0001
0010
0100
1000
0100
0010
0001
1000
0001
1000
0000
0010
0000
,
0100
0000
0001
0000
0100
0000
0010
0000
1000
0010
1000
0010
0100
0001
0100
0001
,
1000
0010
0100
0010
1000
0010
0100
0001
0100
0010
0100
0001
1000
0010
0100
0001
,
0100
0010
1000
0001
1000
0001
0010
0100
0010
0001
1000
0100
0010
0100
1000
0001
,
0010
0001
1000
0100
1000
0100
0010
0001
0010
0100
1000
0100
1000
0000
0000
0000
,
0001
0001
1001
0000
;

//---------------dance-single - Blank----------------
#NOTES:
     dance-single:
     Blank:
     Medium:
     8:
     0.590,0.679,0.225,0.235,0.123,359.000,22.000,23.000,0.000,0.000,0.000,0.590,0.679,0.225,0.235,0.123,359.000,22.000,23.000,0.000,0.000,0.000:
0000
0000
0000
0000
1000
0000
0000
0001
,
0001
0000
0000
0010
0000
0010
0000
0001
,
0001
0000
0000
0000
1000
0000
0000
0100
,
1000
0000
1000
0000
1000
0010
1000
0000
,
2020
0000
3030
0000
1001
0000
0000
0001
,
0001
0000
0000
1000
0000
1000
0000
0010
,
0010
0000
1000
0000
1000
0100
0010
0000
,
0001
0010
0100
0000
1000
0001
1000
0000
,
1002
0000
1003
1000
1000
0000
0000
0001
,
1000
0000
0000
1000
0000
1000
0000
1000
,
0010
0000
0110
0000
0001
0001
0001
0100
,
0010
0000
1000
0000
0001
0010
0100
0000
,
2002
0000
3003
0000
1001
0000
0000
0100
,
0100
0000
0000
1000
0000
1000
0000
1000
,
0001
0000
1000
0100
1000
0000
0001
0010
,
0001
0000
1000
0000
0001
1000
0010
0100
,
0001
0000
1000
1000
1000
0010
1000
0000
,
0001
0100
0001
0000
1000
0010
1000
0000
,
0001
0000
0000
0100
0000
0000
0001
0000
0000
0000
0000
0000
1000
0000
0000
0000
1000
0000
0010
0000
0000
0000
0010
0000
,
0100
0000
0100
0001
0000
0001
1000
0000
1000
0100
0000
0100
,
0010
0000
0010
0001
0000
0001
2000
0000
0000
3002
0000
0000
,
0203
0320
2030
3002
,
2003
3000
0002
0003
1001
0000
0001
0000
,
1000
0001
0100
0010
,
1000
0000
0001
0000
1001
0000
1000
0100
,
1000
0100
0010
0002
0000
0013
0000
1000
,
1000
0000
2010
0000
0000
0001
0000
3001
,
1000
0001
0012
1000
,
1000
0000
1003
0000
1001
0000
0001
0010
,
0100
1000
0002
1000
0000
1000
0000
1003
,
0100
0000
0120
0000
0000
0100
0000
0130
,
0010
1000
2001
0001
,
0001
0000
3001
0000
1001
0000
0001
1000
,
0001
1000
0100
0010
0000
0002
0000
0100
,
0100
0000
1003
0000
0000
0100
0000
0001
,
2000
0000
0001
3000
1001
0000
1001
0000
,
1001
0000
1001
0000
0110
0000
0001
1000
,
0001
1000
0001
1000
0000
1000
0000
1000
,
0100
0000
0100
1000
0001
0000
0001
0000
,
0001
0000
0001
1000
0010
0100
0001
0010
,
0100
0000
1000
0000
0100
0000
1000
0000
1100
0000
0000
0010
0010
0000
0000
0001
,
0000
0100
0000
0001
0001
0000
0000
0000
0001
0001
0001
1000
0100
1000
0000
1000
,
0100
0000
0010
0001
0010
0000
0000
0100
0100
0000
0001
0100
0000
0000
0000
0010
,
0000
0010
0000
0010
1000
0000
0000
0000
0001
0000
0000
1000
0001
0000
0000
0000
,
0001
1000
0001
0000
1001
0000
0000
0000
0000
0000
0000
0000
0001
0000
0000
0000
,
1000
0010
0100
0001
,
1000
0001
0010
0100
,
1000
0001
0100
0010
,
1000
0001
1000
0001
,
1000
0001
0010
0001
,
1000
0010
0100
0001
,
1000
0001
0100
0010
,
1000
0000
0001
0000
0100
0000
0001
1000
,
0001
0000
0100
0000
1000
0000
0100
0010
,
0100
0000
0001
0000
1000
0000
0010
0100
,
0010
0000
1000
0000
0001
0000
0100
0001
,
0100
0000
0001
0000
1000
0000
0001
1000
,
0001
0000
0100
0000
0010
0000
1000
0001
,
1000
0000
0100
0000
0010
0000
0001
0010
,
0001
0000
1000
0000
0001
0000
0100
0001
,
0100
0000
0001
0000
0100
0000
1000
0100
,
1000
0100
0010
0001
0010
0001
1000
0000
,
0100
0000
0010
0000
1000
0100
0010
0001
,
0010
0100
1000
0010
1000
0010
1000
0000
,
0001
0000
1000
0000
1000
0010
1000
0010
,
0001
0010
0001
0010
1000
0010
1000
0010
,
1000
0100
1000
0100
0001
0100
0001
0100
,
1000
0100
1000
0010
1000
0001
0100
0000
,
0001
0001
2002
0000
,
0000
0000
0000
0000
0000
0000
0000
3003
;

//---------------dance-single - Blank----------------
#NOTES:
     dance-single:
     Blank:
     Easy:
     5:
     0.311,0.536,0.143,0.123,0.000,187.000,14.000,12.000,0.000,0.000,0.000,0.311,0.536,0.143,0.123,0.000,187.000,14.000,12.000,0.000,0.000,0.000:
0000
0000
1001
0000
,
1000
0000
0001
0000
,
0100
0000
0010
0000
,
1000
0000
0001
1000
,
2020
3030
1001
0000
,
0001
0000
1000
0000
,
0001
0000
1000
0100
,
1000
0000
0001
0100
,
0001
0000
1001
0000
,
0100
0000
0000
0010
0000
0000
0000
0000
,
0010
0000
1000
0000
,
0001
0000
1000
0000
,
1001
0000
0100
0000
,
0010
0000
1000
0000
,
0001
0000
1000
0100
,
1000
0001
1000
0001
,
0100
0000
1001
0000
,
0100
0100
0010
0000
,
0001
0001
1000
1000
,
0001
0001
0100
0100
,
0001
0001
2001
3002
,
0203
0320
2030
3002
,
2003
3000
0002
0003
1001
0000
0001
0000
,
1000
0001
0100
0010
,
1000
0001
1001
0000
,
1000
0000
0001
0000
,
0100
0000
0001
0000
,
1000
0000
0001
1000
,
0001
1000
0100
0000
,
0010
0000
0001
0000
,
1000
0000
0010
0000
,
0100
0000
0001
1000
,
0001
1000
0001
0000
,
0100
0000
0010
0000
,
0100
0000
1000
0000
,
0001
0000
1000
0001
,
1000
0001
1000
0000
,
0010
0000
1000
0000
,
0001
0000
1000
0000
,
0001
0000
1000
0001
,
1000
0001
1001
0001
,
1000
0100
0010
0100
,
0001
1000
1001
0100
,
0010
0100
0010
0010
,
0001
1000
1001
0000
0000
0000
1000
0000
,
0000
0001
0000
1000
,
0000
0010
0000
0100
,
0000
0001
0000
1000
,
0000
0001
0000
1000
,
0000
0010
0000
0100
,
0000
0001
0000
1000
,
0000
0001
0000
1000
,
0000
0001
0000
1000
,
0000
0001
0000
0100
,
0000
0010
0000
1000
,
0000
0001
0000
1000
,
0000
0001
0000
1001
,
0000
0100
0000
0010
,
0000
0100
0000
0010
,
0000
1000
0000
0001
,
0000
1000
0000
1000
,
0100
1000
0100
0010
,
0000
0001
1000
0100
,
0010
0001
0100
0010
,
0000
0010
1000
0001
,
0100
0010
1000
0100
,
0010
0001
0001
0100
,
0100
0001
1000
0001
,
0001
0001
2002
0000
,
0000
0000
0000
0000
0000
0000
0000
3003
;

//---------------dance-single - Blank----------------
#NOTES:
     dance-single:
     Blank:
     Beginner:
     3:
     0.225,0.280,0.133,0.000,0.000,141.000,13.000,0.000,0.000,0.000,0.000,0.225,0.280,0.133,0.000,0.000,141.000,13.000,0.000,0.000,0.000,0.000: // measure 0
0000
0000
1001
0000
,  // measure 1
0000
0000
1000
0000
,  // measure 2
0000
0000
0001
0000
,  // measure 3
0000
0000
1000
0000
,  // measure 4
1001
0000
0100
0000
,  // measure 5
0010
0000
1000
0000
,  // measure 6
0001
0000
1000
0000
,  // measure 7
1000
0000
0100
0000
,  // measure 8
0100
0000
0010
0000
,  // measure 9
0010
0000
0010
0000
,  // measure 10
1000
0000
0001
0000
,  // measure 11
1000
0000
0001
0000
,  // measure 12
1001
0000
0100
0000
,  // measure 13
0010
0000
1000
0000
,  // measure 14
0001
0000
1000
1000
,  // measure 15
1000
0000
0001
0001
,  // measure 16
0001
0000
1001
0000
,  // measure 17
0100
0000
0010
0000
,  // measure 18
0100
0000
1000
0000
,  // measure 19
0001
0000
1000
0000
,  // measure 20
0001
0000
1001
0000
,  // measure 21
1000
0000
0100
0000
,  // measure 22
0010
0000
0001
0000
,  // measure 23
1000
0000
0100
0000
,  // measure 24
0010
0000
1001
0000
,  // measure 25
0000
0000
0000
0000
,  // measure 26
1000
1000
0000
0000
,  // measure 27
0001
0000
1000
0000
,  // measure 28
0001
0000
1001
0000
,  // measure 29
0100
0000
0010
0000
,  // measure 30
0010
0000
1000
0000
,  // measure 31
1000
0000
1001
0000
,  // measure 32
0000
0000
0110
0000
,  // measure 33
0001
0000
0000
0000
,  // measure 34
0001
0000
1000
0000
,  // measure 35
1000
0000
0001
0000
,  // measure 36
1000
0000
1001
0000
,  // measure 37
0100
0000
0100
0000
,  // measure 38
0010
0000
0010
0000
,  // measure 39
1000
0000
0001
1000
,  // measure 40
0001
0000
1001
0100
,  // measure 41
0010
1000
0010
1000
,  // measure 42
0001
1000
0010
0100
,  // measure 43
0001
1000
0100
0001
,  // measure 44
0100
1001
0000
0100
,  // measure 45
0000
0010
0000
0100
,  // measure 46
0000
0010
0000
0001
,  // measure 47
0000
1000
0000
0001
,  // measure 48
0000
1000
0000
0100
,  // measure 49
0000
0010
0000
0100
,  // measure 50
0000
0010
0000
0001
,  // measure 51
0000
1000
0000
0001
,  // measure 52
0000
1000
0000
0001
,  // measure 53
0000
0000
0000
1000
,  // measure 54
0000
0000
0000
0100
,  // measure 55
0000
0000
0000
0010
,  // measure 56
0000
0000
0000
0001
,  // measure 57
0000
0000
0000
1000
,  // measure 58
0000
0000
0000
0100
,  // measure 59
0000
0000
0000
0010
,  // measure 60
0000
0000
0000
1000
,  // measure 61
1000
0100
0100
0010
,  // measure 62
0000
0000
0000
0001
,  // measure 63
0001
0100
0100
0010
,  // measure 64
0000
0000
1000
0001
,  // measure 65
1000
0001
1000
0001
,  // measure 66
1000
0001
1000
0001
,  // measure 67
1000
0001
1000
0001
,  // measure 68
0000
0000
1001
0000
;
