#TITLE:MENDES;
#SUBTITLE:;
#ARTIST:Humanoid;
#TITLETRANSLIT:;
#SUBTITLETRANSLIT:;
#ARTISTTRANSLIT:;
#GENRE:IRREGULAR HI-BREAK;
#CREDIT:AznPunk07/Frozen_Heat/GuardianFrozen;
#MENUCOLOR:#f6f3f9;
#METERTYPE:DDR;
#BANNER:MENDES-bn.png;
#BACKGROUND:MENDES-bg.png;
#LYRICSPATH:;
#CDTITLE:!cdtitle.png;
#MUSIC:MENDES.mp3;
#OFFSET:-0.059;
#SAMPLESTART:48.920;
#SAMPLELENGTH:20.000;
#SELECTABLE:YES;
#LISTSORT:;
#DISPLAYBPM:84.000:336.000;
#BPMS:0.000=84.000,16.000=168.000,17.500=1344.000,18.500=672.000,20.000=168.000,84.000=336.000,85.000=336.000,93.000=168.000,95.000=336.000,104.000=168.000,115.000=84.000,121.000=168.000,165.000=336.000,165.500=168.000,222.500=336.000,225.500=168.000,227.000=336.000,230.000=168.000,231.500=336.000,234.500=168.000,236.000=336.000,239.000=168.000,240.500=336.000,243.500=168.000,245.000=336.000,248.000=168.000,249.500=336.000,252.500=168.000,254.000=336.000,257.000=168.000,258.500=336.000,261.500=168.001,263.000=336.000,266.000=168.000,267.500=336.000,270.500=168.000,272.000=336.000,275.000=168.000,276.500=336.000,279.500=168.000,281.000=336.000,284.000=168.000,285.500=336.000,288.500=168.000,290.000=336.000,311.000=168.000,315.000=84.000,316.000=336.000;
#STOPS:84.000=0.089
,84.500=0.089
,85.000=0.179
,86.000=0.178
,87.000=0.089
,87.500=0.179
,88.500=0.178
,89.500=0.089
,90.000=0.089
,90.500=0.179
,91.500=0.089
,92.000=0.090
,92.500=0.089
,95.000=0.089
,95.500=0.089
,96.000=0.178
,97.000=0.179
,98.000=0.089
,98.500=0.178
,99.500=0.179
,100.500=0.090
,101.000=0.089
,101.500=0.178
,102.500=0.089
,103.000=0.089
,103.500=0.089
,165.000=0.090
;
#BGCHANGES:;
#ATTACKS:;

//---------------dance-single - ----------------
#NOTES:
     dance-single:
     :
     Hard:
     10:
     0.919,1.000,0.579,1.000,0.404:
0000
0000
0000
0000
,
0000
0000
0000
0000
,
0001
0000
0000
0000
0011
0000
0000
0000
0001
0000
0000
0000
0101
0000
0000
0000
0001
0000
0000
0000
0011
0000
0000
0000
0010
0001
0010
0001
0100
0010
0100
0010
,
1000
0000
0000
0000
1100
0000
0000
0000
1000
0000
0000
0000
1010
0000
0000
0000
1000
0100
1000
0000
0001
1000
0001
0000
0100
0001
0100
0000
0001
1000
0001
0000
,
0002
0003
0000
0000
0000
0000
0000
0000
0020
0030
0000
0000
0000
0000
0000
0000
0200
0300
0000
0000
0000
0000
0000
0000
2000
3000
0000
0000
0000
0000
0000
0000
0000
0000
0000
0000
0000
0000
0000
0000
0000
0000
0000
0000
0000
0000
0000
0000
0000
0000
0000
0000
0000
0000
0000
0000
0000
0000
0000
0000
0000
0000
0000
0000
,
1000
1100
1000
1010
,
1000
0000
0000
0000
1100
0000
0000
0000
1000
0001
1000
0000
1100
0000
0000
0000
,
0001
0101
0001
0011
,
0001
0000
0100
0000
0101
0000
0000
0000
0001
1000
0001
0000
0011
0000
0100
0000
,
1000
1010
0100
0101
,
0010
0000
0000
0000
0011
0000
0000
0000
0001
1000
0001
0000
1001
0000
0000
0000
,
0001
0100
0000
0000
0001
0100
0000
0000
0100
0010
0000
0000
0100
0010
0000
0000
,
0010
1000
0000
0000
1000
0100
0000
0000
0100
0010
0000
0000
0010
0001
0000
0000
,
0001
1100
0001
1010
,
0001
0000
0000
0000
0110
0000
0000
0000
0001
1000
0001
0000
0101
0000
0000
0000
,
0010
0101
0010
1100
,
1000
0000
0100
0000
1010
0000
0000
0000
0001
1000
0000
1000
0100
0000
0011
0000
,
1000
0011
1000
0101
,
1000
0000
0000
0000
0110
0000
0000
0000
1000
0001
1000
0000
1010
0000
0000
0000
,
0100
1010
0100
0011
,
0001
0000
0010
0000
0101
0000
0000
0000
1000
0001
0000
0001
0010
0000
1100
0000
,
0010
1000
0001
0000
1100
0000
0010
0001
,
0000
0101
0000
1000
0001
0010
0000
0001
,
0100
0000
1000
0000
0100
0010
0100
0001
0100
0001
0010
0100
1000
0000
0100
0000
,
1001
0000
0101
0000
0010
1000
0000
1001
,
0000
0010
0001
1001
0000
0100
0001
1000
,
0010
0100
0010
1000
0010
1000
0100
0010
0001
0100
0001
0100
0001
0010
0001
0010
,
0001
1000
0001
1000
0100
0010
0100
0010
0001
0100
0010
0100
0001
0010
0100
1000
,
0100
1000
0010
0100
0010
0100
0001
0010
0001
0010
0100
1000
0001
0000
0000
0000
,
0000
0000
0000
0000
,
0000
0000
0000
1000
0100
0010
0001
0100
0010
1000
0100
0010
,
0001
0100
0010
1000
0000
0000
0000
0000
0000
1010
0000
0000
,
0000
0000
0000
0001
0010
0100
1000
0001
1000
0010
0100
0001
,
0010
0100
1000
0001
0000
0000
0000
0000
0000
1001
0000
0000
,
0000
0000
0000
0100
0010
0001
1000
0010
0100
0001
1000
0100
,
1000
0010
0100
0001
0000
0000
0000
0000
0000
0101
0000
0000
,
0000
0000
0000
1000
0001
0010
0100
1000
0010
0100
0001
0010
,
0001
1000
0010
0100
0000
0000
0000
0000
0000
0110
0000
0000
,
0000
0000
1001
0000
1000
0100
0010
0000
,
0011
0000
0101
0000
0010
1000
0001
0000
,
1010
0000
0000
0000
1100
0000
0000
0000
0010
0000
0000
0000
0001
0000
0000
1000
,
0000
0001
0110
0110
0000
0000
1001
0000
,
0000
0001
1100
0010
,
0101
0000
1000
0001
0100
0001
0010
0100
,
0010
0001
0100
0010
1000
0100
0000
0100
,
1000
1001
0101
1001
,
1100
0000
0110
0001
0100
0010
0000
0010
,
1000
0000
0000
1000
0001
0010
0100
1000
,
0001
0100
1000
0100
0010
1000
0000
1000
,
0001
0010
1000
0000
0011
0000
0100
0000
,
1010
0000
0000
0000
0101
0000
0000
0000
0001
0000
0100
0000
1000
0000
0000
0100
,
0000
0010
1000
0000
0100
0000
0011
0000
,
0100
0000
0010
0000
1001
0000
0000
0000
1000
0000
0100
0000
0001
0000
0000
0100
,
0000
0010
0001
0000
1100
0000
0010
0000
,
0101
1000
0000
0000
0000
0000
0000
0000
,
0000
0000
0000
0000
0000
0000
0000
0000
0000
0000
0000
0000
0000
0000
0000
0000
0001
0000
0000
0000
0000
0000
0000
0000
0010
0000
0000
0000
0000
0000
0000
0000
0100
0000
0000
0000
0000
0000
0000
0000
2000
3000
0000
0000
0000
0000
0000
0000
0200
0300
0000
0000
0000
0000
0000
0000
2000
3000
0000
0000
0000
0000
0000
0000
,
0000
0000
0000
0000
0000
0000
0000
0000
0002
0003
0000
0000
0000
0000
0000
0000
0200
0300
0000
0000
0000
0000
0000
0000
0002
0003
0000
0000
0000
0000
0000
0000
0010
0000
0000
0000
0000
0000
0000
0000
0100
0000
0000
0000
0000
0000
0000
0000
2000
3000
0000
0000
0000
0000
0000
0000
0200
0300
0000
0000
0000
0000
0000
0000
,
2000
3000
0000
0000
0000
0000
0000
0000
0000
0000
0000
0000
0000
0000
0000
0000
0002
0003
0000
0000
0000
0000
0000
0000
0200
0300
0000
0000
0000
0000
0000
0000
0002
0003
0000
0000
0000
0000
0000
0000
0100
0000
0000
0000
0000
0000
0000
0000
1000
0000
0000
0000
0000
0000
0000
0000
0200
0300
0000
0000
0000
0000
0000
0000
,
0002
0003
0000
0000
0000
0000
0000
0000
0200
0300
0000
0000
0000
0000
0000
0000
0000
0000
0000
0000
0000
0000
0000
0000
0002
0003
0000
0000
0000
0000
0000
0000
2000
3000
0000
0000
0000
0000
0000
0000
0002
0003
0000
0000
0000
0000
0000
0000
0100
0000
0000
0000
0000
0000
0000
0000
1000
0000
0000
0000
0000
0000
0000
0000
,
0200
0300
0000
0000
0000
0000
0000
0000
0002
0003
0000
0000
0000
0000
0000
0000
0200
0300
0000
0000
0000
0000
0000
0000
0000
0000
0000
0000
0000
0000
0000
0000
0002
0003
0000
0000
0000
0000
0000
0000
2000
3000
0000
0000
0000
0000
0000
0000
0002
0003
0000
0000
0000
0000
0000
0000
0010
0000
0000
0000
0000
0000
0000
0000
,
1000
0000
0000
0000
0000
0000
0000
0000
0020
0030
0000
0000
0000
0000
0000
0000
0002
0003
0000
0000
0000
0000
0000
0000
2000
3000
0000
0000
0000
0000
0000
0000
0000
0000
0000
0000
0000
0000
0000
0000
0020
0030
0000
0000
0000
0000
0000
0000
0200
0300
0000
0000
0000
0000
0000
0000
0002
0003
0000
0000
0000
0000
0000
0000
,
0010
0000
0000
0000
0000
0000
0000
0000
1000
0000
0000
0000
0000
0000
0000
0000
0020
0030
0000
0000
0000
0000
0000
0000
0002
0003
0000
0000
0000
0000
0000
0000
2000
3000
0000
0000
0000
0000
0000
0000
0000
0000
0000
0000
0000
0000
0000
0000
0020
0030
0000
0000
0000
0000
0000
0000
0200
0300
0000
0000
0000
0000
0000
0000
,
0002
0003
0000
0000
0000
0000
0000
0000
1000
0000
0000
0000
0000
0000
0000
0000
0010
0000
0000
0000
0000
0000
0000
0000
0200
0300
0000
0000
0000
0000
0000
0000
0002
0003
0000
0000
0000
0000
0000
0000
2000
3000
0000
0000
0000
0000
0000
0000
0000
0000
0000
0000
0000
0000
0000
0000
0020
0030
0000
0000
0000
0000
0000
0000
,
2000
3000
0000
0000
0000
0000
0000
0000
0002
0003
0000
0000
0000
0000
0000
0000
1000
0000
0000
0000
0000
0000
0000
0000
0010
0000
0000
0000
0000
0000
0000
0000
0200
0300
0000
0000
0000
0000
0000
0000
0002
0003
0000
0000
0000
0000
0000
0000
2000
3000
0000
0000
0000
0000
0000
0000
0000
0000
0000
0000
0000
0000
0000
0000
,
0020
0030
0000
0000
0000
0000
0000
0000
2000
3000
0000
0000
0000
0000
0000
0000
0002
0003
0000
0000
0000
0000
0000
0000
0010
0000
0000
0000
0000
0000
0000
0000
0100
0000
0000
0000
0000
0000
0000
0000
2000
3000
0000
0000
0000
0000
0000
0000
0200
0300
0000
0000
0000
0000
0000
0000
2000
3000
0000
0000
0000
0000
0000
0000
,
0200
0300
0000
0000
0000
0000
0000
0000
2000
3000
0000
0000
0000
0000
0000
0000
0200
0300
0000
0000
0000
0000
0000
0000
2000
3000
0000
0000
0000
0000
0000
0000
0010
0000
0000
0000
0000
0000
0000
0000
0100
0000
0000
0000
0000
0000
0000
0000
0002
0003
0000
0000
0000
0000
0000
0000
0200
0300
0000
0000
0000
0000
0000
0000
,
0002
0003
0000
0000
0000
0000
0000
0000
0200
0300
0000
0000
0000
0000
0000
0000
0002
0003
0000
0000
0000
0000
0000
0000
0200
0300
0000
0000
0000
0000
0000
0000
0002
0003
0000
0000
0000
0000
0000
0000
0010
0000
0000
0000
0000
0000
0000
0000
0100
0000
0000
0000
0000
0000
0000
0000
2000
3000
0000
0000
0000
0000
0000
0000
,
0020
0030
0000
0000
0000
0000
0000
0000
2000
3000
0000
0000
0000
0000
0000
0000
0020
0030
0000
0000
0000
0000
0000
0000
2000
3000
0000
0000
0000
0000
0000
0000
0020
0030
0000
0000
0000
0000
0000
0000
2000
3000
0000
0000
0000
0000
0000
0000
0010
0000
0000
0000
0000
0000
0000
0000
0100
0000
0000
0000
0000
0000
0000
0000
,
0002
0003
0000
0000
0000
0000
0000
0000
0020
0030
0000
0000
0000
0000
0000
0000
0002
0003
0000
0000
0000
0000
0000
0000
0020
0030
0000
0000
0000
0000
0000
0000
0002
0003
0000
0000
0000
0000
0000
0000
0020
0030
0000
0000
0000
0000
0000
0000
0002
0003
0000
0000
0000
0000
0000
0000
0100
0000
0000
0000
0000
0000
0000
0000
,
1000
0000
0000
0000
0000
0000
0000
0000
0200
0300
0000
0000
0000
0000
0000
0000
0020
0030
0000
0000
0000
0000
0000
0000
0200
0300
0000
0000
0000
0000
0000
0000
2000
3000
0000
0000
0000
0000
0000
0000
0200
0300
0000
0000
0000
0000
0000
0000
0020
0030
0000
0000
0000
0000
0000
0000
0200
0300
0000
0000
0000
0000
0000
0000
,
0100
0000
0000
0000
0000
0000
0000
0000
0010
0000
0000
0000
0000
0000
0000
0000
2000
3000
0000
0000
0000
0000
0000
0000
0200
0300
0000
0000
0000
0000
0000
0000
0020
0030
0000
0000
0000
0000
0000
0000
0002
0003
0000
0000
0000
0000
0000
0000
2000
3000
0000
0000
0000
0000
0000
0000
0200
0300
0000
0000
0000
0000
0000
0000
,
2000
3000
0000
0000
0000
0000
0000
0000
0010
0000
0000
0000
0000
0000
0000
0000
0001
0000
0000
0000
0000
0000
0000
0000
0020
0030
0000
0000
0000
0000
0000
0000
0200
0300
0000
0000
0000
0000
0000
0000
0020
0030
0000
0000
0000
0000
0000
0000
0002
0003
0000
0000
0000
0000
0000
0000
0020
0030
0000
0000
0000
0000
0000
0000
,
0200
0300
0000
0000
0000
0000
0000
0000
0020
0030
0000
0000
0000
0000
0000
0000
0010
0000
0000
0000
0000
0000
0000
0000
0100
0000
0000
0000
0000
0000
0000
0000
0002
0003
0000
0000
0000
0000
0000
0000
0020
0030
0000
0000
0000
0000
0000
0000
0200
0300
0000
0000
0000
0000
0000
0000
2000
3000
0000
0000
0000
0000
0000
0000
,
0002
0003
0000
0000
0000
0000
0000
0000
0020
0030
0000
0000
0000
0000
0000
0000
0200
0300
0000
0000
0000
0000
0000
0000
2000
3000
0000
0000
0000
0000
0000
0000
0200
0300
0000
0000
0000
0000
0000
0000
2000
3000
0000
0000
0000
0000
0000
0000
0020
0030
0000
0000
0000
0000
0000
0000
0200
0300
0000
0000
0000
0000
0000
0000
,
0020
0030
0000
0000
0000
0000
0000
0000
0200
0300
0000
0000
0000
0000
0000
0000
0002
0003
0000
0000
0000
0000
0000
0000
2000
3000
0000
0000
0000
0000
0000
0000
0002
0003
0000
0000
0000
0000
0000
0000
2000
3000
0000
0000
0000
0000
0000
0000
0020
0030
0000
0000
0000
0000
0000
0000
2000
3000
0000
0000
0000
0000
0000
0000
,
0020
0030
0000
0000
0000
0000
0000
0000
2000
3000
0000
0000
0000
0000
0000
0000
0200
0300
0000
0000
0000
0000
0000
0000
0020
0030
0000
0000
0000
0000
0000
0000
0200
0300
0000
0000
0000
0000
0000
0000
0020
0030
0000
0000
0000
0000
0000
0000
0002
0003
0000
0000
0000
0000
0000
0000
0200
0300
0000
0000
0000
0000
0000
0000
,
0002
0003
0000
0000
0000
0000
0000
0000
0200
0300
0000
0000
0000
0000
0000
0000
0020
0030
0000
0000
0000
0000
0000
0000
2000
3000
0000
0000
0000
0000
0000
0000
0200
0300
0000
0000
0000
0000
0000
0000
2000
3000
0000
0000
0000
0000
0000
0000
0020
0030
0000
0000
0000
0000
0000
0000
0200
0300
0000
0000
0000
0000
0000
0000
,
0002
0003
0000
0000
0000
0000
0000
0000
0020
0030
0000
0000
0000
0000
0000
0000
0002
0003
0000
0000
0000
0000
0000
0000
0200
0300
0000
0000
0000
0000
0000
0000
0020
0030
0000
0000
0000
0000
0000
0000
2000
3000
0000
0000
0000
0000
0000
0000
0002
0003
0000
0000
0000
0000
0000
0000
0000
0000
0000
0000
0000
0000
0000
0000
,
0000
0000
0000
0000
,
2002
0000
0000
0000
,
0000
0000
0000
0000
,
3003
0000
0000
0000
;

//---------------dance-single - ----------------
#NOTES:
     dance-single:
     :
     Challenge:
     10:
     1.000,1.000,0.921,1.000,0.667: // measure 1
0000
0000
0000
0000
,  // measure 2
0000
0000
0000
0000
,  // measure 3
1000
0100
0000
0000
1010
0000
0000
0000
1000
0001
0000
0000
1100
0000
0000
0000
1000
0010
0000
0000
1001
0000
0000
0000
0100
1000
0001
1000
0100
0010
0001
1000
,  // measure 4
0001
0010
0001
0000
0100
0001
0100
0000
0010
1000
0010
0000
0100
0010
0100
0000
0001
0010
0100
0000
1000
0010
0100
0000
0001
0100
0010
0000
1000
0100
0010
0000
,  // measure 5
0200
0300
0000
0000
2000
3000
0000
0000
0020
0030
0000
0000
0200
0300
0000
0000
0002
0003
0000
0000
2000
3000
0000
0000
0002
0003
0000
0000
0000
0000
0000
0000
0000
0000
0000
0000
0000
0000
0000
0000
0000
0000
0000
0000
0000
0000
0000
0000
0000
0000
0000
0000
0000
0000
0000
0000
0000
0000
0000
0000
0000
0000
0000
0000
,  // measure 6
1000
0001
0000
0000
1100
0000
0000
0000
0010
0001
0000
0000
1010
0000
0000
0000
,  // measure 7
0100
0001
0000
0000
1100
0000
0000
0000
1000
0001
1000
0000
1100
0000
0010
0000
,  // measure 8
0001
1000
0000
0000
0101
0000
0000
0000
0010
1000
0000
0000
0011
0000
0000
0000
,  // measure 9
0100
1000
0010
0000
0101
0000
0000
0000
0001
1000
0001
0000
0011
0000
0100
0000
,  // measure 10
1000
0100
0010
0000
0001
0100
0000
0000
0010
1000
0100
0000
0010
0001
0000
0000
,  // measure 11
0100
0001
0010
0000
0100
1000
0000
0000
0001
0100
0010
0000
0100
0001
0000
0000
,  // measure 12
1000
0100
1000
0000
0001
0010
0001
0000
0010
0100
0010
0000
0001
0010
0001
0000
,  // measure 13
1000
0010
1000
0000
0100
1000
0100
0000
0010
0001
0010
0000
1000
0010
1000
0000
,  // measure 14
0010
0100
1000
0000
1000
0010
0000
0000
0001
0010
0100
0000
0001
0010
0000
0000
,  // measure 15
0100
0010
0001
0000
0100
0000
0010
1000
0000
0010
0100
0000
0001
0000
1000
0000
,  // measure 16
0100
0010
0001
0000
0001
0100
0000
0000
1000
0100
0010
0000
1000
0100
0000
0000
,  // measure 17
0010
0100
1000
0000
0010
0000
0100
0001
0000
0001
0100
0000
1010
0000
0101
0000
,  // measure 18
1000
0001
0010
0000
1100
0000
0010
0000
0001
0100
0010
0000
0101
0000
1000
0000
,  // measure 19
0001
0010
0001
0000
0110
0000
1000
0000
0010
1000
0010
0000
1001
0000
0010
0000
,  // measure 20
0100
0010
0001
0000
0010
0100
1000
0000
0010
1000
0001
0000
0010
0001
1000
0000
,  // measure 21
0001
0000
0010
0000
0101
0000
1000
0001
0000
1000
0001
0000
0010
0000
1100
0000
,  // measure 22
0010
1000
1001
0000
1100
0000
0010
0101
,  // measure 23
0000
1010
0000
1001
0010
0011
0000
0001
,  // measure 24
0100
0000
1000
0000
0100
0001
0010
1000
0010
0001
0100
1000
0100
0000
0010
0000
,  // measure 25
1001
0000
0101
0000
0010
1100
0000
0011
,  // measure 26
0000
1000
0001
0110
0000
0100
1000
0001
,  // measure 27
0010
0100
0010
0001
0010
0001
0100
0010
1000
0100
1000
0100
1000
0010
1000
0010
,  // measure 28
1000
0001
1000
0001
0100
0010
0100
0010
1000
0100
0010
0100
1000
0001
0100
1000
,  // measure 29
0100
0001
0010
1000
0010
0001
1000
0001
1000
0100
0010
0001
1000
0000
0000
0000
,  // measure 30
0000
0000
0000
0001
,  // measure 31
1000
0000
0000
0001
0010
0100
1000
0010
0100
0001
0010
0100
,  // measure 32
1000
0010
0100
0001
0000
0000
0000
0000
0000
0101
0000
0000
,  // measure 33
0000
0000
0000
1000
0100
0010
0001
1000
0001
0100
0010
1000
,  // measure 34
0100
0000
0000
0000
0010
0000
0000
0000
0001
0000
0000
0000
1000
0000
0000
0000
0000
0000
0000
0000
0000
1000
0000
0000
0100
0000
0000
0000
0000
0000
0000
0000
0000
0100
0000
0000
0010
0000
0000
0000
0000
0000
0000
0000
0000
0010
0000
0000
,  // measure 35
0001
0000
0000
0000
0000
0000
0000
0000
0000
0001
0000
0000
0010
0000
0000
0000
0100
0000
0000
0000
1000
0000
0000
0000
0001
0000
0000
0000
0100
0000
0000
0000
0010
0000
0000
0000
1000
0000
0000
0000
0001
0000
0000
0000
0010
0000
0000
0000
,  // measure 36
0001
0100
0010
1000
0000
0000
0000
0000
0000
1010
0000
0000
,  // measure 37
0000
0000
0000
0100
0000
0000
0001
0000
1000
0000
0100
0000
0010
0000
0001
0000
0100
0000
0010
0000
1000
0000
0100
0000
,  // measure 38
1000
0001
0100
0010
0000
0000
0000
0000
0000
0110
0000
0000
,  // measure 39
0000
0000
1001
0000
0000
1100
0000
0000
,  // measure 40
0011
0101
0010
1010
,  // measure 41
1001
0000
0000
0000
0101
0000
0000
0000
0011
0000
0000
0000
1100
0000
0000
1001
,  // measure 42
0000
0101
0010
1001
0000
0000
0110
0000
,  // measure 43
0000
0000
0001
0010
0100
0010
0000
0001
,  // measure 44
0100
0000
0000
0000
0000
0000
1000
0000
0100
0000
0001
0000
0010
0100
0000
0100
,  // measure 45
0010
0000
0001
0000
1000
0100
0010
0000
0001
0000
1000
0000
0000
0000
1000
0000
,  // measure 46
0010
0000
0000
0000
0101
0000
0010
0000
1100
0000
0001
0000
0100
0001
0000
0001
,  // measure 47
0010
0000
0100
0000
1100
0000
0010
0000
0001
0000
1000
0000
0000
0000
0010
1000
,  // measure 48
0010
0000
0100
0000
0000
0000
0001
0000
0010
0000
0100
0000
1000
0010
0000
0010
,  // measure 49
0100
0001
0110
1000
0001
0100
0000
0010
,  // measure 50
1000
0000
0100
0000
0011
0000
0100
0000
1000
0100
0000
1000
0001
1000
0001
0000
,  // measure 51
0100
0000
0010
0000
1001
0000
0000
0000
0001
0000
0100
0000
2000
0000
0000
3200
,  // measure 52
0000
0000
0320
0000
1000
0030
0000
0000
0100
0000
0000
0000
0011
0000
0000
0000
,  // measure 53
0100
0000
0010
0000
1001
0000
0000
0000
1000
0000
0100
0000
0002
0000
0000
0203
,  // measure 54
0000
0000
0320
0000
0001
0030
0000
0000
1100
0000
0000
0000
0010
0000
0000
0000
,  // measure 55
0101
1000
0000
0000
0000
0000
0000
0000
,  // measure 56
0000
0000
0000
0000
0000
0000
0000
0000
0000
0000
0000
0000
0000
0000
0000
0000
0101
0000
0000
0000
0000
0000
0000
0000
1001
0000
0000
0000
0000
0000
0000
0000
0011
0000
0000
0000
0000
0000
0000
0000
0020
0030
0000
0000
0000
0000
0000
0000
0002
0003
0000
0000
0000
0000
0000
0000
2000
3000
0000
0000
0000
0000
0000
0000
,  // measure 57
0020
0030
0000
0000
0000
0000
0000
0000
2000
3000
0000
0000
0000
0000
0000
0000
0200
0300
0000
0000
0000
0000
0000
0000
1100
0000
0000
0000
0000
0000
0000
0000
1001
0000
0000
0000
0000
0000
0000
0000
1100
0000
0000
0000
0000
0000
0000
0000
2000
3000
0000
0000
0000
0000
0000
0000
0002
0003
0000
0000
0000
0000
0000
0000
,  // measure 58
0200
0300
0000
0000
0000
0000
0000
0000
0002
0003
0000
0000
0000
0000
0000
0000
2000
3000
0000
0000
0000
0000
0000
0000
0002
0003
0000
0000
0000
0000
0000
0000
0011
0000
0000
0000
0000
0000
0000
0000
0110
0000
0000
0000
0000
0000
0000
0000
1100
0000
0000
0000
0000
0000
0000
0000
2000
3000
0000
0000
0000
0000
0000
0000
,  // measure 59
0020
0030
0000
0000
0000
0000
0000
0000
0200
0300
0000
0000
0000
0000
0000
0000
0002
0003
0000
0000
0000
0000
0000
0000
0020
0030
0000
0000
0000
0000
0000
0000
0002
0003
0000
0000
0000
0000
0000
0000
1010
0000
0000
0000
0000
0000
0000
0000
0110
0000
0000
0000
0000
0000
0000
0000
0101
0000
0000
0000
0000
0000
0000
0000
,  // measure 60
0002
0003
0000
0000
0000
0000
0000
0000
2000
3000
0000
0000
0000
0000
0000
0000
0002
0003
0000
0000
0000
0000
0000
0000
0020
0030
0000
0000
0000
0000
0000
0000
0200
0300
0000
0000
0000
0000
0000
0000
2000
3000
0000
0000
0000
0000
0000
0000
0101
0000
0000
0000
0000
0000
0000
0000
1010
0000
0000
0000
0000
0000
0000
0000
,  // measure 61
0101
0000
0000
0000
0000
0000
0000
0000
0020
0030
0000
0000
0000
0000
0000
0000
0200
0300
0000
0000
0000
0000
0000
0000
2000
3000
0000
0000
0000
0000
0000
0000
0020
0030
0000
0000
0000
0000
0000
0000
0200
0300
0000
0000
0000
0000
0000
0000
0002
0003
0000
0000
0000
0000
0000
0000
1100
0000
0000
0000
0000
0000
0000
0000
,  // measure 62
0011
0000
0000
0000
0000
0000
0000
0000
1100
0000
0000
0000
0000
0000
0000
0000
0020
0030
0000
0000
0000
0000
0000
0000
0002
0003
0000
0000
0000
0000
0000
0000
2000
3000
0000
0000
0000
0000
0000
0000
0020
0030
0000
0000
0000
0000
0000
0000
2000
3000
0000
0000
0000
0000
0000
0000
0020
0030
0000
0000
0000
0000
0000
0000
,  // measure 63
0101
0000
0000
0000
0000
0000
0000
0000
1010
0000
0000
0000
0000
0000
0000
0000
1001
0000
0000
0000
0000
0000
0000
0000
2000
3000
0000
0000
0000
0000
0000
0000
0002
0003
0000
0000
0000
0000
0000
0000
2000
3000
0000
0000
0000
0000
0000
0000
0200
0300
0000
0000
0000
0000
0000
0000
0020
0030
0000
0000
0000
0000
0000
0000
,  // measure 64
0002
0003
0000
0000
0000
0000
0000
0000
1100
0000
0000
0000
0000
0000
0000
0000
0011
0000
0000
0000
0000
0000
0000
0000
1001
0000
0000
0000
0000
0000
0000
0000
0002
0003
0000
0000
0000
0000
0000
0000
2000
3000
0000
0000
0000
0000
0000
0000
0002
0003
0000
0000
0000
0000
0000
0000
0200
0300
0000
0000
0000
0000
0000
0000
,  // measure 65
0020
0030
0000
0000
0000
0000
0000
0000
2000
3000
0000
0000
0000
0000
0000
0000
1100
0000
0000
0000
0000
0000
0000
0000
1001
0000
0000
0000
0000
0000
0000
0000
0101
0000
0000
0000
0000
0000
0000
0000
0002
0003
0000
0000
0000
0000
0000
0000
0020
0030
0000
0000
0000
0000
0000
0000
0200
0300
0000
0000
0000
0000
0000
0000
,  // measure 66
0020
0030
0000
0000
0000
0000
0000
0000
0002
0003
0000
0000
0000
0000
0000
0000
0020
0030
0000
0000
0000
0000
0000
0000
0101
0000
0000
0000
0000
0000
0000
0000
1001
0000
0000
0000
0000
0000
0000
0000
1100
0000
0000
0000
0000
0000
0000
0000
2000
3000
0000
0000
0000
0000
0000
0000
0200
0300
0000
0000
0000
0000
0000
0000
,  // measure 67
0020
0030
0000
0000
0000
0000
0000
0000
0200
0300
0000
0000
0000
0000
0000
0000
2000
3000
0000
0000
0000
0000
0000
0000
0200
0300
0000
0000
0000
0000
0000
0000
1001
0000
0000
0000
0000
0000
0000
0000
0110
0000
0000
0000
0000
0000
0000
0000
1001
0000
0000
0000
0000
0000
0000
0000
0002
0003
0000
0000
0000
0000
0000
0000
,  // measure 68
0200
0300
0000
0000
0000
0000
0000
0000
2000
3000
0000
0000
0000
0000
0000
0000
0200
0300
0000
0000
0000
0000
0000
0000
0002
0003
0000
0000
0000
0000
0000
0000
0200
0300
0000
0000
0000
0000
0000
0000
0110
0000
0000
0000
0000
0000
0000
0000
1001
0000
0000
0000
0000
0000
0000
0000
0110
0000
0000
0000
0000
0000
0000
0000
,  // measure 69
2000
3000
0000
0000
0000
0000
0000
0000
0200
0300
0000
0000
0000
0000
0000
0000
0002
0003
0000
0000
0000
0000
0000
0000
0200
0300
0000
0000
0000
0000
0000
0000
2000
3000
0000
0000
0000
0000
0000
0000
0002
0003
0000
0000
0000
0000
0000
0000
0101
0000
0000
0000
0000
0000
0000
0000
0011
0000
0000
0000
0000
0000
0000
0000
,  // measure 70
1100
0000
0000
0000
0000
0000
0000
0000
0002
0003
0000
0000
0000
0000
0000
0000
0200
0300
0000
0000
0000
0000
0000
0000
2000
3000
0000
0000
0000
0000
0000
0000
0200
0300
0000
0000
0000
0000
0000
0000
0020
0030
0000
0000
0000
0000
0000
0000
2000
3000
0000
0000
0000
0000
0000
0000
1100
0000
0000
0000
0000
0000
0000
0000
,  // measure 71
1010
0000
0000
0000
0000
0000
0000
0000
0101
0000
0000
0000
0000
0000
0000
0000
2000
3000
0000
0000
0000
0000
0000
0000
0200
0300
0000
0000
0000
0000
0000
0000
0020
0030
0000
0000
0000
0000
0000
0000
0002
0003
0000
0000
0000
0000
0000
0000
0200
0300
0000
0000
0000
0000
0000
0000
0002
0003
0000
0000
0000
0000
0000
0000
,  // measure 72
1010
0000
0000
0000
0000
0000
0000
0000
0101
0000
0000
0000
0000
0000
0000
0000
0011
0000
0000
0000
0000
0000
0000
0000
2000
3000
0000
0000
0000
0000
0000
0000
0002
0003
0000
0000
0000
0000
0000
0000
0020
0030
0000
0000
0000
0000
0000
0000
2000
3000
0000
0000
0000
0000
0000
0000
0020
0030
0000
0000
0000
0000
0000
0000
,  // measure 73
0200
0300
0000
0000
0000
0000
0000
0000
0011
0000
0000
0000
0000
0000
0000
0000
1100
0000
0000
0000
0000
0000
0000
0000
1010
0000
0000
0000
0000
0000
0000
0000
0002
0003
0000
0000
0000
0000
0000
0000
0020
0030
0000
0000
0000
0000
0000
0000
0200
0300
0000
0000
0000
0000
0000
0000
2000
3000
0000
0000
0000
0000
0000
0000
,  // measure 74
0002
0003
0000
0000
0000
0000
0000
0000
0020
0030
0000
0000
0000
0000
0000
0000
0200
0300
0000
0000
0000
0000
0000
0000
2000
3000
0000
0000
0000
0000
0000
0000
0002
0003
0000
0000
0000
0000
0000
0000
2000
3000
0000
0000
0000
0000
0000
0000
0020
0030
0000
0000
0000
0000
0000
0000
0200
0300
0000
0000
0000
0000
0000
0000
,  // measure 75
0020
0030
0000
0000
0000
0000
0000
0000
0200
0300
0000
0000
0000
0000
0000
0000
0002
0003
0000
0000
0000
0000
0000
0000
0020
0030
0000
0000
0000
0000
0000
0000
2000
3000
0000
0000
0000
0000
0000
0000
0020
0030
0000
0000
0000
0000
0000
0000
0200
0300
0000
0000
0000
0000
0000
0000
2000
3000
0000
0000
0000
0000
0000
0000
,  // measure 76
0020
0030
0000
0000
0000
0000
0000
0000
0002
0003
0000
0000
0000
0000
0000
0000
0020
0030
0000
0000
0000
0000
0000
0000
0200
0300
0000
0000
0000
0000
0000
0000
0002
0003
0000
0000
0000
0000
0000
0000
2000
3000
0000
0000
0000
0000
0000
0000
0020
0030
0000
0000
0000
0000
0000
0000
0002
0003
0000
0000
0000
0000
0000
0000
,  // measure 77
2000
3000
0000
0000
0000
0000
0000
0000
0200
0300
0000
0000
0000
0000
0000
0000
0002
0003
0000
0000
0000
0000
0000
0000
2000
3000
0000
0000
0000
0000
0000
0000
0200
0300
0000
0000
0000
0000
0000
0000
2000
3000
0000
0000
0000
0000
0000
0000
0020
0030
0000
0000
0000
0000
0000
0000
0200
0300
0000
0000
0000
0000
0000
0000
,  // measure 78
0002
0003
0000
0000
0000
0000
0000
0000
0020
0030
0000
0000
0000
0000
0000
0000
0002
0003
0000
0000
0000
0000
0000
0000
0200
0300
0000
0000
0000
0000
0000
0000
0020
0030
0000
0000
0000
0000
0000
0000
2000
3000
0000
0000
0000
0000
0000
0000
0002
0003
0000
0000
0000
0000
0000
0000
0000
0000
0000
0000
0000
0000
0000
0000
,  // measure 79
0000
0000
0000
0000
,  // measure 80
2002
0000
0000
0000
,  // measure 81
0000
0000
0000
0000
,  // measure 82
3003
0000
0000
0000
;

//---------------dance-single - ----------------
#NOTES:
     dance-single:
     :
     Medium:
     8:
     0.493,0.711,0.439,0.184,0.022:
0000
0000
0000
0000
,
0000
0000
0000
0000
,
0001
0000
0001
0000
0001
0000
0001
0000
0001
0000
0001
0000
0001
0001
0010
0100
,
1000
1000
1000
1000
0010
0010
0100
0100
,
2002
3003
0000
0000
,
0010
1100
0010
0101
,
0010
1100
0010
0101
,
1000
0101
1000
0011
,
0001
1100
0001
1010
,
0100
1010
0100
0011
,
0100
1010
0100
0011
,
1000
0100
1000
0100
1000
0100
1000
1000
,
0001
0100
0001
0100
0001
0100
0001
0001
,
0010
0011
0100
1100
,
0010
0000
0011
0000
1000
0001
0100
0000
,
0010
1010
0100
0101
,
0010
0000
1010
0000
0001
1000
0100
0000
,
0010
0110
1000
1001
,
0100
0000
0110
0000
0001
1000
0001
0000
,
0010
0001
0100
0001
0010
0100
1000
0010
,
1000
0100
0010
0001
0100
0010
1000
0001
,
1000
0000
1000
0000
1000
0000
0000
0001
,
0000
0001
0000
0001
0100
0000
0000
0100
,
0010
0010
1000
0001
,
0001
0000
0001
0000
0000
0010
0000
0010
,
0000
0010
0100
0000
0000
1000
0001
0000
,
0100
0010
0010
1000
,
0001
0010
0100
1000
,
0010
0100
0001
1000
,
0000
0000
0000
0000
,
0000
0102
1000
0100
,
1000
0023
0000
0130
,
0000
2100
0010
0001
,
0010
3200
0000
0310
,
0000
0000
1002
0000
0100
0000
1003
0001
,
0010
0100
2000
0000
0000
0000
3001
0000
,
0000
0000
2001
0000
0010
0000
3001
1000
,
0100
0010
0002
0000
0000
0000
1003
0000
,
0000
0000
0110
0000
0001
0100
0000
0100
,
0001
0000
0110
0000
1000
0100
0000
0100
,
1000
0000
0000
0000
0110
0000
0000
0000
0001
0000
1000
0000
0001
0000
0000
1001
,
0000
1001
0200
0000
0300
0000
2002
0000
,
3003
0001
0100
1000
,
0100
0000
0001
0000
0010
0000
0100
1000
,
0100
0010
0100
0000
1000
0001
0000
0001
,
0100
0010
1100
0010
,
0101
0000
1001
0000
0001
1000
0000
1000
,
0001
0000
0000
1000
0100
0010
0001
1000
,
0100
0010
0001
0100
0010
1000
0000
1000
,
0001
0100
0010
0000
0010
1000
0001
0000
,
0010
0000
0000
0000
2002
0000
0000
0000
3003
0000
0000
0000
1000
0000
0000
1000
,
0000
1000
0001
0000
0010
0000
1100
0000
,
0010
0000
0000
0000
2002
0000
0000
0000
3003
0000
0000
0000
0001
0000
0000
0001
,
0000
0001
1000
0000
0010
0000
0101
0000
,
0010
1001
0000
0000
0000
0000
0000
0000
,
0000
0000
1000
0100
0010
0001
0000
0001
,
0000
0000
0000
0001
0100
0010
1000
0000
,
1000
0000
0000
0000
0001
1000
0001
0010
,
0000
0010
0000
0000
0000
1000
0001
1000
,
0010
0000
0010
0000
0000
0000
0100
0001
,
0010
0100
0000
1000
0000
0000
0000
0010
,
0001
0100
0010
0000
1000
0000
0000
0000
,
0001
0100
1000
0100
0000
0010
0000
0000
,
0000
1000
0100
0001
0100
0000
0010
0000
,
0000
0000
1001
0001
1000
0001
0000
0100
,
0000
0000
0000
1001
1000
0001
1000
0000
,
0010
0000
0000
0000
0100
0110
0010
1000
,
0000
0001
0000
0000
0000
0010
0110
0100
,
0001
0000
1000
0000
0000
0000
0010
0011
,
0001
1000
0000
0010
0000
0000
0000
0010
,
1010
1000
0001
0000
0010
0000
0000
0000
,
0001
0100
0101
0010
0000
1000
0000
0000
,
0000
1000
0100
1100
0010
0000
0001
0000
,
0000
0220
0000
0000
,
0000
0000
0000
0000
,
0000
0000
0000
0000
,
0000
0000
0000
0000
,
0000
0000
0000
0330
,
0000
0000
0000
0000
,
2002
0000
0000
0000
,
0000
0000
0000
0000
,
3003
0000
0000
0000
;

//---------------dance-single - ----------------
#NOTES:
     dance-single:
     :
     Beginner:
     3:
     0.148,0.277,0.193,0.000,0.000:
0000
0000
0000
0000
,
0000
0000
0000
0000
,
1000
0000
0000
0000
,
0001
0000
0100
0100
,
0100
0000
0000
0000
,
0010
0000
0000
0000
,
0000
0000
0000
0000
,
0110
0000
0000
0000
,
0000
0000
0000
0000
,
1000
0000
0000
0000
,
0000
0000
0000
0000
,
1001
0000
0000
0000
,
0010
0000
0000
0000
,
0001
0000
0001
0000
,
0001
0000
0000
0000
,
1000
0000
1000
0000
,
1000
0000
0000
0000
,
0010
0000
0010
0000
,
0010
0000
0000
0000
,
0100
0000
0100
0000
,
0100
0100
0100
0000
,
1001
0000
0000
0000
,
0000
0000
0000
0000
,
0000
0110
0000
1001
,
0000
0000
0000
0000
,
0000
0000
0000
0000
,
0110
0000
1001
0000
,
0100
0000
1001
0000
,
0010
0000
0100
0100
,
0000
0000
0000
0000
,
0000
0010
0000
0000
,
0000
0100
0000
1001
,
0000
0010
0000
0000
,
0000
0100
0000
1001
,
0000
0010
0000
0000
,
0000
0100
0000
1001
,
0000
0010
0000
0000
,
0000
0100
0000
1001
,
0000
0010
0000
0000
,
0000
0100
0000
0000
,
0000
1001
0000
0110
,
0000
1001
0000
0000
,
0000
1000
1000
1000
,
0000
0000
0000
0000
,
0000
0001
0001
0001
,
0000
0100
0000
0010
,
0000
0100
0100
0100
,
0000
0000
0000
0010
,
0000
0010
0010
0010
,
0000
1001
0000
0110
,
0000
1001
0000
1000
,
1000
1000
0000
0110
,
0000
0110
0000
0001
,
0001
0001
0000
0110
,
0000
0000
0000
0000
,
0000
1000
0000
0000
,
0000
0000
0000
0001
0000
0000
0000
0000
,
0000
0000
0100
0000
,
0000
0000
0000
0000
0000
0010
0000
0000
,
0000
0000
0000
0100
,
0000
0000
0000
0000
0000
0000
0000
0010
,
0000
0000
0000
0000
,
1000
0000
0000
0000
,
0000
0001
0000
0000
0000
0000
0000
0000
,
0000
0010
0000
0000
,
0000
0000
0000
0100
0000
0000
0000
0000
,
0000
0000
1000
0000
,
0000
0000
0000
0000
0000
0001
0000
0000
,
0000
0000
0000
0100
,
0000
0000
0000
0000
0000
0000
0000
0010
,
0000
0000
0000
0000
,
1000
0000
0000
0000
,
0000
0001
0000
0000
0000
0000
0000
0000
,
0000
1000
0000
0000
,
0000
0000
0000
0000
,
0000
0000
0000
0000
,
0000
0000
0000
0000
,
0000
0000
0000
0000
,
0000
0000
0000
0000
,
1001
0000
0000
0000
;

//---------------dance-single - ----------------
#NOTES:
     dance-single:
     :
     Easy:
     6:
     0.331,0.624,0.298,0.053,0.000:
0000
0000
0000
0000
,
0000
0000
0000
0000
,
0001
0100
1000
0100
0001
0100
1000
0100
,
0001
0010
1000
0010
0001
0010
1000
0010
,
1001
0000
0000
0000
,
0100
0100
0100
0100
,
0100
0100
0100
0100
,
0010
0010
0010
0010
,
0010
0010
0010
0010
,
1000
1000
1000
1000
,
1000
1000
1000
1000
,
0001
0001
0001
0001
,
0011
0011
0011
0011
,
0100
0100
0100
0100
,
0100
0100
0100
0100
,
0010
0010
0010
0010
,
0010
0010
0010
0010
,
0001
0001
0001
0001
,
0001
0001
0001
0001
,
1000
1000
1000
1000
,
1010
1010
1010
1010
,
0001
0000
0001
0000
0001
0000
0000
0001
,
0000
0001
0000
0001
0000
0000
0000
0000
,
0001
1001
0000
1000
,
1000
0000
1000
0000
0000
1000
0000
1000
,
0000
1000
0000
0000
0000
0000
1000
0000
,
1001
0000
0010
0100
,
0010
0100
0001
1000
,
0001
0010
0100
1000
,
0000
0000
0000
0000
,
0000
0020
0000
0000
,
0000
0130
0000
1001
,
0000
0020
0000
0000
,
0000
0130
0000
1001
,
0000
0020
0000
0000
,
0000
0130
0000
1001
,
0000
0020
0000
0000
,
0000
0130
0000
1001
,
0000
0010
1000
0001
,
0010
1100
0010
0101
,
0010
1001
0000
0100
,
0010
0110
0000
1001
,
0000
0110
0000
0000
,
0000
0000
0001
1000
,
0001
0100
0100
0010
,
1000
0100
0100
0010
,
0010
0001
1000
1001
,
1000
0010
0100
0001
,
0010
0100
0110
0010
,
0110
1000
1001
0001
,
1001
1001
0000
0100
,
0010
0110
0010
0110
,
0100
0110
0000
1000
,
0001
1001
0001
1001
,
1000
0000
0000
0000
,
0000
0000
0001
0000
0100
0000
0000
0001
,
0000
0000
0000
0100
0000
0001
0000
0000
,
0100
0000
0010
1000
,
0000
0010
0000
0000
0000
1000
0000
0010
,
0000
1000
0000
0001
,
1000
0000
0000
0001
0000
0000
0000
1000
,
0000
0001
0000
0000
1000
0000
0000
0000
,
0100
0000
0010
0000
0000
0100
0000
0000
,
0000
0010
0000
0100
0000
0000
0010
0000
,
0000
0000
0001
0000
1000
0000
0000
0010
,
0000
0000
0000
1000
0000
0100
0000
0000
,
0010
0000
0001
0100
,
0000
0010
0000
0000
0000
1000
0000
0001
,
0000
0010
0000
0100
,
1000
0000
0000
0010
0000
0000
0000
0100
,
0000
0001
0000
0000
1000
0000
0000
0000
,
0001
0000
0010
0000
0000
0100
0000
0000
,
0000
1000
0000
0001
0000
0000
0100
0000
,
0000
0220
0000
0000
,
0000
0000
0000
0000
,
0000
0000
0000
0000
,
0000
0000
0000
0000
,
0000
0000
0000
0330
,
0000
0000
0000
0000
,
1001
0000
0000
0000
;
