#TITLE:Just Dance;
#SUBTITLE:;
#ARTIST:Lady Gaga;
#TITLETRANSLIT:;
#SUBTITLETRANSLIT:;
#ARTISTTRANSLIT:;
#CREDIT:;
#BANNER:Just Dance.png;
#BACKGROUND:Just Dance-bg.png;
#LYRICSPATH:;
#CDTITLE:./CDTITLES/DanceDanceRevolution X2.png;
#MUSIC:Just Dance.mp3;
#OFFSET:-0.107;
#SAMPLESTART:47.857;
#SAMPLELENGTH:15.000;
#SELECTABLE:YES;
#BPMS:0.000=119.000;
#STOPS:;
#BGCHANGES:
;

//---------------dance-single - ----------------
#NOTES:
     dance-single:
     :
     Easy:
     3:
     0.187,0.221,0.019,0.058,0.000:
0000
0000
0000
0000
,
0000
0000
0000
0000
,
0000
0000
0000
0000
,
0000
0000
0000
0000
,
1000
0000
0000
0000
,
1000
0000
0000
0000
,
0001
0000
0000
0000
,
0001
0000
0000
0000
,
0100
0100
0000
0100
,
0000
0100
0000
0010
,
0010
0100
0000
0001
,
0000
0001
0000
0001
,
0001
0000
0100
0000
,
0010
0000
1000
0000
,
0100
0000
0010
0000
,
0001
0000
0000
1000
,
1000
0000
0001
0000
,
1000
0000
0001
0000
,
0100
0100
0000
0100
,
0000
0001
0000
0010
,
0000
1000
0000
0010
,
0010
0001
0000
0001
,
0000
0001
0000
0001
,
1000
1000
0000
0000
,
1000
1000
1000
1000
,
0000
0001
0000
0001
,
0100
0100
0100
0100
,
0000
0010
0000
0010
,
0010
0010
0010
0010
,
0000
0100
0000
0100
,
0001
0001
0001
0001
,
0000
1000
0000
1000
,
1001
0000
0000
0000
,
1000
0000
0100
0000
,
0010
0000
0001
0000
,
0001
0000
0100
0000
,
0010
0000
1000
0000
,
0100
0100
0000
0000
,
0000
0000
0100
0100
,
0010
0000
0001
0000
,
0001
0000
0001
1000
,
0001
0200
0300
0020
,
0030
0200
0300
0000
,
0000
0010
0010
0010
,
0010
0010
0010
0010
,
0000
0200
0300
0002
,
0003
2000
3000
0000
,
0100
0100
0100
0100
,
0100
0100
0000
0000
,
1000
0010
0001
0010
,
0000
0010
0000
0010
,
1000
0100
0010
0001
,
0000
0001
0000
0001
,
0100
0010
0100
0001
,
0000
1000
0000
1000
,
0100
0010
0100
1000
,
0000
0001
0000
0001
,
1001
0000
0000
0000
;

//---------------dance-single - ----------------
#NOTES:
     dance-single:
     :
     Medium:
     6:
     0.366,0.332,0.000,0.058,0.000:
0000
0000
0000
0000
,
0000
0000
0000
0000
,
0000
0000
0000
0000
,
0000
0000
0000
0000
,
1000
0000
0100
0000
1000
0000
0100
0010
,
0001
0000
0100
0000
0001
0000
0100
0010
,
1000
0000
0100
0000
1000
0000
0001
0100
,
0010
0000
1000
0000
0100
0000
0010
0001
,
1000
0000
0010
1000
0010
0000
0100
0001
,
0100
0000
0010
1000
0000
1000
0000
1000
,
0001
0000
0010
0001
0010
0000
0001
0100
,
0001
0000
0001
0100
0000
0100
0000
0100
,
0010
0000
1000
0100
1000
0000
0001
0100
,
0001
0000
0010
0001
0000
0001
0000
0001
,
1000
0000
1000
0100
1000
0000
1000
0010
,
1000
0000
0010
0100
0000
0100
0000
0100
,
0001
0020
0031
0200
,
0310
0000
1000
0000
0001
0100
1000
0000
,
0100
0010
1000
0001
,
0100
0010
1000
0001
,
0100
0002
0013
2000
,
3100
0000
1000
0010
0001
0000
0010
0000
,
0100
0001
1000
0100
,
1000
0000
0001
0100
0000
0100
0000
0100
,
0010
1000
0010
1000
,
0100
0000
1000
0000
0100
0000
0010
0001
,
0010
0001
0100
0001
,
0100
0000
0010
0000
1000
0000
0010
1000
,
0001
1000
0001
1000
,
0100
0000
1000
0000
0010
0000
0100
0001
,
0100
0010
1000
0100
,
0010
0000
0001
0000
1000
0000
0100
1000
,
0001
0000
0000
0000
,
0001
0000
0001
0100
0010
0000
0010
1000
,
0100
0000
0100
0010
0000
0010
0000
0010
,
0001
0000
0001
1000
0001
0000
1000
0001
,
1000
0000
1000
0100
0000
0100
0000
0100
,
0010
0000
0001
0010
0001
0000
0001
0100
,
0001
0000
0001
0100
0000
0100
0000
0100
,
0010
0000
0100
0010
0100
0000
0010
1000
,
0010
0000
1000
0100
0000
0100
0000
0100
,
1000
0002
0103
0020
,
1030
0000
1000
0000
0001
0100
1000
0000
,
0100
0000
1000
0000
0010
0000
0100
0100
,
0001
0000
0010
0010
0001
0000
1000
1000
,
0001
1000
0100
0001
,
0100
0000
1000
0010
0001
0000
0010
0000
,
0100
0001
1000
0100
,
1000
0000
0001
1000
0000
1000
0000
1000
,
0100
0100
1000
0000
0100
0000
0010
0000
,
0001
0001
0010
0000
0001
0000
0100
0000
,
0010
0000
1000
0000
0100
0000
0010
0001
,
0010
0000
0001
0000
0100
0000
0010
0010
,
1000
0000
0100
0100
0010
0000
0001
0000
,
0100
0000
0010
0000
1000
0000
0100
0010
,
0001
1000
0100
1000
,
0001
0000
0100
0000
0010
0000
1000
0001
,
1000
0000
0000
0000
;

//---------------dance-single - Copied from----------------
#NOTES:
     dance-single:
     Copied from:
     Hard:
     8:
     0.540,0.498,0.165,0.213,0.000:
0000
0000
0000
0000
,
0000
0000
0000
0000
,
0000
0000
0000
0000
,
0000
0000
0000
0000
,
1000
0100
1000
0010
0100
0000
0101
0000
,
0001
0100
0010
1000
1000
0001
0100
0000
,
0001
1000
0010
0100
0001
0000
1001
0000
,
0010
1000
0010
0100
0100
0001
1000
0010
,
0100
0001
1000
0100
1000
1000
0001
0100
,
0020
0000
0130
0001
0000
1000
0000
0001
,
0100
0010
1000
0100
0001
0100
1000
0010
,
0200
0000
0301
0010
0100
0000
1100
0000
,
1000
0100
0010
0001
0010
0010
0002
0000
,
0013
0001
1000
0100
0000
1000
0000
0100
,
0010
0000
0001
1000
0100
0000
0010
0001
,
0100
0000
0100
0001
0000
0010
0000
0001
,
1000
2001
3001
0201
,
0301
0000
2010
0000
3010
0100
0001
2000
,
0000
3100
0010
0001
0100
0100
0010
1000
,
0100
0001
0100
1000
0010
0100
0001
2000
,
0000
3000
0210
0000
0310
0000
0101
0000
,
2010
0000
3010
0100
0001
0100
0010
2000
,
0000
3010
0100
0001
1000
0010
0001
0010
,
0100
0000
0001
1000
0000
0100
0000
0010
,
0001
0100
0010
1000
0100
0010
0001
0100
,
0010
0100
0001
1000
0001
0010
0001
0010
,
0100
1000
0010
0001
0010
0100
0001
1000
,
0010
1000
0001
0100
0010
0100
1000
0100
,
0001
0010
0100
1000
0100
0010
0100
1000
,
0001
0100
0001
0100
0010
1000
0001
1000
,
0100
0010
0100
1000
0001
1000
0010
1000
,
0001
0010
0100
1000
0100
0001
0100
1000
,
0002
0000
0000
0000
,
1003
0010
0100
0010
1000
0001
0100
0100
,
0010
0000
1000
0100
0000
0010
0000
0100
,
0010
0001
0100
1000
0100
0001
0010
0100
,
1000
0000
0100
1000
0001
0000
0201
0000
,
0310
1000
0001
1000
0010
0010
0200
0000
,
0301
1000
0010
0100
0000
0001
0000
0100
,
0010
0000
1000
0100
0010
0000
0001
0010
,
0100
0000
1000
0001
0000
0100
0000
0001
,
0100
0210
0310
2010
,
3010
0000
0201
0000
0301
0010
0100
2000
,
0000
3001
1000
0100
1000
0010
0001
0010
,
1000
0001
0100
0001
1000
0100
1000
0020
,
0000
0030
0102
0000
1003
0000
1010
0000
,
2001
0000
3001
0100
0010
0100
0001
0200
,
0000
0310
1000
0100
0001
0100
1000
0010
,
0100
0000
0001
1000
0000
0010
0000
0100
,
0001
0010
1000
0010
0100
1000
0001
0100
,
0010
1000
0100
0010
0100
0001
0100
1000
,
0001
0100
0001
0100
0010
1000
0010
0100
,
0001
0010
0001
0100
0001
1000
0100
0010
,
0001
0100
1000
0100
0010
1000
0001
0100
,
0010
0100
0001
0100
0010
1000
0001
0100
,
0001
0010
0001
1000
0100
0010
0001
0100
,
1000
0100
0001
0010
0001
1000
0100
0010
,
0110
0000
0000
0000
;
